Jump to content
justwondering

ANSWERED Emby Server on Raspberry Pi crashing

Recommended Posts

widget100

Ok, have done that again but not sure what difference it'll make.

 

The time it went down 01.52.07 I was asleep. If you look in the log at that timeframe it's talking to 192.168.1.104 which is my Android phone which has the emby client on but that client wasnt active, so the client is doing stuff when it should be idle. However the log continues after that and the last thing it does before dying is UPNP to the router. Does that give a clue?

 

I'll leave it running without TVH for a few days and report back.

Share this post


Link to post
Share on other sites
Luke

The crash you posted mentions tvheadend so that's why I suggested it.

Share this post


Link to post
Share on other sites
widget100

Ok, TVH plugin removed.No crashes overnight but 2 in quick succession this afternoon. I was updating metadata at the time if that helps at all.

 

Syslog was:

 

Aug  1 15:35:50 raspberrypi emby-server[550]:   Duration: 00:52:56.52, start: 0.000000, bitrate: 1841 kb/s

Aug  1 15:35:50 raspberrypi emby-server[550]:     Stream #0:0: Video: mpeg4 (Advanced Simple Profile) (XVID / 0x44495658), yuv420p, 640x272 [sAR 1:1 DAR 40:17], 1639 kb/s, 25 fps, 25 tbr, 25 tbn, 25 tbc

Aug  1 15:35:50 raspberrypi emby-server[550]:     Stream #0:1: Audio: mp3 (U[0][0][0] / 0x0055), 48000 Hz, stereo, fltp, 190 kb/s

Aug  1 15:36:33 raspberrypi tvheadend[611]: epggrab: UK: Freeview - data completion timeout for 554MHz in DVB-T Network

Aug  1 15:36:33 raspberrypi tvheadend[611]: subscription: 0039: "epggrab" unsubscribing

Aug 01 15:35:49 raspberrypi emby-server[550]:   libswscale      5.  1.100 /  5.  1.100

Aug 01 15:35:49 raspberrypi emby-server[550]:   libswresample   3.  1.100 /  3.  1.100

Aug 01 15:35:49 raspberrypi emby-server[550]:   libpostproc    55.  1.100 / 55.  1.100

Aug 01 15:35:50 raspberrypi emby-server[550]: Input #0, avi, from 'file:/mnt/Movies/Watched Movies/Action-Adventure/Kn

Aug 01 15:35:50 raspberrypi emby-server[550]:   Duration: 00:52:56.52, start: 0.000000, bitrate: 1841 kb/s

Aug 01 15:35:50 raspberrypi emby-server[550]:     Stream #0:0: Video: mpeg4 (Advanced Simple Profile) (XVID / 0x444956

Aug 01 15:35:50 raspberrypi emby-server[550]:     Stream #0:1: Audio: mp3 (U[0][0][0] / 0x0055), 48000 Hz, stereo, flt

Aug 01 15:35:49 raspberrypi emby-server[550]:   libswscale      5.  1.100 /  5.  1.100

Aug 01 15:35:49 raspberrypi emby-server[550]:   libswresample   3.  1.100 /  3.  1.100

Aug 01 15:35:49 raspberrypi emby-server[550]:   libpostproc    55.  1.100 / 55.  1.100

Aug 01 15:35:50 raspberrypi emby-server[550]: Input #0, avi, from 'file:/mnt/Movies/Watched Movies/Action-Adventure/Kn

Aug 01 15:35:50 raspberrypi emby-server[550]:   Duration: 00:52:56.52, start: 0.000000, bitrate: 1841 kb/s

Aug 01 15:35:50 raspberrypi emby-server[550]:     Stream #0:0: Video: mpeg4 (Advanced Simple Profile) (XVID / 0x444956

Aug 01 15:35:50 raspberrypi emby-server[550]:     Stream #0:1: Audio: mp3 (U[0][0][0] / 0x0055), 48000 Hz, stereo, flt

Aug 01 15:35:57 raspberrypi systemd[1]: emby-server.service: Main process exited, code=killed, status=6/ABRT

Aug 01 15:35:57 raspberrypi systemd[1]: emby-server.service: Unit entered failed state.

Aug 01 15:35:57 raspberrypi systemd[1]: emby-server.service: Failed with result 'signal'

 

and

 

Aug  1 15:50:04 raspberrypi emby-server[10699]:   libswresample   3.  1.100 /  3.  1.100

Aug  1 15:50:04 raspberrypi emby-server[10699]:   libpostproc    55.  1.100 / 55.  1.100

Aug  1 15:50:04 raspberrypi emby-server[10699]: Input #0, mpeg, from 'file:/mnt/Movies/Watched Movies/Action-Adventure/Die another Day2.mpg':

Aug  1 15:50:04 raspberrypi emby-server[10699]:   Duration: 00:59:39.69, start: 0.426711, bitrate: 1394 kb/s

Aug  1 15:50:04 raspberrypi emby-server[10699]:     Stream #0:0[0x1e0]: Video: mpeg1video, yuv420p(tv), 352x288 [sAR 178:163 DAR 1958:1467], 1150 kb/s, 25 fps, 25 tbr, 90k tbn, 25 tbc

Aug  1 15:50:04 raspberrypi emby-server[10699]:     Stream #0:1[0x1c0]: Audio: mp2, 44100 Hz, stereo, s16p, 224 kb/s

Aug  1 15:51:35 raspberrypi emby-server[10699]: *** Error in `/opt/emby-server/system/EmbyServer': double free or corruption (fasttop): 0x71826828 ***

Aug  1 15:51:35 raspberrypi systemd[1]: emby-server.service: Main process exited, code=killed, status=6/ABRT

Aug  1 15:51:35 raspberrypi systemd[1]: emby-server.service: Unit entered failed state.

Aug  1 15:51:35 raspberrypi systemd[1]: emby-server.service: Failed with result 'signal'

1.log

2.log

3.log

Share this post


Link to post
Share on other sites
Luke

Thanks for the info.

Share this post


Link to post
Share on other sites
widget100

Ok, since removing the TVH plugin again it's been stable until it hung (no abrt) this afternoon. I've not really touched it much since the last crash apart from play a few items. It feels like a memory leak to me which is exacerbated by TVH because that's pounding it every so often to update the EPG.

 

Another thing unrelated to this - tried to play music this afternoon, just an album folder to DLNA. What a horrible experience. After every track ends it switched back to TV and then switched back to the music a few seconds later when the next track started. Is that just DLNA or something that Emby can do better? Not something I ever tried with Plex as far as I can remember.

Share this post


Link to post
Share on other sites
Luke

That's probably a little of both. Dlna requires individual testing on every device you want to support in order to really get the best experience possible.

Share this post


Link to post
Share on other sites
Thomas Korimort

Hi! I have same crash issue on my Raspbian and RPi 3 B+. I installed Emby server yesterday (22.8.2018) and it was shut down sometimes. By reading the thread just now i deactivated automatic port mapping. On my router i have switched off UPnP services. I have made a manual port forward. Is that necessary, when using Emby Connect. I realised, that by using the http://app.emby.media/ web interface with an Emby connect account, my local server can also be accessed from external. I think it does not need DynDNS or any fixed IP or similar??? Also, it worked with UPnP and port forwarding off on my router. However, it crashed.

 

Another issue i realised is with the web client http://app.emby.media . Using it on my Chrome Android Handy browser, sometimes the play lists are mismatched with the media playing. There seems to be some error in the web client code, mismatching the displayed list elements with the contents. I hope that this is no server issue.

Share this post


Link to post
Share on other sites
Luke

Hi, thanks for the report. Since you opened a topic about this, I will help you there. Thanks.

Share this post


Link to post
Share on other sites

Create an account or sign in to comment

You need to be a member in order to leave a comment

Create an account

Sign up for a new account in our community. It's easy!

Register a new account

Sign in

Already have an account? Sign in here.

Sign In Now

×
×
  • Create New...