Jump to content

[Sony KD-55AG9] supports H.265 (HEVC) video codec


Recommended Posts

Juan Simón

Server:
Arch Linux
Emby server 4.4.0.40

Client:
Sony KD-55AG9
Android TV 9

Yesterday I played this movie (see spoiler) in a Sony KD-55AG9:

 

 

General

Format : Matroska

Format version : Version 4

File size : 29.5 GiB

Duration : 2 h 10 min

Overall bit rate mode : Variable

Overall bit rate : 32.4 Mb/s

Encoded date : UTC 2020-03-25 22:37:17

Writing application : mkvmerge v44.0.0 ('Domino') 64-bit

Writing library : libebml v1.3.10 + libmatroska v1.5.2

 

Video

ID : 1

Format : HEVC

Format/Info : High Efficiency Video Coding

Format profile : Main 10@L5.1@High

HDR format : SMPTE ST 2086, HDR10 compatible

Codec ID : V_MPEGH/ISO/HEVC

Duration : 2 h 10 min

Bit rate : 26.8 Mb/s

Width : 1 920 pixels

Height : 1 038 pixels

Display aspect ratio : 1.85:1

Frame rate mode : Constant

Frame rate : 23.976 (24000/1001) FPS

Color space : YUV

Chroma subsampling : 4:2:0 (Type 2)

Bit depth : 10 bits

Bits/(Pixel*Frame) : 0.561

Stream size : 24.4 GiB (83%)

Title : Puñales por la espalda (2019) [uHDRip 1080p HDR x265 Dual DTS-HD MA 5.1 TrueHD Atmos 7.1 Subs][GrupoHDS] -SA89

Writing library : x265 3.2+34-8e6db24c1517:[Windows][GCC 9.2.0][64 bit] 10bit

Encoding settings : cpuid=1111039 / frame-threads=4 / numa-pools=24 / wpp / no-pmode / no-pme / no-psnr / no-ssim / log-level=2 / input-csp=1 / input-res=1920x1038 / interlace=0 / total-frames=187324 / level-idc=51 / high-tier=1 / uhd-bd=0 / ref=6 / no-allow-non-conformance / repeat-headers / annexb / aud / hrd / info / hash=0 / no-temporal-layers / no-open-gop / min-keyint=24 / keyint=240 / gop-lookahead=0 / bframes=16 / b-adapt=2 / b-pyramid / bframe-bias=0 / rc-lookahead=60 / lookahead-slices=0 / scenecut=40 / hist-scenecut=0 / radl=0 / no-splice / no-intra-refresh / ctu=32 / min-cu-size=8 / no-rect / no-amp / max-tu-size=32 / tu-inter-depth=4 / tu-intra-depth=4 / limit-tu=0 / rdoq-level=2 / dynamic-rd=0.00 / no-ssim-rd / signhide / no-tskip / nr-intra=0 / nr-inter=0 / no-constrained-intra / strong-intra-smoothing / max-merge=3 / limit-refs=1 / no-limit-modes / me=3 / subme=7 / merange=57 / temporal-mvp / no-frame-dup / no-hme / weightp / no-weightb / no-analyze-src-pics / deblock=-3:-3 / no-sao / no-sao-non-deblock / rd=3 / selective-sao=0 / early-skip / no-rskip / no-fast-intra / no-tskip-fast / no-cu-lossless / b-intra / no-splitrd-skip / rdpenalty=0 / psy-rd=2.00 / psy-rdoq=2.00 / no-rd-refine / no-lossless / cbqpoffs=0 / crqpoffs=0 / rc=crf / crf=15.0 / qcomp=0.60 / qpstep=4 / stats-write=0 / stats-read=0 / vbv-maxrate=160000 / vbv-bufsize=160000 / vbv-init=0.9 / crf-max=0.0 / crf-min=0.0 / ipratio=1.40 / pbratio=1.30 / aq-mode=3 / aq-strength=1.00 / no-cutree / zone-count=0 / no-strict-cbr / qg-size=16 / no-rc-grain / qpmax=69 / qpmin=0 / no-const-vbv / sar=1 / overscan=0 / videoformat=5 / range=0 / colorprim=9 / transfer=16 / colormatrix=9 / chromaloc=1 / chromaloc-top=2 / chromaloc-bottom=2 / display-window=0 / master-display=G(8500,39850)B(6550,2300)R(35400,14600)WP(15635,16450)L(10000000,1) / cll=267,89 / min-luma=0 / max-luma=1023 / log2-max-poc-lsb=8 / vui-timing-info / vui-hrd-info / slices=1 / no-opt-qp-pps / no-opt-ref-list-length-pps / no-multi-pass-opt-rps / scenecut-bias=0.05 / hist-threshold=0.01 / no-opt-cu-delta-qp / no-aq-motion / hdr10 / hdr10-opt / no-dhdr10-opt / no-idr-recovery-sei / analysis-reuse-level=0 / analysis-save-reuse-level=0 / analysis-load-reuse-level=0 / scale-factor=0 / refine-intra=0 / refine-inter=0 / refine-mv=0 / refine-ctu-distortion=0 / no-limit-sao / ctu-info=0 / no-lowpass-dct / refine-analysis-type=0 / copy-pic=1 / max-ausize-factor=1.0 / no-dynamic-refine / no-single-sei / no-hevc-aq / no-svt / no-field / qp-adaptation-range=1.00 / no-scenecut-aware-qpconformance-window-offsets / right=0 / bottom=0

Language : English

Default : Yes

Forced : No

Color range : Limited

Color primaries : BT.2020

Transfer characteristics : PQ

Matrix coefficients : BT.2020 non-constant

Mastering display color primaries : BT.2020

Mastering display luminance : min: 0.0001 cd/m2, max: 1000 cd/m2

Maximum Content Light Level : 267 cd/m2

Maximum Frame-Average Light Level : 89 cd/m2

 

Audio #1

ID : 2

Format : DTS XLL

Format/Info : Digital Theater Systems

Commercial name : DTS-HD Master Audio

Codec ID : A_DTS

Duration : 2 h 10 min

Bit rate mode : Variable

Bit rate : 1 723 kb/s

Channel(s) : 6 channels

Channel layout : C L R Ls Rs LFE

Sampling rate : 48.0 kHz

Frame rate : 93.750 FPS (512 SPF)

Bit depth : 16 bits

Compression mode : Lossless

Stream size : 1.57 GiB (5%)

Title : Castellano DTS-HD MA 5.1 @ 1723 kbps

Language : Spanish

Default : Yes

Forced : No

 

Audio #2

ID : 3

Format : MLP FBA 16-ch

Format/Info : Meridian Lossless Packing FBA with 16-channel presentation

Commercial name : Dolby TrueHD with Dolby Atmos

Codec ID : A_TRUEHD

Duration : 2 h 10 min

Bit rate mode : Variable

Bit rate : 2 585 kb/s

Maximum bit rate : 3 363 kb/s

Channel(s) : 8 channels

Channel layout : L R C LFE Ls Rs Lb Rb

Sampling rate : 48.0 kHz

Frame rate : 1 200.000 FPS (40 SPF)

Compression mode : Lossless

Stream size : 2.35 GiB (8%)

Title : Inglés TrueHD Atmos 7.1 @ 2585 kbps

Language : English

Default : No

Forced : No

Number of dynamic objects : 11

Bed channel count : 1 channel

Bed channel configuration : LFE

 

Audio #3

ID : 4

Format : AC-3

Format/Info : Audio Coding 3

Commercial name : Dolby Digital

Codec ID : A_AC3

Duration : 2 h 10 min

Bit rate mode : Constant

Bit rate : 640 kb/s

Channel(s) : 6 channels

Channel layout : L R C LFE Ls Rs

Sampling rate : 48.0 kHz

Frame rate : 31.250 FPS (1536 SPF)

Compression mode : Lossy

Stream size : 596 MiB (2%)

Title : Inglés DD 5.1 @ 640 kbps

Language : English

Service kind : Complete Main

Default : No

Forced : No

 

Audio #4

ID : 5

Format : AC-3

Format/Info : Audio Coding 3

Commercial name : Dolby Digital

Codec ID : A_AC3

Duration : 2 h 10 min

Bit rate mode : Constant

Bit rate : 224 kb/s

Channel(s) : 2 channels

Channel layout : L R

Sampling rate : 48.0 kHz

Frame rate : 31.250 FPS (1536 SPF)

Compression mode : Lossy

Stream size : 209 MiB (1%)

Title : Inglés DD 2.0 @ 224 kbps [Comentarios del director/guionista/productor Rian Johnson, el director de fotografía Steve Yedlin y el actor Noah Segan]

Language : English

Service kind : Complete Main

Default : No

Forced : No

 

Audio #5

ID : 6

Format : AC-3

Format/Info : Audio Coding 3

Commercial name : Dolby Digital

Codec ID : A_AC3

Duration : 2 h 10 min

Bit rate mode : Constant

Bit rate : 224 kb/s

Channel(s) : 2 channels

Channel layout : L R

Sampling rate : 48.0 kHz

Frame rate : 31.250 FPS (1536 SPF)

Compression mode : Lossy

Stream size : 209 MiB (1%)

Title : Inglés DD 2.0 @ 224 kbps [Comentarios del director/guionista/productor Rian Johnson -para cine-]

Language : English

Service kind : Complete Main

Default : No

Forced : No

 

Text #1

ID : 7

Format : PGS

Codec ID : S_HDMV/PGS

Codec ID/Info : Picture based subtitle format used on BDs/HD-DVDs

Duration : 2 h 4 min

Bit rate : 297 b/s

Count of elements : 30

Stream size : 271 KiB (0%)

Title : Castellano Forzados [PGS]

Language : Spanish

Default : Yes

Forced : Yes

 

Text #2

ID : 8

Format : PGS

Codec ID : S_HDMV/PGS

Codec ID/Info : Picture based subtitle format used on BDs/HD-DVDs

Duration : 2 h 8 min

Bit rate : 38.4 kb/s

Count of elements : 4524

Stream size : 35.5 MiB (0%)

Title : Castellano Completos [PGS]

Language : Spanish

Default : No

Forced : No

 

Text #3

ID : 9

Format : PGS

Codec ID : S_HDMV/PGS

Codec ID/Info : Picture based subtitle format used on BDs/HD-DVDs

Duration : 2 h 2 min

Bit rate : 57.1 kb/s

Count of elements : 4536

Stream size : 49.9 MiB (0%)

Title : Inglés Completos [PGS]

Language : English

Default : No

Forced : No

 

Text #4

ID : 10

Format : PGS

Codec ID : S_HDMV/PGS

Codec ID/Info : Picture based subtitle format used on BDs/HD-DVDs

Duration : 2 h 9 min

Bit rate : 60.2 kb/s

Count of elements : 5050

Stream size : 56.0 MiB (0%)

Title : Inglés Completos -SDH- [PGS]

Language : English

Default : No

Forced : No

 

Text #5

ID : 11

Format : UTF-8

Codec ID : S_TEXT/UTF8

Codec ID/Info : UTF-8 Plain Text

Duration : 2 h 4 min

Bit rate : 0 b/s

Count of elements : 15

Stream size : 394 Bytes (0%)

Title : Castellano Forzados [Planos]

Language : Spanish

Default : No

Forced : Yes

 

Text #6

ID : 12

Format : UTF-8

Codec ID : S_TEXT/UTF8

Codec ID/Info : UTF-8 Plain Text

Duration : 2 h 8 min

Bit rate : 71 b/s

Count of elements : 2262

Stream size : 67.5 KiB (0%)

Title : Castellano Completos [Planos]

Language : Spanish

Default : No

Forced : No

 

Text #7

ID : 13

Format : UTF-8

Codec ID : S_TEXT/UTF8

Codec ID/Info : UTF-8 Plain Text

Duration : 2 h 2 min

Bit rate : 83 b/s

Count of elements : 2268

Stream size : 74.7 KiB (0%)

Title : Inglés Completos [Planos]

Language : English

Default : No

Forced : No

 

Text #8

ID : 14

Format : UTF-8

Codec ID : S_TEXT/UTF8

Codec ID/Info : UTF-8 Plain Text

Duration : 2 h 9 min

Bit rate : 87 b/s

Count of elements : 2525

Stream size : 83.7 KiB (0%)

Title : Inglés Completos -SDH- [Planos]

Language : English

Default : No

Forced : No

 

Menu

00:00:00.000 : es:Capítulo 01

00:05:28.036 : es:Capítulo 02

00:21:23.115 : es:Capítulo 03

00:31:48.698 : es:Capítulo 04

00:44:30.959 : es:Capítulo 05

00:49:52.364 : es:Capítulo 06

00:54:53.581 : es:Capítulo 07

00:58:39.766 : es:Capítulo 08

01:07:09.775 : es:Capítulo 09

01:12:43.942 : es:Capítulo 10

01:22:30.278 : es:Capítulo 11

01:28:49.741 : es:Capítulo 12

01:34:44.428 : es:Capítulo 13

01:40:47.458 : es:Capítulo 14

01:43:43.634 : es:Capítulo 15

02:01:45.131 : es:Capítulo 16

 

 

 

This smart TV supports H.265 video codec natively (see specifications: https://www.sony.co.uk/electronics/support/televisions-projectors-oled-tvs-android-/kd-55ag9/specifications).

Why Emby transcode it?

5e7f58e1b81ba_captura_20200327_184632.pn

Link to post
Share on other sites
ebr

Hi.  Did you press the "i" button on that tile to find out why it was transcoding?

 

Also, I don't see many specifics in their support list (which is actually labeled as support from USB drive).  Specifically, I do not see 10-bit HEVC HDR listed which is  what you were trying to play.

Link to post
Share on other sites
Juan Simón
Posted (edited)

Hi.  Did you press the "i" button on that tile to find out why it was transcoding?

 

Also, I don't see many specifics in their support list (which is actually labeled as support from USB drive).  Specifically, I do not see 10-bit HEVC HDR listed which is  what you were trying to play.

 

"support from USB drive" means that this TV can play this movie directly from a USB stick. In fact, I copied the film in a USB stick and could play it directly on the TV.

5e7f5fbcbf5c8_captura_20200328_153106.pn

 


 

EDIT

I played the movie back just now to see the "i" button information and it played it directly. I don't understand anything. 

If I play another movie with the same specifications, I'll see if it plays directly.  

Edited by Juan Simón
Link to post
Share on other sites

Create an account or sign in to comment

You need to be a member in order to leave a comment

Create an account

Sign up for a new account in our community. It's easy!

Register a new account

Sign in

Already have an account? Sign in here.

Sign In Now
×
×
  • Create New...