Jump to content

Panasonic tv wont play transcoded MKV


onehans
 Share

Recommended Posts

after struggle i found a way to play probably all video in my library via DLNA( the ones i have checked works ) i have two panasonic tv one old probably 7 years and one new just bought. 

profile that works for me on both tv is in transcoding tab TS, h264, mp3 it has to have option "enable M2ts mode" ON and other two off in advanced, and i removed MOV profile as well as DTS and AC3 from all profiles since they will not work on panasonic.

 

now the problem 1. i have is that this tvs will play subtitles only on MKV container and as i said it wont play if i change TS to MKV.

problem 2. is i cant pause or rewind for some reason despite trying options in advanced tab of profile and all posible combinations of MKV TS MP4 AVI

 

my setup is QNAP 253 PRO and EMBY Version 3.1.2.0 my server is on intel and im using ffmpeg binary static 3.2.2

 

pls help

Edited by onehans
Link to comment
Share on other sites

If you would please just read the page it will tell you how to access it without having to go through your folders :)

Link to comment
Share on other sites

If you would please just read the page it will tell you how to access it without having to go through your folders :)

oh thats brilliant :) ill change container to mkv try play and post log here

Link to comment
Share on other sites

i get spinning wheel on tv and no info that is unsupported or cant read file. 

http://192.168.1.50:8096/videos/fe0f86745e3f87f5d42ca021d5414501/stream.mkv?Params=83c23e417993f3292605f25242001dc0;test;fe0f86745e3f87f5d42ca021d5414501;false;h264;mp3;1;;23552000;448000;;;;;0;;;;;;;;;fe0f86745e3f87f5d42ca021d5414501;false;;;false;411180bf1f3d67790c06ee6acc510bc6;false

{"Protocol":"File","Id":"fe0f86745e3f87f5d42ca021d5414501","Path":"/share/Multimedia/MOVIES/Accountant, The (2016)/The Accountant2016720p.mkv","Type":"Default","Container":"mkv","Name":"720P/H264/DTS","ETag":"411180bf1f3d67790c06ee6acc510bc6","RunTimeTicks":76742623232,"ReadAtNativeFramerate":false,"SupportsTranscoding":true,"SupportsDirectStream":true,"SupportsDirectPlay":true,"IsInfiniteStream":false,"RequiresOpening":false,"RequiresClosing":false,"SupportsProbing":true,"VideoType":"VideoFile","MediaStreams":[{"Codec":"h264","Language":"eng","TimeBase":"1/1000","CodecTimeBase":"583/27956","NalLengthSize":"4","IsInterlaced":false,"IsAVC":true,"BitRate":6116062,"BitDepth":8,"RefFrames":1,"IsDefault":true,"IsForced":false,"Height":536,"Width":1280,"AverageFrameRate":23.97599,"RealFrameRate":23.97599,"Profile":"High","Type":"Video","AspectRatio":"2.40:1","Index":0,"IsExternal":false,"IsTextSubtitleStream":false,"SupportsExternalStream":false,"PixelFormat":"yuv420p","Level":41,"IsAnamorphic":false},{"Codec":"dts","Language":"eng","TimeBase":"1/1000","CodecTimeBase":"1/48000","DisplayTitle":"Eng DTS 5.1 Default","IsInterlaced":false,"ChannelLayout":"5.1","BitRate":1536000,"Channels":6,"SampleRate":48000,"IsDefault":true,"IsForced":false,"Profile":"DTS","Type":"Audio","Index":1,"IsExternal":false,"IsTextSubtitleStream":false,"SupportsExternalStream":false,"Level":0,"IsAnamorphic":false},{"Codec":"sub","Language":"eng","DisplayTitle":"Eng","IsInterlaced":false,"IsDefault":false,"IsForced":false,"Type":"Subtitle","Index":2,"IsExternal":true,"IsTextSubtitleStream":false,"SupportsExternalStream":true,"Path":"/share/Multimedia/MOVIES/Accountant, The (2016)/The Accountant2016720p.en.sub","IsAnamorphic":true},{"Codec":"srt","Language":"pol","DisplayTitle":"Pol","IsInterlaced":false,"IsDefault":false,"IsForced":false,"Type":"Subtitle","Index":3,"IsExternal":true,"IsTextSubtitleStream":true,"SupportsExternalStream":true,"Path":"/share/Multimedia/MOVIES/Accountant, The (2016)/The Accountant2016720p.pl.srt","IsAnamorphic":true},{"Codec":"srt","DisplayTitle":"","IsInterlaced":false,"IsDefault":false,"IsForced":false,"Type":"Subtitle","Index":4,"IsExternal":true,"IsTextSubtitleStream":true,"SupportsExternalStream":true,"Path":"/share/Multimedia/MOVIES/Accountant, The (2016)/The Accountant2016720p.srt","IsAnamorphic":true}],"PlayableStreamFileNames":[],"Formats":[],"Bitrate":7652062,"RequiredHttpHeaders":{}}

ffmpeg -fflags +genpts -i file:"/share/Multimedia/MOVIES/Accountant, The (2016)/The Accountant2016720p.mkv" -map 0:0 -map 0:1 -map -0:s -codec:v:0 copy -map_metadata -1 -map_chapters -1 -threads 0 -codec:a:0 libmp3lame -ac 2 -ab 384000 -af "aresample=async=1,volume=2" -y "/share/CACHEDEV1_DATA/.qpkg/Emby/Emby/ProgramData-Server/transcoding-temp/8de6b0212f1342770050c6caf2842d93.mkv"


ffmpeg version 3.2.2-static http://johnvansickle.com/ffmpeg/  Copyright (c) 2000-2016 the FFmpeg developers
  built with gcc 5.4.1 (Debian 5.4.1-4) 20161202
  configuration: --enable-gpl --enable-version3 --enable-static --disable-debug --disable-ffplay --disable-indev=sndio --disable-outdev=sndio --cc=gcc-5 --enable-fontconfig --enable-frei0r --enable-gnutls --enable-gray --enable-libass --enable-libfreetype --enable-libfribidi --enable-libmp3lame --enable-libopencore-amrnb --enable-libopencore-amrwb --enable-libopenjpeg --enable-libopus --enable-librtmp --enable-libsoxr --enable-libspeex --enable-libtheora --enable-libvidstab --enable-libvo-amrwbenc --enable-libvorbis --enable-libvpx --enable-libwebp --enable-libx264 --enable-libx265 --enable-libxvid --enable-libzimg
  libavutil      55. 34.100 / 55. 34.100
  libavcodec     57. 64.101 / 57. 64.101
  libavformat    57. 56.100 / 57. 56.100
  libavdevice    57.  1.100 / 57.  1.100
  libavfilter     6. 65.100 /  6. 65.100
  libswscale      4.  2.100 /  4.  2.100
  libswresample   2.  3.100 /  2.  3.100
  libpostproc    54.  1.100 / 54.  1.100
Input #0, matroska,webm, from 'file:/share/Multimedia/MOVIES/Accountant, The (2016)/The Accountant2016720p.mkv':
  Metadata:
    encoder         : libebml v1.3.1 + libmatroska v1.4.2
    creation_time   : 2016-12-23T21:19:36.000000Z
  Duration: 02:07:54.26, start: 0.000000, bitrate: 6116 kb/s
    Chapter #0:0: start 0.000000, end 781.447000
    Metadata:
      title           : 00:00:00.000
    Chapter #0:1: start 781.447000, end 1236.277000
    Metadata:
      title           : 00:13:01.447
    Chapter #0:2: start 1236.277000, end 1770.394000
    Metadata:
      title           : 00:20:36.277
    Chapter #0:3: start 1770.394000, end 2324.656000
    Metadata:
      title           : 00:29:30.394
    Chapter #0:4: start 2324.656000, end 2973.679000
    Metadata:
      title           : 00:38:44.656
    Chapter #0:5: start 2973.679000, end 3605.435000
    Metadata:
      title           : 00:49:33.679
    Chapter #0:6: start 3605.435000, end 4419.707000
    Metadata:
      title           : 01:00:05.435
    Chapter #0:7: start 4419.707000, end 5157.069000
    Metadata:
      title           : 01:13:39.707
    Chapter #0:8: start 5157.069000, end 5955.658000
    Metadata:
      title           : 01:25:57.069
    Chapter #0:9: start 5955.658000, end 6871.156000
    Metadata:
      title           : 01:39:15.658
    Chapter #0:10: start 6871.156000, end 7300.251000
    Metadata:
      title           : 01:54:31.156
    Chapter #0:11: start 7300.251000, end 7674.262000
    Metadata:
      title           : 02:01:40.251
    Stream #0:0(eng): Video: h264 (High), yuv420p(progressive), 1280x536 [SAR 1:1 DAR 160:67], 23.98 fps, 23.98 tbr, 1k tbn, 47.95 tbc (default)
    Metadata:
      BPS             : 4604749
      BPS-eng         : 4604749
      DURATION        : 02:07:54.262000000
      DURATION-eng    : 02:07:54.262000000
      NUMBER_OF_FRAMES: 183998
      NUMBER_OF_FRAMES-eng: 183998
      NUMBER_OF_BYTES : 4417256670
      NUMBER_OF_BYTES-eng: 4417256670
      _STATISTICS_WRITING_APP: mkvmerge v8.3.0 ('Over the Horizon') 64bit
      _STATISTICS_WRITING_APP-eng: mkvmerge v8.3.0 ('Over the Horizon') 64bit
      _STATISTICS_WRITING_DATE_UTC: 2016-12-23 21:19:36
      _STATISTICS_WRITING_DATE_UTC-eng: 2016-12-23 21:19:36
      _STATISTICS_TAGS: BPS DURATION NUMBER_OF_FRAMES NUMBER_OF_BYTES
      _STATISTICS_TAGS-eng: BPS DURATION NUMBER_OF_FRAMES NUMBER_OF_BYTES
    Stream #0:1(eng): Audio: dts (DTS), 48000 Hz, 5.1(side), fltp, 1536 kb/s (default)
    Metadata:
      BPS             : 1508999
      BPS-eng         : 1508999
      DURATION        : 02:07:54.219000000
      DURATION-eng    : 02:07:54.219000000
      NUMBER_OF_FRAMES: 719458
      NUMBER_OF_FRAMES-eng: 719458
      NUMBER_OF_BYTES : 1447549496
      NUMBER_OF_BYTES-eng: 1447549496
      _STATISTICS_WRITING_APP: mkvmerge v8.3.0 ('Over the Horizon') 64bit
      _STATISTICS_WRITING_APP-eng: mkvmerge v8.3.0 ('Over the Horizon') 64bit
      _STATISTICS_WRITING_DATE_UTC: 2016-12-23 21:19:36
      _STATISTICS_WRITING_DATE_UTC-eng: 2016-12-23 21:19:36
      _STATISTICS_TAGS: BPS DURATION NUMBER_OF_FRAMES NUMBER_OF_BYTES
      _STATISTICS_TAGS-eng: BPS DURATION NUMBER_OF_FRAMES NUMBER_OF_BYTES
Output #0, matroska, to '/share/CACHEDEV1_DATA/.qpkg/Emby/Emby/ProgramData-Server/transcoding-temp/8de6b0212f1342770050c6caf2842d93.mkv':
  Metadata:
    encoder         : Lavf57.56.100
    Stream #0:0: Video: h264 (High) (H264 / 0x34363248), yuv420p(progressive), 1280x536 [SAR 1:1 DAR 160:67], q=2-31, 23.98 fps, 23.98 tbr, 1k tbn, 1k tbc (default)
    Stream #0:1: Audio: mp3 (libmp3lame) (U[0][0][0] / 0x0055), 48000 Hz, stereo, fltp, 384 kb/s (default)
    Metadata:
      encoder         : Lavc57.64.101 libmp3lame
Stream mapping:
  Stream #0:0 -> #0:0 (copy)
  Stream #0:1 -> #0:1 (dts (dca) -> mp3 (libmp3lame))
Press [q] to stop, [?] for help
frame=  141 fps=0.0 q=-1.0 size=     146kB time=00:00:05.85 bitrate= 204.5kbits/s speed=11.7x    
frame=  266 fps=266 q=-1.0 size=    7020kB time=00:00:11.13 bitrate=5163.4kbits/s speed=11.1x    
frame=  383 fps=255 q=-1.0 size=    9858kB time=00:00:15.96 bitrate=5059.4kbits/s speed=10.6x    
frame=  501 fps=250 q=-1.0 size=   10745kB time=00:00:20.90 bitrate=4210.8kbits/s speed=10.4x    
frame=  629 fps=251 q=-1.0 size=   11605kB time=00:00:26.25 bitrate=3620.5kbits/s speed=10.5x    
frame=  760 fps=253 q=-1.0 size=   13547kB time=00:00:31.63 bitrate=3508.2kbits/s speed=10.5x    
frame=  894 fps=255 q=-1.0 size=   13712kB time=00:00:37.32 bitrate=3009.9kbits/s speed=10.6x    
frame= 1041 fps=260 q=-1.0 size=   13987kB time=00:00:43.51 bitrate=2633.2kbits/s speed=10.9x    
frame= 1192 fps=264 q=-1.0 size=   19332kB time=00:00:49.65 bitrate=3189.2kbits/s speed=  11x    
frame= 1331 fps=265 q=-1.0 size=   22628kB time=00:00:55.46 bitrate=3342.1kbits/s speed=  11x    
frame= 1466 fps=265 q=-1.0 size=   29214kB time=00:01:01.10 bitrate=3916.5kbits/s speed=11.1x    
frame= 1600 fps=266 q=-1.0 size=   32155kB time=00:01:06.72 bitrate=3948.0kbits/s speed=11.1x    
frame= 1747 fps=268 q=-1.0 size=   32936kB time=00:01:12.76 bitrate=3707.7kbits/s speed=11.1x    
frame= 1890 fps=269 q=-1.0 size=   34676kB time=00:01:18.79 bitrate=3605.3kbits/s speed=11.2x    
frame= 2035 fps=270 q=-1.0 size=   37347kB time=00:01:24.88 bitrate=3604.0kbits/s speed=11.3x    
frame= 2178 fps=271 q=-1.0 size=   38483kB time=00:01:30.84 bitrate=3470.4kbits/s speed=11.3x    
frame= 2320 fps=272 q=-1.0 size=   41481kB time=00:01:36.81 bitrate=3509.8kbits/s speed=11.3x    
frame= 2461 fps=272 q=-1.0 size=   44692kB time=00:01:42.72 bitrate=3564.2kbits/s speed=11.4x    
frame= 2599 fps=273 q=-1.0 size=   47865kB time=00:01:48.33 bitrate=3619.4kbits/s speed=11.4x    
frame= 2731 fps=272 q=-1.0 size=   51137kB time=00:01:53.90 bitrate=3677.7kbits/s speed=11.4x    
frame= 2870 fps=272 q=-1.0 size=   53153kB time=00:01:59.68 bitrate=3638.0kbits/s speed=11.4x    
frame= 3013 fps=273 q=-1.0 size=   54440kB time=00:02:05.61 bitrate=3550.3kbits/s speed=11.4x    
frame= 3149 fps=273 q=-1.0 size=   55849kB time=00:02:11.35 bitrate=3483.1kbits/s speed=11.4x    
frame= 3281 fps=273 q=-1.0 size=   56113kB time=00:02:16.84 bitrate=3359.0kbits/s speed=11.4x    
frame= 3420 fps=273 q=-1.0 size=   56468kB time=00:02:22.65 bitrate=3242.6kbits/s speed=11.4x    
frame= 3562 fps=273 q=-1.0 size=   62351kB time=00:02:28.60 bitrate=3437.1kbits/s speed=11.4x    
frame= 3707 fps=274 q=-1.0 size=   64996kB time=00:02:34.58 bitrate=3444.3kbits/s speed=11.4x    
frame= 3847 fps=274 q=-1.0 size=   68793kB time=00:02:40.48 bitrate=3511.5kbits/s speed=11.4x    
frame= 3978 fps=274 q=-1.0 size=   72277kB time=00:02:45.88 bitrate=3569.2kbits/s speed=11.4x    
frame= 4119 fps=274 q=-1.0 size=   76672kB time=00:02:51.76 bitrate=3656.6kbits/s speed=11.4x    
frame= 4261 fps=274 q=-1.0 size=   78889kB time=00:02:57.72 bitrate=3636.4kbits/s speed=11.4x    
frame= 4386 fps=273 q=-1.0 size=   83790kB time=00:03:02.83 bitrate=3754.3kbits/s speed=11.4x    
frame= 4505 fps=272 q=-1.0 size=   87299kB time=00:03:07.99 bitrate=3804.2kbits/s speed=11.4x    
frame= 4622 fps=271 q=-1.0 size=   90884kB time=00:03:12.69 bitrate=3863.7kbits/s speed=11.3x    
frame= 4736 fps=270 q=-1.0 size=   93146kB time=00:03:17.49 bitrate=3863.6kbits/s speed=11.3x    
frame= 4865 fps=270 q=-1.0 size=   97967kB time=00:03:22.89 bitrate=3955.4kbits/s speed=11.2x    
frame= 5002 fps=270 q=-1.0 size=  101873kB time=00:03:28.63 bitrate=4000.1kbits/s speed=11.3x    
frame= 5142 fps=270 q=-1.0 size=  104483kB time=00:03:34.46 bitrate=3991.0kbits/s speed=11.3x    
frame= 5276 fps=270 q=-1.0 size=  108095kB time=00:03:40.10 bitrate=4023.2kbits/s speed=11.3x    
frame= 5417 fps=270 q=-1.0 size=  111868kB time=00:03:45.98 bitrate=4055.2kbits/s speed=11.3x    
frame= 5557 fps=270 q=-1.0 size=  116475kB time=00:03:51.69 bitrate=4118.2kbits/s speed=11.3x    
frame= 5692 fps=270 q=-1.0 size=  119176kB time=00:03:57.38 bitrate=4112.7kbits/s speed=11.3x    
frame= 5826 fps=270 q=-1.0 size=  122131kB time=00:04:03.04 bitrate=4116.4kbits/s speed=11.3x    
frame= 5946 fps=270 q=-1.0 size=  123824kB time=00:04:08.01 bitrate=4089.9kbits/s speed=11.2x    
frame= 6080 fps=270 q=-1.0 size=  128969kB time=00:04:13.51 bitrate=4167.5kbits/s speed=11.2x    
frame= 6211 fps=269 q=-1.0 size=  132009kB time=00:04:19.08 bitrate=4174.1kbits/s speed=11.2x    
frame= 6346 fps=269 q=-1.0 size=  134524kB time=00:04:24.64 bitrate=4164.1kbits/s speed=11.2x    
frame= 6481 fps=269 q=-1.0 size=  137053kB time=00:04:30.33 bitrate=4153.1kbits/s speed=11.2x    
frame= 6609 fps=269 q=-1.0 size=  140771kB time=00:04:35.64 bitrate=4183.7kbits/s speed=11.2x    
frame= 6748 fps=269 q=-1.0 size=  145818kB time=00:04:41.35 bitrate=4245.7kbits/s speed=11.2x    
frame= 6887 fps=269 q=-1.0 size=  149061kB time=00:04:47.23 bitrate=4251.3kbits/s speed=11.2x    
frame= 7027 fps=270 q=-1.0 size=  151264kB time=00:04:53.11 bitrate=4227.6kbits/s speed=11.2x    
frame= 7157 fps=269 q=-1.0 size=  155539kB time=00:04:58.51 bitrate=4268.4kbits/s speed=11.2x    
frame= 7291 fps=269 q=-1.0 size=  159231kB time=00:05:04.08 bitrate=4289.7kbits/s speed=11.2x    
frame= 7423 fps=269 q=-1.0 size=  165383kB time=00:05:09.52 bitrate=4377.0kbits/s speed=11.2x    
frame= 7553 fps=269 q=-1.0 size=  170652kB time=00:05:15.00 bitrate=4438.0kbits/s speed=11.2x    
frame= 7685 fps=269 q=-1.0 size=  171672kB time=00:05:20.52 bitrate=4387.7kbits/s speed=11.2x    
frame= 7817 fps=269 q=-1.0 size=  176003kB time=00:05:26.01 bitrate=4422.5kbits/s speed=11.2x    
frame= 7949 fps=269 q=-1.0 size=  178080kB time=00:05:31.44 bitrate=4401.5kbits/s speed=11.2x    
frame= 8079 fps=268 q=-1.0 size=  179331kB time=00:05:37.00 bitrate=4359.2kbits/s speed=11.2x    
frame= 8209 fps=268 q=-1.0 size=  182942kB time=00:05:42.38 bitrate=4377.1kbits/s speed=11.2x    
frame= 8345 fps=268 q=-1.0 size=  186132kB time=00:05:47.97 bitrate=4381.9kbits/s speed=11.2x    
frame= 8466 fps=268 q=-1.0 size=  188956kB time=00:05:53.16 bitrate=4383.1kbits/s speed=11.2x    
frame= 8592 fps=268 q=-1.0 size=  191850kB time=00:05:58.29 bitrate=4386.4kbits/s speed=11.2x    
frame= 8705 fps=267 q=-1.0 size=  196927kB time=00:06:03.09 bitrate=4443.0kbits/s speed=11.1x    
frame= 8830 fps=267 q=-1.0 size=  199219kB time=00:06:08.23 bitrate=4432.0kbits/s speed=11.1x    
frame= 8955 fps=267 q=-1.0 size=  203006kB time=00:06:13.44 bitrate=4453.2kbits/s speed=11.1x    
frame= 9095 fps=267 q=-1.0 size=  207143kB time=00:06:19.29 bitrate=4473.8kbits/s speed=11.1x    
frame= 9233 fps=267 q=-1.0 size=  212073kB time=00:06:25.10 bitrate=4511.2kbits/s speed=11.1x    
frame= 9354 fps=266 q=-1.0 size=  215676kB time=00:06:30.19 bitrate=4528.1kbits/s speed=11.1x    
frame= 9479 fps=266 q=-1.0 size=  219714kB time=00:06:35.25 bitrate=4553.7kbits/s speed=11.1x    
frame= 9587 fps=266 q=-1.0 size=  222541kB time=00:06:39.91 bitrate=4558.6kbits/s speed=11.1x    
frame= 9723 fps=266 q=-1.0 size=  224985kB time=00:06:45.57 bitrate=4544.3kbits/s speed=11.1x    
frame= 9862 fps=266 q=-1.0 size=  229659kB time=00:06:51.26 bitrate=4574.6kbits/s speed=11.1x    
frame= 9996 fps=266 q=-1.0 size=  232924kB time=00:06:56.92 bitrate=4576.6kbits/s speed=11.1x    
frame=10130 fps=266 q=-1.0 size=  236472kB time=00:07:02.52 bitrate=4584.8kbits/s speed=11.1x    
frame=10264 fps=266 q=-1.0 size=  241298kB time=00:07:08.13 bitrate=4617.0kbits/s speed=11.1x    
frame=10395 fps=266 q=-1.0 size=  244113kB time=00:07:13.51 bitrate=4612.9kbits/s speed=11.1x    
frame=10516 fps=265 q=-1.0 size=  251672kB time=00:07:18.55 bitrate=4701.1kbits/s speed=11.1x    
frame=10648 fps=265 q=-1.0 size=  256138kB time=00:07:24.09 bitrate=4724.8kbits/s speed=11.1x    
frame=10782 fps=266 q=-1.0 size=  260207kB time=00:07:29.64 bitrate=4740.7kbits/s speed=11.1x    
frame=10895 fps=265 q=-1.0 size=  262987kB time=00:07:34.41 bitrate=4741.0kbits/s speed=11.1x    
frame=11013 fps=265 q=-1.0 size=  266580kB time=00:07:39.33 bitrate=4754.3kbits/s speed=  11x    
frame=11136 fps=264 q=-1.0 size=  269212kB time=00:07:44.49 bitrate=4747.9kbits/s speed=  11x    
frame=11271 fps=265 q=-1.0 size=  272088kB time=00:07:50.01 bitrate=4742.3kbits/s speed=  11x    
frame=11400 fps=264 q=-1.0 size=  274369kB time=00:07:55.48 bitrate=4727.0kbits/s speed=  11x    
frame=11532 fps=264 q=-1.0 size=  277220kB time=00:08:00.88 bitrate=4722.5kbits/s speed=  11x    
frame=11667 fps=264 q=-1.0 size=  279900kB time=00:08:06.60 bitrate=4712.2kbits/s speed=  11x    
frame=11792 fps=264 q=-1.0 size=  281985kB time=00:08:11.78 bitrate=4697.2kbits/s speed=  11x    
frame=11924 fps=264 q=-1.0 size=  283866kB time=00:08:17.30 bitrate=4676.1kbits/s speed=  11x    
frame=12059 fps=264 q=-1.0 size=  285527kB time=00:08:22.92 bitrate=4650.9kbits/s speed=  11x    
frame=12187 fps=264 q=-1.0 size=  288405kB time=00:08:28.36 bitrate=4647.4kbits/s speed=  11x    
frame=12321 fps=264 q=-1.0 size=  292326kB time=00:08:33.88 bitrate=4660.0kbits/s speed=  11x    
frame=12461 fps=264 q=-1.0 size=  293797kB time=00:08:39.74 bitrate=4630.7kbits/s speed=  11x    
frame=12604 fps=265 q=-1.0 size=  296154kB time=00:08:45.67 bitrate=4615.2kbits/s speed=  11x    
frame=12740 fps=265 q=-1.0 size=  299539kB time=00:08:51.36 bitrate=4618.0kbits/s speed=  11x    
frame=12884 fps=265 q=-1.0 size=  302145kB time=00:08:57.28 bitrate=4606.8kbits/s speed=  11x    
frame=13019 fps=265 q=-1.0 size=  304668kB time=00:09:03.00 bitrate=4596.4kbits/s speed=11.1x    
frame=13161 fps=265 q=-1.0 size=  307426kB time=00:09:08.95 bitrate=4587.7kbits/s speed=11.1x    
frame=13293 fps=265 q=-1.0 size=  311975kB time=00:09:14.35 bitrate=4610.2kbits/s speed=11.1x    
frame=13433 fps=265 q=-1.0 size=  316051kB time=00:09:20.25 bitrate=4621.3kbits/s speed=11.1x    
frame=13577 fps=266 q=-1.0 size=  318190kB time=00:09:26.32 bitrate=4602.6kbits/s speed=11.1x    
frame=13719 fps=266 q=-1.0 size=  321476kB time=00:09:32.28 bitrate=4601.8kbits/s speed=11.1x    
frame=13863 fps=266 q=-1.0 size=  324189kB time=00:09:38.23 bitrate=4592.9kbits/s speed=11.1x    
frame=14004 fps=266 q=-1.0 size=  326860kB time=00:09:44.13 bitrate=4583.9kbits/s speed=11.1x    
frame=14136 fps=266 q=-1.0 size=  332070kB time=00:09:49.51 bitrate=4614.5kbits/s speed=11.1x    
frame=14272 fps=266 q=-1.0 size=  335504kB time=00:09:55.20 bitrate=4617.7kbits/s speed=11.1x    
frame=14392 fps=266 q=-1.0 size=  337683kB time=00:10:00.28 bitrate=4608.3kbits/s speed=11.1x    
frame=14519 fps=266 q=-1.0 size=  341401kB time=00:10:05.49 bitrate=4618.9kbits/s speed=11.1x    
frame=14600 fps=265 q=-1.0 size=  343834kB time=00:10:08.95 bitrate=4625.5kbits/s speed=  11x    
frame=14722 fps=265 q=-1.0 size=  346419kB time=00:10:14.01 bitrate=4621.8kbits/s speed=  11x    
frame=14840 fps=264 q=-1.0 size=  352088kB time=00:10:18.88 bitrate=4660.5kbits/s speed=  11x    
frame=14967 fps=264 q=-1.0 size=  354600kB time=00:10:24.16 bitrate=4654.0kbits/s speed=  11x    
frame=15101 fps=264 q=-1.0 size=  357180kB time=00:10:29.76 bitrate=4646.2kbits/s speed=  11x    
frame=15228 fps=264 q=-1.0 size=  362340kB time=00:10:35.18 bitrate=4673.1kbits/s speed=  11x    
frame=15355 fps=264 q=-1.0 size=  366369kB time=00:10:40.46 bitrate=4686.1kbits/s speed=  11x    
frame=15499 fps=264 q=-1.0 size=  368805kB time=00:10:46.39 bitrate=4674.0kbits/s speed=  11x    
frame=15635 fps=264 q=-1.0 size=  375594kB time=00:10:52.05 bitrate=4718.7kbits/s speed=  11x    
frame=15772 fps=264 q=-1.0 size=  378592kB time=00:10:57.74 bitrate=4715.2kbits/s speed=  11x    
frame=15887 fps=264 q=-1.0 size=  382774kB time=00:11:02.68 bitrate=4731.8kbits/s speed=  11x    
frame=16018 fps=264 q=-1.0 size=  386325kB time=00:11:08.16 bitrate=4736.5kbits/s speed=  11x    
frame=16147 fps=264 q=-1.0 size=  390005kB time=00:11:13.53 bitrate=4743.5kbits/s speed=  11x    
frame=16264 fps=264 q=-1.0 size=  395559kB time=00:11:18.31 bitrate=4777.2kbits/s speed=  11x    
frame=16392 fps=264 q=-1.0 size=  398530kB time=00:11:23.68 bitrate=4775.2kbits/s speed=  11x    
frame=16520 fps=264 q=-1.0 size=  405232kB time=00:11:28.94 bitrate=4818.5kbits/s speed=  11x    
frame=16649 fps=264 q=-1.0 size=  406281kB time=00:11:34.46 bitrate=4792.5kbits/s speed=  11x    
frame=16780 fps=264 q=-1.0 size=  411032kB time=00:11:39.88 bitrate=4811.0kbits/s speed=  11x    
frame=16912 fps=264 q=-1.0 size=  413548kB time=00:11:45.33 bitrate=4803.1kbits/s speed=  11x    
frame=17050 fps=264 q=-1.0 size=  415670kB time=00:11:51.02 bitrate=4789.1kbits/s speed=  11x    
frame=17176 fps=264 q=-1.0 size=  418532kB time=00:11:56.44 bitrate=4785.6kbits/s speed=  11x    
frame=17305 fps=264 q=-1.0 size=  422491kB time=00:12:01.82 bitrate=4794.9kbits/s speed=  11x    
frame=17441 fps=264 q=-1.0 size=  423889kB time=00:12:07.41 bitrate=4773.7kbits/s speed=  11x    
frame=17579 fps=264 q=-1.0 size=  426592kB time=00:12:13.22 bitrate=4766.1kbits/s speed=  11x    
frame=17715 fps=264 q=-1.0 size=  430517kB time=00:12:18.79 bitrate=4773.7kbits/s speed=  11x    
frame=17856 fps=264 q=-1.0 size=  434111kB time=00:12:24.76 bitrate=4775.0kbits/s speed=  11x    
frame=17989 fps=264 q=-1.0 size=  436567kB time=00:12:30.31 bitrate=4766.5kbits/s speed=  11x    
frame=18130 fps=264 q=-1.0 size=  439222kB time=00:12:36.16 bitrate=4758.3kbits/s speed=  11x    
frame=18270 fps=264 q=-1.0 size=  441740kB time=00:12:42.02 bitrate=4748.8kbits/s speed=  11x    
frame=18405 fps=264 q=-1.0 size=  444862kB time=00:12:47.68 bitrate=4747.1kbits/s speed=  11x    
frame=18531 fps=264 q=-1.0 size=  446826kB time=00:12:52.87 bitrate=4736.1kbits/s speed=  11x    
frame=18649 fps=264 q=-1.0 size=  449534kB time=00:12:57.79 bitrate=4734.7kbits/s speed=  11x    
frame=18765 fps=264 q=-1.0 size=  452939kB time=00:13:02.61 bitrate=4741.1kbits/s speed=  11x    
frame=18875 fps=263 q=-1.0 size=  458059kB time=00:13:07.22 bitrate=4766.6kbits/s speed=  11x    
frame=18990 fps=263 q=-1.0 size=  467343kB time=00:13:11.97 bitrate=4834.1kbits/s speed=  11x    
frame=19119 fps=263 q=-1.0 size=  474494kB time=00:13:17.44 bitrate=4874.4kbits/s speed=  11x    
frame=19259 fps=263 q=-1.0 size=  479670kB time=00:13:23.25 bitrate=4891.9kbits/s speed=  11x    
frame=19403 fps=263 q=-1.0 size=  484554kB time=00:13:29.30 bitrate=4904.8kbits/s speed=  11x    
frame=19548 fps=264 q=-1.0 size=  487538kB time=00:13:35.40 bitrate=4898.1kbits/s speed=  11x    
frame=19693 fps=264 q=-1.0 size=  492443kB time=00:13:41.35 bitrate=4911.5kbits/s speed=  11x    
frame=19839 fps=264 q=-1.0 size=  494682kB time=00:13:47.47 bitrate=4897.4kbits/s speed=  11x    
frame=19987 fps=264 q=-1.0 size=  496259kB time=00:13:53.56 bitrate=4877.0kbits/s speed=  11x    
frame=20123 fps=264 q=-1.0 size=  501280kB time=00:13:59.28 bitrate=4892.9kbits/s speed=  11x    
frame=20259 fps=264 q=-1.0 size=  502939kB time=00:14:04.96 bitrate=4876.0kbits/s speed=  11x    
frame=20410 fps=264 q=-1.0 size=  504534kB time=00:14:11.18 bitrate=4855.8kbits/s speed=  11x    
frame=20546 fps=264 q=-1.0 size=  506512kB time=00:14:17.04 bitrate=4841.5kbits/s speed=  11x    
frame=20704 fps=265 q=-1.0 size=  509027kB time=00:14:23.54 bitrate=4828.9kbits/s speed=  11x    
Link to comment
Share on other sites

now that the one on TS container but despite fast-forward it still starts from beginning of file and each time i get another log file

http://192.168.1.50:8096/videos/fe0f86745e3f87f5d42ca021d5414501/stream.ts?Params=83c23e417993f3292605f25242001dc0;test;fe0f86745e3f87f5d42ca021d5414501;false;h264;mp3;1;;23552000;448000;;;;;0;;;;;;;;;fe0f86745e3f87f5d42ca021d5414501;false;;;false;411180bf1f3d67790c06ee6acc510bc6;false

{"Protocol":"File","Id":"fe0f86745e3f87f5d42ca021d5414501","Path":"/share/Multimedia/MOVIES/Accountant, The (2016)/The Accountant2016720p.mkv","Type":"Default","Container":"mkv","Name":"720P/H264/DTS","ETag":"411180bf1f3d67790c06ee6acc510bc6","RunTimeTicks":76742623232,"ReadAtNativeFramerate":false,"SupportsTranscoding":true,"SupportsDirectStream":true,"SupportsDirectPlay":true,"IsInfiniteStream":false,"RequiresOpening":false,"RequiresClosing":false,"SupportsProbing":true,"VideoType":"VideoFile","MediaStreams":[{"Codec":"h264","Language":"eng","TimeBase":"1/1000","CodecTimeBase":"583/27956","NalLengthSize":"4","IsInterlaced":false,"IsAVC":true,"BitRate":6116062,"BitDepth":8,"RefFrames":1,"IsDefault":true,"IsForced":false,"Height":536,"Width":1280,"AverageFrameRate":23.97599,"RealFrameRate":23.97599,"Profile":"High","Type":"Video","AspectRatio":"2.40:1","Index":0,"IsExternal":false,"IsTextSubtitleStream":false,"SupportsExternalStream":false,"PixelFormat":"yuv420p","Level":41,"IsAnamorphic":false},{"Codec":"dts","Language":"eng","TimeBase":"1/1000","CodecTimeBase":"1/48000","DisplayTitle":"Eng DTS 5.1 Default","IsInterlaced":false,"ChannelLayout":"5.1","BitRate":1536000,"Channels":6,"SampleRate":48000,"IsDefault":true,"IsForced":false,"Profile":"DTS","Type":"Audio","Index":1,"IsExternal":false,"IsTextSubtitleStream":false,"SupportsExternalStream":false,"Level":0,"IsAnamorphic":false},{"Codec":"sub","Language":"eng","DisplayTitle":"Eng","IsInterlaced":false,"IsDefault":false,"IsForced":false,"Type":"Subtitle","Index":2,"IsExternal":true,"IsTextSubtitleStream":false,"SupportsExternalStream":true,"Path":"/share/Multimedia/MOVIES/Accountant, The (2016)/The Accountant2016720p.en.sub","IsAnamorphic":true},{"Codec":"srt","Language":"pol","DisplayTitle":"Pol","IsInterlaced":false,"IsDefault":false,"IsForced":false,"Type":"Subtitle","Index":3,"IsExternal":true,"IsTextSubtitleStream":true,"SupportsExternalStream":true,"Path":"/share/Multimedia/MOVIES/Accountant, The (2016)/The Accountant2016720p.pl.srt","IsAnamorphic":true},{"Codec":"srt","DisplayTitle":"","IsInterlaced":false,"IsDefault":false,"IsForced":false,"Type":"Subtitle","Index":4,"IsExternal":true,"IsTextSubtitleStream":true,"SupportsExternalStream":true,"Path":"/share/Multimedia/MOVIES/Accountant, The (2016)/The Accountant2016720p.srt","IsAnamorphic":true}],"PlayableStreamFileNames":[],"Formats":[],"Bitrate":7652062,"RequiredHttpHeaders":{}}

ffmpeg -fflags +genpts -i file:"/share/Multimedia/MOVIES/Accountant, The (2016)/The Accountant2016720p.mkv" -map 0:0 -map 0:1 -map -0:s -codec:v:0 copy -mpegts_m2ts_mode 1 -bsf:v h264_mp4toannexb -map_metadata -1 -map_chapters -1 -threads 0 -codec:a:0 libmp3lame -ac 2 -ab 384000 -af "aresample=async=1,volume=2" -y "/share/CACHEDEV1_DATA/.qpkg/Emby/Emby/ProgramData-Server/transcoding-temp/7ec7af9919c5f344bf89882d16313202.ts"


ffmpeg version 3.2.2-static http://johnvansickle.com/ffmpeg/  Copyright (c) 2000-2016 the FFmpeg developers
  built with gcc 5.4.1 (Debian 5.4.1-4) 20161202
  configuration: --enable-gpl --enable-version3 --enable-static --disable-debug --disable-ffplay --disable-indev=sndio --disable-outdev=sndio --cc=gcc-5 --enable-fontconfig --enable-frei0r --enable-gnutls --enable-gray --enable-libass --enable-libfreetype --enable-libfribidi --enable-libmp3lame --enable-libopencore-amrnb --enable-libopencore-amrwb --enable-libopenjpeg --enable-libopus --enable-librtmp --enable-libsoxr --enable-libspeex --enable-libtheora --enable-libvidstab --enable-libvo-amrwbenc --enable-libvorbis --enable-libvpx --enable-libwebp --enable-libx264 --enable-libx265 --enable-libxvid --enable-libzimg
  libavutil      55. 34.100 / 55. 34.100
  libavcodec     57. 64.101 / 57. 64.101
  libavformat    57. 56.100 / 57. 56.100
  libavdevice    57.  1.100 / 57.  1.100
  libavfilter     6. 65.100 /  6. 65.100
  libswscale      4.  2.100 /  4.  2.100
  libswresample   2.  3.100 /  2.  3.100
  libpostproc    54.  1.100 / 54.  1.100
Input #0, matroska,webm, from 'file:/share/Multimedia/MOVIES/Accountant, The (2016)/The Accountant2016720p.mkv':
  Metadata:
    encoder         : libebml v1.3.1 + libmatroska v1.4.2
    creation_time   : 2016-12-23T21:19:36.000000Z
  Duration: 02:07:54.26, start: 0.000000, bitrate: 6116 kb/s
    Chapter #0:0: start 0.000000, end 781.447000
    Metadata:
      title           : 00:00:00.000
    Chapter #0:1: start 781.447000, end 1236.277000
    Metadata:
      title           : 00:13:01.447
    Chapter #0:2: start 1236.277000, end 1770.394000
    Metadata:
      title           : 00:20:36.277
    Chapter #0:3: start 1770.394000, end 2324.656000
    Metadata:
      title           : 00:29:30.394
    Chapter #0:4: start 2324.656000, end 2973.679000
    Metadata:
      title           : 00:38:44.656
    Chapter #0:5: start 2973.679000, end 3605.435000
    Metadata:
      title           : 00:49:33.679
    Chapter #0:6: start 3605.435000, end 4419.707000
    Metadata:
      title           : 01:00:05.435
    Chapter #0:7: start 4419.707000, end 5157.069000
    Metadata:
      title           : 01:13:39.707
    Chapter #0:8: start 5157.069000, end 5955.658000
    Metadata:
      title           : 01:25:57.069
    Chapter #0:9: start 5955.658000, end 6871.156000
    Metadata:
      title           : 01:39:15.658
    Chapter #0:10: start 6871.156000, end 7300.251000
    Metadata:
      title           : 01:54:31.156
    Chapter #0:11: start 7300.251000, end 7674.262000
    Metadata:
      title           : 02:01:40.251
    Stream #0:0(eng): Video: h264 (High), yuv420p(progressive), 1280x536 [SAR 1:1 DAR 160:67], 23.98 fps, 23.98 tbr, 1k tbn, 47.95 tbc (default)
    Metadata:
      BPS             : 4604749
      BPS-eng         : 4604749
      DURATION        : 02:07:54.262000000
      DURATION-eng    : 02:07:54.262000000
      NUMBER_OF_FRAMES: 183998
      NUMBER_OF_FRAMES-eng: 183998
      NUMBER_OF_BYTES : 4417256670
      NUMBER_OF_BYTES-eng: 4417256670
      _STATISTICS_WRITING_APP: mkvmerge v8.3.0 ('Over the Horizon') 64bit
      _STATISTICS_WRITING_APP-eng: mkvmerge v8.3.0 ('Over the Horizon') 64bit
      _STATISTICS_WRITING_DATE_UTC: 2016-12-23 21:19:36
      _STATISTICS_WRITING_DATE_UTC-eng: 2016-12-23 21:19:36
      _STATISTICS_TAGS: BPS DURATION NUMBER_OF_FRAMES NUMBER_OF_BYTES
      _STATISTICS_TAGS-eng: BPS DURATION NUMBER_OF_FRAMES NUMBER_OF_BYTES
    Stream #0:1(eng): Audio: dts (DTS), 48000 Hz, 5.1(side), fltp, 1536 kb/s (default)
    Metadata:
      BPS             : 1508999
      BPS-eng         : 1508999
      DURATION        : 02:07:54.219000000
      DURATION-eng    : 02:07:54.219000000
      NUMBER_OF_FRAMES: 719458
      NUMBER_OF_FRAMES-eng: 719458
      NUMBER_OF_BYTES : 1447549496
      NUMBER_OF_BYTES-eng: 1447549496
      _STATISTICS_WRITING_APP: mkvmerge v8.3.0 ('Over the Horizon') 64bit
      _STATISTICS_WRITING_APP-eng: mkvmerge v8.3.0 ('Over the Horizon') 64bit
      _STATISTICS_WRITING_DATE_UTC: 2016-12-23 21:19:36
      _STATISTICS_WRITING_DATE_UTC-eng: 2016-12-23 21:19:36
      _STATISTICS_TAGS: BPS DURATION NUMBER_OF_FRAMES NUMBER_OF_BYTES
      _STATISTICS_TAGS-eng: BPS DURATION NUMBER_OF_FRAMES NUMBER_OF_BYTES
Output #0, mpegts, to '/share/CACHEDEV1_DATA/.qpkg/Emby/Emby/ProgramData-Server/transcoding-temp/7ec7af9919c5f344bf89882d16313202.ts':
  Metadata:
    encoder         : Lavf57.56.100
    Stream #0:0: Video: h264 (High), yuv420p(progressive), 1280x536 [SAR 1:1 DAR 160:67], q=2-31, 23.98 fps, 23.98 tbr, 90k tbn, 1k tbc (default)
    Stream #0:1: Audio: mp3 (libmp3lame), 48000 Hz, stereo, fltp, 384 kb/s (default)
    Metadata:
      encoder         : Lavc57.64.101 libmp3lame
Stream mapping:
  Stream #0:0 -> #0:0 (copy)
  Stream #0:1 -> #0:1 (dts (dca) -> mp3 (libmp3lame))
Press [q] to stop, [?] for help
frame=  145 fps=0.0 q=-1.0 size=    5021kB time=00:00:05.95 bitrate=6909.8kbits/s speed=11.9x    
frame=  270 fps=269 q=-1.0 size=   10372kB time=00:00:11.25 bitrate=7547.7kbits/s speed=11.2x    
frame=  403 fps=268 q=-1.0 size=   11899kB time=00:00:16.84 bitrate=5785.4kbits/s speed=11.2x    
frame=  538 fps=268 q=-1.0 size=   12938kB time=00:00:22.48 bitrate=4712.8kbits/s speed=11.2x    
frame=  673 fps=269 q=-1.0 size=   14551kB time=00:00:28.08 bitrate=4244.9kbits/s speed=11.2x    
frame=  824 fps=274 q=-1.0 size=   15192kB time=00:00:34.39 bitrate=3618.5kbits/s speed=11.4x    
frame=  978 fps=279 q=-1.0 size=   15515kB time=00:00:40.77 bitrate=3116.9kbits/s speed=11.6x    
frame= 1131 fps=282 q=-1.0 size=   16918kB time=00:00:47.11 bitrate=2941.7kbits/s speed=11.8x    
frame= 1270 fps=282 q=-1.0 size=   24806kB time=00:00:52.94 bitrate=3838.1kbits/s speed=11.7x    
frame= 1406 fps=281 q=-1.0 size=   32924kB time=00:00:58.72 bitrate=4592.5kbits/s speed=11.7x    
frame= 1550 fps=281 q=-1.0 size=   34948kB time=00:01:04.75 bitrate=4421.3kbits/s speed=11.8x    
frame= 1703 fps=283 q=-1.0 size=   37160kB time=00:01:10.99 bitrate=4287.9kbits/s speed=11.8x    
frame= 1850 fps=284 q=-1.0 size=   39337kB time=00:01:17.06 bitrate=4181.5kbits/s speed=11.8x    
frame= 1996 fps=285 q=-1.0 size=   41303kB time=00:01:23.30 bitrate=4061.6kbits/s speed=11.9x    
frame= 2142 fps=285 q=-1.0 size=   43934kB time=00:01:29.37 bitrate=4026.8kbits/s speed=11.9x    
frame= 2292 fps=286 q=-1.0 size=   46385kB time=00:01:35.54 bitrate=3977.1kbits/s speed=11.9x    
frame= 2437 fps=286 q=-1.0 size=   49941kB time=00:01:41.56 bitrate=4028.0kbits/s speed=11.9x    
frame= 2577 fps=286 q=-1.0 size=   52719kB time=00:01:47.47 bitrate=4018.5kbits/s speed=11.9x    
frame= 2707 fps=285 q=-1.0 size=   56450kB time=00:01:52.99 bitrate=4092.6kbits/s speed=11.9x    
frame= 2850 fps=285 q=-1.0 size=   59205kB time=00:01:58.80 bitrate=4082.5kbits/s speed=11.9x    
frame= 2989 fps=284 q=-1.0 size=   61677kB time=00:02:04.60 bitrate=4054.7kbits/s speed=11.8x    
frame= 3127 fps=284 q=-1.0 size=   62134kB time=00:02:10.46 bitrate=3901.5kbits/s speed=11.8x    
frame= 3273 fps=284 q=-1.0 size=   62483kB time=00:02:16.39 bitrate=3752.8kbits/s speed=11.8x    
frame= 3419 fps=284 q=-1.0 size=   64998kB time=00:02:22.56 bitrate=3735.0kbits/s speed=11.9x    
frame= 3562 fps=284 q=-1.0 size=   69710kB time=00:02:28.63 bitrate=3842.1kbits/s speed=11.9x    
frame= 3711 fps=285 q=-1.0 size=   74061kB time=00:02:34.77 bitrate=3919.9kbits/s speed=11.9x    
frame= 3854 fps=285 q=-1.0 size=   78606kB time=00:02:40.82 bitrate=4004.0kbits/s speed=11.9x    
frame= 3998 fps=285 q=-1.0 size=   83001kB time=00:02:46.84 bitrate=4075.2kbits/s speed=11.9x    
frame= 4140 fps=285 q=-1.0 size=   86843kB time=00:02:52.70 bitrate=4119.3kbits/s speed=11.9x    
frame= 4287 fps=285 q=-1.0 size=   91279kB time=00:02:58.72 bitrate=4183.7kbits/s speed=11.9x    
frame= 4429 fps=285 q=-1.0 size=   96098kB time=00:03:04.80 bitrate=4259.9kbits/s speed=11.9x    
frame= 4576 fps=286 q=-1.0 size=  100029kB time=00:03:10.87 bitrate=4293.1kbits/s speed=11.9x    
frame= 4728 fps=286 q=-1.0 size=  104738kB time=00:03:17.11 bitrate=4352.9kbits/s speed=11.9x    
frame= 4877 fps=286 q=-1.0 size=  109519kB time=00:03:23.35 bitrate=4411.9kbits/s speed=11.9x    
frame= 5022 fps=286 q=-1.0 size=  113957kB time=00:03:29.52 bitrate=4455.6kbits/s speed=  12x    
frame= 5170 fps=287 q=-1.0 size=  118327kB time=00:03:35.59 bitrate=4496.1kbits/s speed=  12x    
frame= 5314 fps=287 q=-1.0 size=  121969kB time=00:03:41.66 bitrate=4507.6kbits/s speed=  12x    
frame= 5463 fps=287 q=-1.0 size=  126240kB time=00:03:47.92 bitrate=4537.2kbits/s speed=  12x    
frame= 5609 fps=287 q=-1.0 size=  130409kB time=00:03:53.95 bitrate=4566.4kbits/s speed=  12x    
frame= 5756 fps=287 q=-1.0 size=  133465kB time=00:03:59.97 bitrate=4556.1kbits/s speed=  12x    
frame= 5894 fps=287 q=-1.0 size=  137499kB time=00:04:05.88 bitrate=4581.1kbits/s speed=  12x    
frame= 6042 fps=287 q=-1.0 size=  141902kB time=00:04:12.00 bitrate=4612.9kbits/s speed=  12x    
frame= 6183 fps=287 q=-1.0 size=  145861kB time=00:04:17.92 bitrate=4632.6kbits/s speed=  12x    
frame= 6326 fps=287 q=-1.0 size=  149367kB time=00:04:23.90 bitrate=4636.6kbits/s speed=  12x    
frame= 6476 fps=287 q=-1.0 size=  153188kB time=00:04:30.04 bitrate=4647.0kbits/s speed=  12x    
frame= 6625 fps=288 q=-1.0 size=  157966kB time=00:04:36.31 bitrate=4683.3kbits/s speed=  12x    
frame= 6776 fps=288 q=-1.0 size=  162849kB time=00:04:42.55 bitrate=4721.5kbits/s speed=  12x    
frame= 6923 fps=288 q=-1.0 size=  166329kB time=00:04:48.84 bitrate=4717.4kbits/s speed=  12x    
frame= 7066 fps=288 q=-1.0 size=  171169kB time=00:04:54.76 bitrate=4757.0kbits/s speed=  12x    
frame= 7199 fps=287 q=-1.0 size=  176976kB time=00:05:00.31 bitrate=4827.6kbits/s speed=  12x    
frame= 7334 fps=287 q=-1.0 size=  182147kB time=00:05:05.92 bitrate=4877.4kbits/s speed=  12x    
frame= 7470 fps=287 q=-1.0 size=  186803kB time=00:05:11.59 bitrate=4911.2kbits/s speed=  12x    
frame= 7609 fps=287 q=-1.0 size=  189578kB time=00:05:17.37 bitrate=4893.3kbits/s speed=  12x    
frame= 7751 fps=287 q=-1.0 size=  192614kB time=00:05:23.25 bitrate=4881.2kbits/s speed=  12x    
frame= 7899 fps=287 q=-1.0 size=  196554kB time=00:05:29.35 bitrate=4888.9kbits/s speed=  12x    
frame= 8044 fps=287 q=-1.0 size=  199312kB time=00:05:35.54 bitrate=4866.0kbits/s speed=  12x    
frame= 8193 fps=287 q=-1.0 size=  202432kB time=00:05:41.71 bitrate=4853.0kbits/s speed=  12x    
frame= 8341 fps=287 q=-1.0 size=  206068kB time=00:05:47.90 bitrate=4852.2kbits/s speed=  12x    
frame= 8488 fps=287 q=-1.0 size=  211129kB time=00:05:53.90 bitrate=4887.1kbits/s speed=  12x    
frame= 8630 fps=287 q=-1.0 size=  215933kB time=00:05:59.90 bitrate=4915.0kbits/s speed=  12x    
frame= 8772 fps=287 q=-1.0 size=  219912kB time=00:06:05.90 bitrate=4923.5kbits/s speed=  12x    
frame= 8918 fps=287 q=-1.0 size=  223989kB time=00:06:11.92 bitrate=4933.5kbits/s speed=  12x    
frame= 9058 fps=287 q=-1.0 size=  229005kB time=00:06:17.83 bitrate=4965.2kbits/s speed=  12x    
frame= 9204 fps=287 q=-1.0 size=  234217kB time=00:06:23.85 bitrate=4998.5kbits/s speed=  12x    
frame= 9346 fps=287 q=-1.0 size=  239131kB time=00:06:29.80 bitrate=5025.4kbits/s speed=  12x    
frame= 9491 fps=287 q=-1.0 size=  244189kB time=00:06:35.80 bitrate=5054.0kbits/s speed=  12x    
frame= 9636 fps=287 q=-1.0 size=  248864kB time=00:06:41.92 bitrate=5072.3kbits/s speed=  12x    
frame= 9784 fps=287 q=-1.0 size=  252664kB time=00:06:48.02 bitrate=5072.8kbits/s speed=  12x    
frame= 9931 fps=287 q=-1.0 size=  256911kB time=00:06:54.16 bitrate=5081.5kbits/s speed=  12x    
frame=10072 fps=287 q=-1.0 size=  261500kB time=00:07:00.12 bitrate=5099.0kbits/s speed=  12x    
frame=10216 fps=287 q=-1.0 size=  266190kB time=00:07:06.14 bitrate=5117.1kbits/s speed=  12x    
frame=10359 fps=287 q=-1.0 size=  271227kB time=00:07:11.95 bitrate=5143.8kbits/s speed=  12x    
frame=10484 fps=287 q=-1.0 size=  279059kB time=00:07:17.28 bitrate=5227.9kbits/s speed=  12x    
frame=10620 fps=287 q=-1.0 size=  284784kB time=00:07:22.94 bitrate=5266.9kbits/s speed=  12x    
frame=10760 fps=286 q=-1.0 size=  289078kB time=00:07:28.77 bitrate=5276.8kbits/s speed=11.9x    
frame=10903 fps=286 q=-1.0 size=  292466kB time=00:07:34.75 bitrate=5268.5kbits/s speed=11.9x    
frame=11041 fps=286 q=-1.0 size=  296345kB time=00:07:40.51 bitrate=5271.6kbits/s speed=11.9x    
frame=11182 fps=286 q=-1.0 size=  299496kB time=00:07:46.46 bitrate=5259.7kbits/s speed=11.9x    
frame=11329 fps=286 q=-1.0 size=  302524kB time=00:07:52.58 bitrate=5244.1kbits/s speed=11.9x    
frame=11477 fps=286 q=-1.0 size=  305841kB time=00:07:58.60 bitrate=5234.9kbits/s speed=11.9x    
frame=11627 fps=287 q=-1.0 size=  309378kB time=00:08:04.89 bitrate=5226.7kbits/s speed=  12x    
frame=11773 fps=287 q=-1.0 size=  312519kB time=00:08:11.06 bitrate=5213.5kbits/s speed=  12x    
frame=11920 fps=287 q=-1.0 size=  314931kB time=00:08:17.08 bitrate=5190.1kbits/s speed=  12x    
frame=12067 fps=287 q=-1.0 size=  318325kB time=00:08:23.28 bitrate=5181.4kbits/s speed=  12x    
frame=12211 fps=287 q=-1.0 size=  321469kB time=00:08:29.37 bitrate=5170.0kbits/s speed=  12x    
frame=12361 fps=287 q=-1.0 size=  324614kB time=00:08:35.61 bitrate=5157.4kbits/s speed=  12x    
frame=12512 fps=287 q=-1.0 size=  327357kB time=00:08:41.88 bitrate=5138.5kbits/s speed=  12x    
frame=12663 fps=287 q=-1.0 size=  330634kB time=00:08:48.12 bitrate=5128.7kbits/s speed=  12x    
frame=12808 fps=287 q=-1.0 size=  333374kB time=00:08:54.24 bitrate=5111.9kbits/s speed=  12x    
frame=12954 fps=287 q=-1.0 size=  337089kB time=00:09:00.28 bitrate=5111.0kbits/s speed=  12x    
frame=13103 fps=288 q=-1.0 size=  340325kB time=00:09:06.43 bitrate=5102.1kbits/s speed=  12x    
frame=13246 fps=288 q=-1.0 size=  344768kB time=00:09:12.52 bitrate=5111.7kbits/s speed=  12x    
frame=13394 fps=288 q=-1.0 size=  349034kB time=00:09:18.64 bitrate=5118.2kbits/s speed=  12x    
frame=13542 fps=288 q=-1.0 size=  352159kB time=00:09:24.88 bitrate=5107.0kbits/s speed=  12x    
frame=13695 fps=288 q=-1.0 size=  356352kB time=00:09:31.10 bitrate=5111.6kbits/s speed=  12x    
frame=13838 fps=288 q=-1.0 size=  359852kB time=00:09:37.20 bitrate=5107.2kbits/s speed=  12x    
frame=13988 fps=288 q=-1.0 size=  363733kB time=00:09:43.36 bitrate=5107.7kbits/s speed=  12x    
frame=14132 fps=288 q=-1.0 size=  368043kB time=00:09:49.34 bitrate=5115.9kbits/s speed=  12x    
frame=14276 fps=288 q=-1.0 size=  372099kB time=00:09:55.41 bitrate=5119.5kbits/s speed=  12x    
frame=14419 fps=288 q=-1.0 size=  375462kB time=00:10:01.32 bitrate=5115.1kbits/s speed=  12x    
frame=14559 fps=288 q=-1.0 size=  380119kB time=00:10:07.27 bitrate=5127.7kbits/s speed=  12x    
frame=14702 fps=288 q=-1.0 size=  385051kB time=00:10:13.24 bitrate=5143.6kbits/s speed=  12x    
frame=14846 fps=288 q=-1.0 size=  390390kB time=00:10:19.17 bitrate=5165.0kbits/s speed=  12x    
frame=14987 fps=288 q=-1.0 size=  395267kB time=00:10:25.12 bitrate=5179.8kbits/s speed=  12x    
frame=15136 fps=288 q=-1.0 size=  399483kB time=00:10:31.27 bitrate=5184.1kbits/s speed=  12x    
frame=15279 fps=288 q=-1.0 size=  404814kB time=00:10:37.34 bitrate=5203.2kbits/s speed=  12x    
frame=15424 fps=288 q=-1.0 size=  408150kB time=00:10:43.34 bitrate=5197.2kbits/s speed=  12x    
frame=15571 fps=288 q=-1.0 size=  413587kB time=00:10:49.39 bitrate=5217.3kbits/s speed=  12x    
frame=15713 fps=288 q=-1.0 size=  418043kB time=00:10:55.34 bitrate=5225.7kbits/s speed=  12x    
frame=15862 fps=288 q=-1.0 size=  423287kB time=00:11:01.56 bitrate=5241.5kbits/s speed=  12x    
frame=16006 fps=288 q=-1.0 size=  428268kB time=00:11:07.53 bitrate=5255.7kbits/s speed=  12x    
frame=16151 fps=288 q=-1.0 size=  433996kB time=00:11:13.63 bitrate=5277.8kbits/s speed=  12x    
frame=16295 fps=288 q=-1.0 size=  440245kB time=00:11:19.68 bitrate=5306.2kbits/s speed=  12x    
frame=16441 fps=288 q=-1.0 size=  446316kB time=00:11:25.70 bitrate=5332.1kbits/s speed=  12x    
frame=16590 fps=288 q=-1.0 size=  450190kB time=00:11:31.89 bitrate=5330.2kbits/s speed=  12x    
frame=16605 fps=288 q=-1.0 Lsize=  450564kB time=00:11:32.61 bitrate=5329.1kbits/s speed=  12x    
video:379706kB audio:27056kB subtitle:0kB other streams:0kB global headers:0kB muxing overhead: 10.768394% 
Link to comment
Share on other sites

i did compare files and this bits are different

working ts

Output #0, mpegts, to '/share/CACHEDEV1_DATA/.qpkg/Emby/Emby/ProgramData-Server/transcoding-temp/7ec7af9919c5f344bf89882d16313202.ts':
  Metadata:
    encoder         : Lavf57.56.100
    Stream #0:0: Video: h264 (High), yuv420p(progressive), 1280x536 [SAR 1:1 DAR 160:67], q=2-31, 23.98 fps, 23.98 tbr, 90k tbn, 1k tbc (default)
    Stream #0:1: Audio: mp3 (libmp3lame), 48000 Hz, stereo, fltp, 384 kb/s (default)
 

 not working mkv

Output #0, matroska, to '/share/CACHEDEV1_DATA/.qpkg/Emby/Emby/ProgramData-Server/transcoding-temp/8de6b0212f1342770050c6caf2842d93.mkv':
  Metadata:
    encoder         : Lavf57.56.100
    Stream #0:0: Video: h264 (High) (H264 / 0x34363248), yuv420p(progressive), 1280x536 [SAR 1:1 DAR 160:67], q=2-31, 23.98 fps, 23.98 tbr, 1k tbn, 1k tbc (default)
    Stream #0:1: Audio: mp3 (libmp3lame) (U[0][0][0] / 0x0055), 48000 Hz, stereo, fltp, 384 kb/s (default)

(H264 / 0x34363248)

(U[0][0][0] / 0x0055)

Link to comment
Share on other sites

Create an account or sign in to comment

You need to be a member in order to leave a comment

Create an account

Sign up for a new account in our community. It's easy!

Register a new account

Sign in

Already have an account? Sign in here.

Sign In Now
 Share

×
×
  • Create New...