Jump to content

HW encoder not working Nvidia shield 2017


Recommended Posts

rmclinden


it is the latest beta, fresh install, not sure what to do.

i intended to use my shield to convert my media to HEVC to save space using its supported hevc encoder.

 

 

 

14:43:13.366 embymc init function called

14:43:13.366 [hevc_mediacodecndk @ 0x29a8924d00] NdkEnc: is_rtk: 0 pix_fmt: 0 pixelFormat: 19

14:43:13.367 [hevc_mediacodecndk @ 0x29a8924d00] NdkEnc: Mime: video/hevc Size: 720x500 rc_mode: 1 rc_max_rate: 1180000 rc_buffer_size: 2360000 bit_rate: 200000

14:43:13.367 [hevc_mediacodecndk @ 0x29a8924d00] NdkEnc: Framerate: 24000 / 1001

14:43:13.367 [hevc_mediacodecndk @ 0x29a8924d00] NdkEnc: Profile: 8 Level: 512

14:43:13.367 [hevc_mediacodecndk @ 0x29a8924d00] NdkEnc: aspect: 1295 / 1296

14:43:13.367 [hevc_mediacodecndk @ 0x29a8924d00] NdkEnc: mediacodec_name: OMX.Nvidia.h265.encoder

14:43:13.388 [hevc_mediacodecndk @ 0x29a8924d00] NdkEnc: Failed to configure encoder; check parameters

14:43:13.389 Error initializing output stream 0:0 -- Error while opening encoder for output stream #0:0 - maybe incorrect parameters such as bit_rate, rate, width or height

14:43:13.397 Conversion failed!

 

Link to post
Share on other sites
rmclinden
Hey,
2020-05-26 19:07:24.192
Emby Server version: 4.5.0.12
Operating system: Unix 4.9.140.72
Command Line: /data/app/com.emby.embyserver-JtnaOOfAjlaJVVThc8lwcw==/base.apk

{"Protocol":"File","Id":"fb4f7c7d9116bd06f38eb4f367945755","Path":"/storage/BOBMK1/TV Showes/TV Shows/Rick and Morty/Season 1/Rick and Morty - S01E01 - Pilot Bluray-1080p.mkv","Type":"Default","Container":"mkv","Size":2561751810,"Name":"Rick and Morty - S01E01 - Pilot Bluray-1080p","IsRemote":false,"RunTimeTicks":13214720000,"SupportsTranscoding":true,"SupportsDirectStream":true,"SupportsDirectPlay":true,"IsInfiniteStream":false,"RequiresOpening":false,"RequiresClosing":false,"RequiresLooping":false,"SupportsProbing":false,"MediaStreams":[{"Codec":"vc1","CodecTag":"WVC1","Language":"eng","TimeBase":"1/1000","CodecTimeBase":"1001/24000","VideoRange":"SDR","DisplayTitle":"1080p VC1","DisplayLanguage":"English","IsInterlaced":false,"BitRate":15508474,"BitDepth":8,"RefFrames":1,"IsDefault":false,"IsForced":false,"Height":1080,"Width":1920,"AverageFrameRate":23.9760246,"RealFrameRate":23.9760246,"Profile":"Advanced","Type":"Video","AspectRatio":"16:9","Index":0,"IsExternal":false,"IsTextSubtitleStream":false,"SupportsExternalStream":false,"Protocol":"File","PixelFormat":"yuv420p","Level":3,"IsAnamorphic":false},{"Codec":"ac3","Language":"eng","TimeBase":"1/1000","CodecTimeBase":"1/48000","Title":"Surround 5.1","DisplayTitle":"English AC3 5.1 (Default)","DisplayLanguage":"English","IsInterlaced":false,"ChannelLayout":"5.1","BitRate":448000,"Channels":6,"SampleRate":48000,"IsDefault":true,"IsForced":false,"Type":"Audio","Index":1,"IsExternal":false,"IsTextSubtitleStream":false,"SupportsExternalStream":false,"Protocol":"File"},{"Codec":"PGSSUB","Language":"eng","TimeBase":"1/1000","CodecTimeBase":"0/1","DisplayTitle":"English (PGSSUB)","DisplayLanguage":"English","IsInterlaced":false,"IsDefault":false,"IsForced":false,"Height":1080,"Width":1920,"Type":"Subtitle","Index":2,"IsExternal":false,"IsTextSubtitleStream":false,"SupportsExternalStream":false,"Protocol":"File"}],"Formats":[],"Bitrate":15508474,"RequiredHttpHeaders":{},"ReadAtNativeFramerate":false}

>>>>>>  Affected codecs
Encoder Nvidia.h265
        Max Bitrate: 48 Mbit/s - Frame Sizes: 96x96...3840x2176 - Width Alignment: 2 - Height Alignment: 2 - Frame Rates: 0fps...960fps
        Max Instances: 32 - Color Formats: YUV420P, YUV420P, NV12, Unknown
        Profiles: Main Profile (Level 5 (High))

Decoder Nvidia.vc1
        Max Bitrate: 62.5 kbit/s - Frame Sizes: 2x2...32768x32768 - Width Alignment: 2 - Height Alignment: 2 - Frame Rates: 0fps...960fps
        Max Instances: 32 - Color Formats: YUV420P, NV12


>>>>>>  FindVideoEncoder - Media: hevc, UseHardwareCodecs: True, Mode: Custom
Info    Checking: 'Nvidia.h265'
Info    Check successful - selecting 'Nvidia.h265'

>>>>>>  FindVideoDecoder - MediaType: vc1, Mode: Custom
Info    Checking: 'Nvidia.vc1'
NoMatch Bitrate (15 Mbit/s) exceeds maximum supported rate (62.5 kbit/s)
Info    Decoder does not match
Info    Checking: 'Automatic software decoder'
Info    Check successful - selecting 'Automatic software decoder'

>>>>>>  Processing Plan
Info    Name                                        CanDoInHardware      WillDoInHardware     Reason                                  
Info    Automatic software decoder               >> False                False                Software Codec                           
Info    VideoInput                               >> False                False                Not a hardware decoder                   
Info    VideoOutput                              >> True                 True                 Hardware encoder                         
Info    Nvidia.h265                              >> True                 True                 Hardware Codec                           

>>>>>>  Projected Processing Formats
Info    Previous                HW-Context   Format       SW-Format       Next
Info    vc1                  >> -            yuv420p      yuv420p      >> 

/data/data/com.emby.embyserver/files/ffmpeg/ffmpeg -loglevel +timing -y -print_graphs_file /storage/emulated/0/Android/data/com.emby.embyserver/files/logs/ffmpeg-transcode-2ac34f7e-2eb4-4541-b30a-8b6b79e6bc39_1graph.txt -copyts -start_at_zero -f matroska,webm -c:v:0 vc1 -i "/storage/BOBMK1/TV Showes/TV Shows/Rick and Morty/Season 1/Rick and Morty - S01E01 - Pilot Bluray-1080p.mkv" -map 0:0 -map 0:1 -sn -c:v:0 hevc_mediacodecndk -g:v:0 144 -maxrate:v:0 3776000 -bufsize:v:0 7552000 -sc_threshold:v:0 0 -keyint_min:v:0 144 -mediacodec_name:v:0 OMX.Nvidia.h265.encoder -c:a:0 aac -ab:a:0 384000 -ac:a:0 6 -metadata:s:a:0 language=eng -disposition:a:0 default -avoid_negative_ts disabled -map_metadata -1 -map_chapters -1 "/storage/emulated/0/Android/data/com.emby.embyserver/files/sync/8/8/2ac34f7e-2eb4-4541-b30a-8b6b79e6bc39.mkv"

19:07:24.719 ffmpeg version 4.3.0-emby_2020_02_24 Copyright (c) 2000-2019 the FFmpeg developers and softworkz for Emby LLC
19:07:24.720   built with Android (4751641 based on r328903) clang version 7.0.2 (https://android.googlesource.com/toolchain/clang 003100370607242ddd5815e4a043907ea9004281) (https://android.googlesource.com/toolchain/llvm 1d739ffb0366421d383e04ff80ec2ee591315116) (based on LLVM 7.0.2svn)
19:07:24.730 Execution Date: 2020-05-26 19:07:24
19:07:25.006 Input #0, matroska,webm, from '/storage/BOBMK1/TV Showes/TV Shows/Rick and Morty/Season 1/Rick and Morty - S01E01 - Pilot Bluray-1080p.mkv':
19:07:25.006   Metadata:
19:07:25.006     title           : Rick and Morty Season 1
19:07:25.006     encoder         : libmakemkv v1.8.13 (1.3.0/1.4.1) win(x64-release)
19:07:25.006     creation_time   : 2014-10-17T06:40:20.000000Z
19:07:25.006   Duration: 00:22:01.47, start: 0.000000, bitrate: 15508 kb/s
19:07:25.007     Stream #0:0(eng): Video: vc1 (Advanced) (WVC1 / 0x31435657), yuv420p(progressive), 1920x1080 [SAR 1:1 DAR 16:9], Level 3, 23.98 fps, 23.98 tbr, 1k tbn, 23.98 tbc
19:07:25.007     Stream #0:1(eng): Audio: ac3, 48000 Hz, 5.1(side), fltp, 448 kb/s (default)
19:07:25.007     Metadata:
19:07:25.007       title           : Surround 5.1
19:07:25.007     Stream #0:2(eng): Subtitle: hdmv_pgs_subtitle, 1920x1080, Start-Time 2.377s
19:07:25.013 Stream mapping:
19:07:25.013   Stream #0:0 -> #0:0 (vc1 (native) -> hevc (hevc_mediacodecndk))
19:07:25.013   Stream #0:1 -> #0:1 (ac3 (native) -> aac (native))
19:07:25.013 Press [q] to stop, [?] for help
19:07:25.095 Try loading embymc
19:07:25.096 embymc init function called
19:07:25.096 [hevc_mediacodecndk @ 0x2e8a948700] NdkEnc: is_rtk: 0 pix_fmt: 0 pixelFormat: 19
19:07:25.096 [hevc_mediacodecndk @ 0x2e8a948700] NdkEnc: Mime: video/hevc Size: 1920x1080 rc_mode: 1 rc_max_rate: 3776000 rc_buffer_size: 7552000 bit_rate: 200000
19:07:25.096 [hevc_mediacodecndk @ 0x2e8a948700] NdkEnc: Framerate: 24000 / 1001
19:07:25.096 [hevc_mediacodecndk @ 0x2e8a948700] NdkEnc: Profile: 8 Level: 512
19:07:25.096 [hevc_mediacodecndk @ 0x2e8a948700] NdkEnc: aspect: 1 / 1
19:07:25.096 [hevc_mediacodecndk @ 0x2e8a948700] NdkEnc: mediacodec_name: OMX.Nvidia.h265.encoder
19:07:25.108 [hevc_mediacodecndk @ 0x2e8a948700] NdkEnc: Failed to configure encoder; check parameters
19:07:25.109 Error initializing output stream 0:0 -- Error while opening encoder for output stream #0:0 - maybe incorrect parameters such as bit_rate, rate, width or height
19:07:25.111 [aac @ 0x2e8a949600] Qavg: 65536.000
19:07:25.111 [aac @ 0x2e8a949600] 2 frames left in the queue on closing
19:07:25.115 Conversion failed!
19:07:25.115 

======= ExtraData
H4sIAAAAAAAAA9VYa2/iOBT9K1E+7UpAEl6lSPuBtvOotp2i0umuNBpFJjFgkcSR7TBlRv3ve+08yItCKW13ptIo3Fzb1+ece32dX/o59X0UuPrwl/6ReAIzXnj89v2xoX/y6BR5N6EgNFCv48d75EVY+vzSvyAf60N9rTd0ZZ0IRoI5WASLsP7YyDxCsAt7zlC44PaMeLgywuCCMjTHBvYjDwnsGqYxClxGiWu4SCDDoX4L+9O1+o9jtsLMkDNxw6NzbsxmfojnTcFQwB3q4mYbOZ3u7AQe8LTb7Pa6VnPaMVFzMO1PT05xf+p0Tm1LhdQSDyIfrUPDteA7N8UFYsJGwv6JGd3iLXG8DMJIxIBdwO4eMFNYYyQihpO5fCQY5UvU+IGnPsyVvL1bh/JtOqyhb2fj+2O61GXg4gd9aCY/x4wK6lCvuuhCiLCyVnHMzhX3kMesgk1xtwokeIeRn6IkGaxBaeVYlXjviYtpOmI3QHwUicx9OEMexw39GrsE/U1kPsTz7ZioEXvFMUuPc5jOSYK8P5dBKgdlzuJWplsUzKXX5OIWTGPygL2PlAEg8TQeZelPfR2tum1TMvQhgPgCMH0NeIgdMiPY1dVuLgNIWA858DvdzBkRt5BA4G31tOspEYaUMlj5GDO1oD602spygUOx0IeDhn6LZx8ZxA/7s9LdkZ9qktO2+WCZAxMmGUHSQY4qz3QN63QwMC2jZ8I/XU6EvKfej+QGZICEyrf94amEgVFVFIb6yF2hQO6moV/hlQxV7+iKtgD5lIUL4mQb3eg8JiIvCBijwL8jPj5DXEViQhjtbhxG3m5Yse2SX+AZijyxWYEDGXlsr4C9CCkCMSgZtuN5d2iuVCHdPzwAHQHykgGPslpsVTMUqIqaR5FLDlazLDlFMavpdopZedWLeXQuY1QOqZjjsM8XKAiwB1P0sx9XaE0jqdz4oTemUPWtM+Qs9bwsu52TVk9bpsqcID/0UrlMWHeQsBGza5XYTXdUYddIB+6gNgapwuwdEUqAk4gxGgWu1mvJnD2E8J2sTKKpUMvtIiZ1rOfm88X1vT3+NLEnX8/uLu+uPuibESlZC9df2eGc23yz5iX/JE894siw4+hUxtYkfEJCu0RCbgNlHkzDesP0AutX5uXbh7Obs+u/LePuXpss6A/oDpInbtwSZ6lBz6NdUybWxgQjTgPNKtm1pjYxrQ+mBQ9j4lGhnXkRQ+umRCRs+cuVLle9iUR2qO9xBKIV9DF2gOdQ91bYrmkuXMLR1FNlPRvlo9D2sUCy/6kMaFplV2eBQtW+1blKOcVBb+8HksasWJFKg3bWpPxBfk6hLDjQzE1oBERfSvGbQ1OdaFuK4gKvHNg0JIt0cAJ3WX/ipxPs1YFs5rMDaSkDdHP9b+vLioBTa9Hu91o4mfxR7eh53UG26LyyjNXtFjl7YLLqld06Jyd9mTI512k04zI7y64nvV675ModWywY5gvquRX/gucSr2VX7pOgPtLvqprVc2g9xSFCTv3Btg9pFch3n2GbNJtWwRx0SwCp4IpO/QIt2zLOS6rTX7I25QZA6oaUExlSNa2TkifBrBar5991+DpwjAH87XO9SaoV4Blf7FTZVwCmT9/yd770WTpcYO4womCGgMeIc00ssMaVBrQogFoDfayrCarsVBWJll647FyRYJm/VOiVRsHM9xHwA1YVY+SmuCbYQfjVlvgzJvMFmGRZTvQi15LyNIs9hfw5upWiVqqNZZzmqMRBMzUi49NmjPoaV/VLi8tU7FwX0j/Ela2zPCwlscn7MWIcQ6GPPM+W46W5DXZp0IunRg6d2LwfPGmpjhF5B8jKWywAoSrGNhWdRbMZZtpKllDAWt42Gurg9dESSxn5GnIczDmBgzBV1kxNBnIjQUFeG8x3cZhyMFXLH5WFMhb/O/0el5wVIh7KcYPhNZ3laNLizym/XRnIsum5+Q7h26ZdVRmHPReU9jT4cMZCiRcKyZjKmAfAmQY4xTi7+muhvMVrcdT894O7nDbPRT2jKwU9MxwvtTfMvp8aS9kLAKhzu/R97wW0H7k474+I/CaWdNJllFJO9ynrnXxZfwLekoxerpLXK5xHxbBYnjrl8lRCrCi3xvu2hlavZ9V/Zcp6617L+oMDAn8+kaQpdjvSUX07qjtbbcsmAWBo7VOmajpBVGkF0WG94AF4pPedSFAbLoRqu+zJkvYCtCr73WCyT9+B5CXv2E1hnrwM/kPbwMMJqEDzFmI9Ivyv1fb1O7vxfB204hPWjsvjs1N7M6wkqhd3fTEN27q+Q/u998O5pvQ8C+kKTxngh3Z8z8CiwvZbCHHPtL1NME0UIz8a/YYnbKUwPkscNeLK5JGa30IgFQ7fJpHySindDKzXuBm86ITOulo4KdZboFDbjD/1FuCxSneC8qneKZzqtbcAc2iVNPQaV4BjHaJHAqtYNXMoPdn9Sz2Bov4DTlch4iIkAAA=

>>>>>>  Affected codecs
Encoder libx265 Software Encoder
        Profiles: Main Profile (Level 6.2 (Main)), Main 10 Profile (Level 6.2 (Main))

Info    Previous transcoding attempt failed. Falling back to software transcoding.

>>>>>>  FindVideoEncoder - Media: hevc, UseHardwareCodecs: False, Mode: Custom
Info    Checking: 'libx265 Software Encoder'
Info    Check successful - selecting 'libx265 Software Encoder'

>>>>>>  FindVideoDecoder - MediaType: vc1, Mode: Custom
Info    Checking: 'Automatic software decoder'
Info    Check successful - selecting 'Automatic software decoder'

>>>>>>  Processing Plan
Info    Name                                        CanDoInHardware      WillDoInHardware     Reason                                  
Info    Automatic software decoder               >> False                False                Software Codec                           
Info    VideoInput                               >> False                False                Not a hardware decoder                   
Info    VideoOutput                              >> False                False                Not a hardware encoder                   
Info    libx265 Software Encoder                 >> False                False                Software Codec                           

>>>>>>  Projected Processing Formats
Info    Previous                HW-Context   Format       SW-Format       Next
Info    vc1                  >> -            yuv420p      yuv420p      >> 


/data/data/com.emby.embyserver/files/ffmpeg/ffmpeg -loglevel +timing -y -print_graphs_file /storage/emulated/0/Android/data/com.emby.embyserver/files/logs/ffmpeg-transcode-2ac34f7e-2eb4-4541-b30a-8b6b79e6bc39_1graph.txt -copyts -start_at_zero -f matroska,webm -c:v:0 vc1 -i "/storage/BOBMK1/TV Showes/TV Shows/Rick and Morty/Season 1/Rick and Morty - S01E01 - Pilot Bluray-1080p.mkv" -map 0:0 -map 0:1 -sn -c:v:0 libx265 -g:v:0 144 -maxrate:v:0 3776000 -bufsize:v:0 7552000 -sc_threshold:v:0 0 -keyint_min:v:0 144 -preset:v:0 veryfast -c:a:0 aac -ab:a:0 384000 -ac:a:0 6 -metadata:s:a:0 language=eng -disposition:a:0 default -avoid_negative_ts disabled -map_metadata -1 -map_chapters -1 "/storage/emulated/0/Android/data/com.emby.embyserver/files/sync/8/8/2ac34f7e-2eb4-4541-b30a-8b6b79e6bc39.mkv"


19:07:25.586 ffmpeg version 4.3.0-emby_2020_02_24 Copyright (c) 2000-2019 the FFmpeg developers and softworkz for Emby LLC
19:07:25.587   built with Android (4751641 based on r328903) clang version 7.0.2 (https://android.googlesource.com/toolchain/clang 003100370607242ddd5815e4a043907ea9004281) (https://android.googlesource.com/toolchain/llvm 1d739ffb0366421d383e04ff80ec2ee591315116) (based on LLVM 7.0.2svn)
19:07:25.587 Execution Date: 2020-05-26 19:07:25
19:07:25.794 Input #0, matroska,webm, from '/storage/BOBMK1/TV Showes/TV Shows/Rick and Morty/Season 1/Rick and Morty - S01E01 - Pilot Bluray-1080p.mkv':
19:07:25.794   Metadata:
19:07:25.794     title           : Rick and Morty Season 1
19:07:25.794     encoder         : libmakemkv v1.8.13 (1.3.0/1.4.1) win(x64-release)
19:07:25.794     creation_time   : 2014-10-17T06:40:20.000000Z
19:07:25.794   Duration: 00:22:01.47, start: 0.000000, bitrate: 15508 kb/s
19:07:25.794     Stream #0:0(eng): Video: vc1 (Advanced) (WVC1 / 0x31435657), yuv420p(progressive), 1920x1080 [SAR 1:1 DAR 16:9], Level 3, 23.98 fps, 23.98 tbr, 1k tbn, 23.98 tbc
19:07:25.794     Stream #0:1(eng): Audio: ac3, 48000 Hz, 5.1(side), fltp, 448 kb/s (default)
19:07:25.794     Metadata:
19:07:25.794       title           : Surround 5.1
19:07:25.794     Stream #0:2(eng): Subtitle: hdmv_pgs_subtitle, 1920x1080, Start-Time 2.377s
19:07:25.799 Stream mapping:
19:07:25.799   Stream #0:0 -> #0:0 (vc1 (native) -> hevc (libx265))
19:07:25.800   Stream #0:1 -> #0:1 (ac3 (native) -> aac (native))
19:07:25.800 Press [q] to stop, [?] for help
x265 [info]: HEVC encoder version 3.2
x265 [info]: build info [Linux][clang 7.0.2][32 bit][noasm] 8bit
x265 [info]: using cpu capabilities: none!
x265 [info]: Main profile, Level-4 (Main tier)
x265 [info]: Thread pool created using 4 threads
x265 [info]: Slices                              : 1
x265 [info]: frame threads / pool features       : 2 / wpp(17 rows)
x265 [info]: Coding QT: max CU size, min CU size : 64 / 8
x265 [info]: Residual QT: max TU size, max depth : 32 / 1 inter / 1 intra
x265 [info]: ME / range / subpel / merge         : hex / 57 / 1 / 2
x265 [info]: Keyframe min / max / scenecut / bias: 23 / 250 / 40 / 5.00
x265 [info]: Lookahead / bframes / badapt        : 15 / 4 / 0
x265 [info]: b-pyramid / weightp / weightb       : 1 / 1 / 0
x265 [info]: References / ref-limit  cu / depth  : 2 / on / on
x265 [info]: AQ: mode / str / qg-size / cu-tree  : 2 / 1.0 / 32 / 1
x265 [info]: Rate Control / qCompress            : CRF-28.0 / 0.60
x265 [info]: VBV/HRD buffer / max-rate / init    : 7552 / 3776 / 0.750
x265 [info]: tools: rd=2 psy-rd=2.00 early-skip rskip signhide tmvp fast-intra
x265 [info]: tools: strong-intra-smoothing lslices=6 deblock sao
19:07:25.903 Output #0, matroska, to '/storage/emulated/0/Android/data/com.emby.embyserver/files/sync/8/8/2ac34f7e-2eb4-4541-b30a-8b6b79e6bc39.mkv':
19:07:25.903   Metadata:
19:07:25.903     encoder         : Lavf58.35.100
19:07:25.903     Stream #0:0: Video: hevc (libx265), yuv420p, 1920x1080 [SAR 1:1 DAR 16:9], q=2-31, 23.98 fps, 1k tbn, 23.98 tbc
19:07:25.903     Metadata:
19:07:25.903       encoder         : Lavc58.62.100 libx265
19:07:25.903     Side data:
19:07:25.903       cpb: bitrate max/min/avg: 3776000/0/0 buffer size: 7552000 vbv_delay: N/A
19:07:25.903     Stream #0:1(eng): Audio: aac (LC) ([255][0][0][0] / 0x00FF), 48000 Hz, 5.1, fltp, 384 kb/s (default)
19:07:25.903     Metadata:
19:07:25.903       encoder         : Lavc58.62.100 aac
19:07:26.304 frame=   13 fps=0.0 q=0.0 size=       3kB time=00:00:00.55 bitrate=N/A throttle=off speed=   0x    
19:07:27.450 frame=   23 fps= 18 q=0.0 size=       3kB time=00:00:00.87 bitrate=  78.0kbits/s throttle=off speed=0.245x    
19:07:28.549 frame=   24 fps=8.7 q=-0.0 size=       3kB time=00:00:00.98 bitrate=  58.3kbits/s throttle=off speed=0.156x    
19:07:29.255 frame=   28 fps=8.4 q=-0.0 size=       3kB time=00:00:01.13 bitrate=  43.3kbits/s throttle=off speed=0.173x    
19:07:29.772 frame=   31 fps=7.8 q=-0.0 size=       3kB time=00:00:01.25 bitrate=  35.5kbits/s throttle=off speed=0.177x    
19:07:30.442 frame=   35 fps=7.7 q=-0.0 size=       3kB time=00:00:01.43 bitrate=  28.5kbits/s throttle=off speed=0.193x    
19:07:30.929 frame=   38 fps=7.4 q=-0.0 size=       3kB time=00:00:01.55 bitrate=  24.9kbits/s throttle=off speed=0.196x    
19:07:31.577 frame=   42 fps=7.5 q=-0.0 size=       3kB time=00:00:01.70 bitrate=  21.7kbits/s throttle=off speed=0.204x    
19:07:31.980 frame=   45 fps=7.3 q=-0.0 size=       3kB time=00:00:01.83 bitrate=  19.5kbits/s throttle=off speed=0.207x    
19:07:33.709 frame=   47 fps=6.9 q=-0.0 size=       3kB time=00:00:01.89 bitrate=  18.6kbits/s throttle=off speed=0.198x    
19:07:33.713 frame=   47 fps=5.9 q=-0.0 size=       3kB time=00:00:01.94 bitrate=  18.0kbits/s throttle=off speed=0.175x    
19:07:34.487 frame=   48 fps=5.5 q=-0.0 size=      50kB time=00:00:01.96 bitrate= 288.1kbits/s throttle=off speed=0.162x    
19:07:35.108 frame=   52 fps=5.6 q=-0.0 size=      50kB time=00:00:02.15 bitrate= 253.5kbits/s throttle=off speed=0.172x    
19:07:35.891 frame=   57 fps=5.7 q=-0.0 size=      50kB time=00:00:02.32 bitrate= 228.9kbits/s throttle=off speed=0.178x    
19:07:36.492 frame=   61 fps=5.8 q=-0.0 size=      50kB time=00:00:02.51 bitrate= 206.5kbits/s throttle=off speed=0.186x    
19:07:36.946 frame=   64 fps=5.7 q=-0.0 size=      50kB time=00:00:02.64 bitrate= 193.9kbits/s throttle=off speed=0.188x    
19:07:37.666 frame=   68 fps=5.8 q=-0.0 size=      50kB time=00:00:02.79 bitrate= 181.1kbits/s throttle=off speed=0.19x    
19:07:38.119 frame=   71 fps=5.8 q=-0.0 size=      50kB time=00:00:02.92 bitrate= 171.3kbits/s throttle=off speed=0.192x    
19:07:38.626 frame=   74 fps=5.8 q=-0.0 size=      50kB time=00:00:03.05 bitrate= 162.5kbits/s throttle=off speed=0.195x    
19:07:39.309 frame=   78 fps=5.8 q=-0.0 size=      50kB time=00:00:03.22 bitrate= 152.0kbits/s throttle=off speed=0.198x    
19:07:39.780 frame=   81 fps=5.8 q=-0.0 size=      50kB time=00:00:03.41 bitrate= 141.8kbits/s throttle=off speed=0.205x    
19:07:40.433 frame=   85 fps=5.8 q=-0.0 size=      50kB time=00:00:03.49 bitrate= 137.8kbits/s throttle=off speed=0.203x    
19:07:41.192 frame=   88 fps=5.7 q=-0.0 size=      50kB time=00:00:03.60 bitrate= 132.9kbits/s throttle=off speed=0.199x    
19:07:41.978 frame=   92 fps=5.7 q=-0.0 size=      50kB time=00:00:03.81 bitrate= 124.3kbits/s throttle=off speed=0.202x    
19:07:42.803 frame=   95 fps=5.6 q=-0.0 size=      50kB time=00:00:03.88 bitrate= 121.9kbits/s throttle=off speed=0.197x    
19:07:43.786 frame=   99 fps=5.6 q=-0.0 size=      50kB time=00:00:04.07 bitrate= 115.2kbits/s throttle=off speed= 0.2x    
19:07:44.161 frame=  101 fps=5.6 q=-0.0 size=      50kB time=00:00:04.18 bitrate= 111.8kbits/s throttle=off speed= 0.2x    
19:07:44.627 frame=  104 fps=5.5 q=-0.0 size=      50kB time=00:00:04.26 bitrate= 109.3kbits/s throttle=off speed=0.198x    
19:07:45.170 frame=  106 fps=5.5 q=-0.0 size=      50kB time=00:00:04.39 bitrate= 105.6kbits/s throttle=off speed=0.198x    
19:07:45.834 frame=  108 fps=5.4 q=-0.0 size=      50kB time=00:00:04.50 bitrate= 102.7kbits/s throttle=off speed=0.197x    
19:07:46.495 frame=  110 fps=5.3 q=-0.0 size=      50kB time=00:00:04.56 bitrate= 101.1kbits/s throttle=off speed=0.195x    
19:07:46.928 frame=  113 fps=5.3 q=-0.0 size=      50kB time=00:00:04.69 bitrate=  98.0kbits/s throttle=off speed=0.196x    
19:07:47.472 frame=  115 fps=5.3 q=-0.0 size=      50kB time=00:00:04.77 bitrate=  96.0kbits/s throttle=off speed=0.195x    
19:07:48.148 frame=  118 fps=5.3 q=-0.0 size=      50kB time=00:00:04.88 bitrate=  93.6kbits/s throttle=off speed=0.194x    
19:07:48.761 frame=  122 fps=5.3 q=-0.0 size=      50kB time=00:00:05.07 bitrate=  89.6kbits/s throttle=off speed=0.197x    
19:07:49.489 frame=  125 fps=5.3 q=-0.0 size=      50kB time=00:00:05.16 bitrate=  88.0kbits/s throttle=off speed=0.195x    
19:07:49.992 frame=  127 fps=5.3 q=-0.0 size=      50kB time=00:00:05.29 bitrate=  85.6kbits/s throttle=off speed=0.196x    
19:07:50.788 frame=  131 fps=5.3 q=-0.0 size=      50kB time=00:00:05.41 bitrate=  83.4kbits/s throttle=off speed=0.195x    
19:07:51.402 frame=  134 fps=5.2 q=-0.0 size=      50kB time=00:00:05.52 bitrate=  81.6kbits/s throttle=off speed=0.195x    
19:07:52.369 frame=  138 fps=5.3 q=-0.0 size=      50kB time=00:00:05.71 bitrate=  78.5kbits/s throttle=off speed=0.197x    
19:07:52.833 frame=  141 fps=5.3 q=-0.0 size=      50kB time=00:00:05.80 bitrate=  77.3kbits/s throttle=off speed=0.196x    
19:07:53.198 frame=  143 fps=5.2 q=-0.0 size=      50kB time=00:00:05.91 bitrate=  75.7kbits/s throttle=off speed=0.196x    
19:07:53.826 frame=  146 fps=5.2 q=-0.0 size=      50kB time=00:00:06.05 bitrate=  73.7kbits/s throttle=off speed=0.196x    
19:07:54.776 frame=  151 fps=5.3 q=-0.0 size=      50kB time=00:00:06.23 bitrate=  71.5kbits/s throttle=off speed=0.198x    
19:07:55.097 frame=  153 fps=5.2 q=-0.0 size=      50kB time=00:00:06.35 bitrate=  69.9kbits/s throttle=off speed=0.198x    
19:07:55.886 frame=  158 fps=5.3 q=-0.0 size=      50kB time=00:00:06.50 bitrate=  68.1kbits/s throttle=off speed=0.198x    
19:07:56.655 frame=  162 fps=5.3 q=-0.0 size=      50kB time=00:00:06.69 bitrate=  66.0kbits/s throttle=off speed=0.201x    
19:07:56.905 frame=  164 fps=5.3 q=-0.0 size=     722kB time=00:00:06.82 bitrate= 943.5kbits/s throttle=off speed=0.202x    
19:07:57.507 frame=  167 fps=5.3 q=-0.0 size=     722kB time=00:00:06.93 bitrate= 927.5kbits/s throttle=off speed=0.201x    
19:07:58.377 frame=  172 fps=5.3 q=-0.0 size=     722kB time=00:00:07.12 bitrate= 900.5kbits/s throttle=off speed=0.204x    
19:07:58.555 frame=  174 fps=5.3 q=-0.0 size=     722kB time=00:00:07.25 bitrate= 883.2kbits/s throttle=off speed=0.205x    
19:07:59.225 frame=  177 fps=5.3 q=-0.0 size=     722kB time=00:00:07.33 bitrate= 872.3kbits/s throttle=off speed=0.203x    
19:07:59.838 frame=  181 fps=5.3 q=-0.0 size=     722kB time=00:00:07.51 bitrate= 850.7kbits/s throttle=off speed=0.204x    
19:08:00.487 

[q] command received. Exiting.

19:08:05.536 19:08:05.537 frame=  184 fps=4.6 q=-0.0 Lsize=     906kB time=00:00:07.70 bitrate=1037.9kbits/s throttle=off speed=0.18x    
19:08:05.537 video:531kB audio:368kB subtitle:0kB other streams:0kB global headers:2kB muxing overhead: 0.767221%
    Last message repeated 1 times
19:08:05.537 EXIT
x265 [info]: frame I:      3, Avg QP:27.11  kb/s: 7558.97 
x265 [info]: frame P:     37, Avg QP:31.33  kb/s: 1601.28 
x265 [info]: frame B:    144, Avg QP:35.44  kb/s: 153.90  
x265 [info]: Weighted P-Frames: Y:0.0% UV:0.0%
x265 [info]: consecutive B-frames: 7.5% 0.0% 5.0% 0.0% 87.5% 

encoded 184 frames in 39.64s (4.64 fps), 565.68 kb/s, Avg QP:34.48
19:08:05.603 [aac @ 0x2c24549600] Qavg: 9119.956
19:08:05.604 

======= ExtraData
H4sIAAAAAAAAA9VY2W7bOBT9FUFPM4AdSV4Sx8A82EmXYJKpEaeZh6IQaIm2CUuiQFKu3SL/PpfUYm2OlzjJtAEKmbokL885d6F+6VfU91Hg6v1f+kfiCcx44fHb96eG/smjE+R9CQWhgXodPz4iL8LS5pf+D/Kx3tfXekNXo2PBSDCDEcEirD81MosQxoU9Yyicc3tKPFyZYXBBGZphA/uRhwR2DdMYBC6jxDVcJJDhUP8M+5O1+o9jtsTMkCtxw6MzbkynfohnTcFQwB3q4mYLOe3O9AIe8KTT7HQ7VnPSNlGzNzmfXFzi84nTvrQt5dKZWIm8tw4N14LvPBQXiAkbCfsnZnSLtcTxJggjEQN2DadbYaawxkhEDCdr+Ugwyheo8QNPfFgrefuwDuXbdFpD387G96d0q5vAxSu9byY/R4wK6lCvuulciLCyV3HOzh33kMe0gk3xtAokeIeRn6IkGaxBaelYFX8fiYtpOmM3QHwQicy8P0Uexw39DrsE/U1kPMTr7VioEVvFPkuLK1jOSZx8vJJOKgM1nPmthu5RMJNW4+t7GBqRFfY+UgaAxMt4lKU/9XW07LRMydCHAPwLYOhrwEPskCnBrq5OcxNAwHrIgd/pYYZE3EMAgbXV1e4mRBhSyjDKR5ipDfW+1VIj1zgUc73fa+j3ePqRgf9wPis9HfmpFrlsmSvL7JmwyACCDmJUWaZ7WJe9nmkZXRP+6XIh5D33fiAPIB0kVL49719KGBhVSaGvD9wlCuRpGvotXkpX9bauaAuQT1k4J0520I3OYyLygoA5CvwH4uMh4soTE9xodWI38uOGFY/d8Gs8RZEnNjtwICOP7S2wFyFFIAYlw3E87wHNlCqk+YcV0BEgL5nwJLPFVjVDgqqoeRC55Gg1y5RTFLNabqeYlVW9mAdX0kdlkIo5dvtqjoIAe7DEefbjFq1pJJUbP3RHFLK+NUTOQs/LstO+OOtqi1SZY+SHXiqXMev0EjZidq0Su+mJKuwa6cQd1MYgVZh9IEIJcBwxRqPA1bpnMmaPIXwnK+NoItR2u4hJDeu5+Xx992iPPo3t8dfhw83D7Qd9MyMla+76SzuccZtv9rzhn2TVI450O/ZORWxNwCcktEok5A5Q5sE0rDcMLxj9yrx8+zD8Mrz72zIeHrXxnP6A7iB54sY9cRYa9DzaHWVibYwx4jTQrNK41tTGpvXBtOBhRDwqtKEXMbRuSkTCM3+x1OWuXyKRFfU9SiBaQh9jB3gGeW+J7ZrmwiUcTTyV1rNZPgptHwsk+5/KhKZVNnXmKFTtW52plFPs9PZ+IGnMihmpNGlnTsoX8isKacGBZm5MIyD6Rorf7Juqom1Jih6ZrFrn3foyn87aq+0IGeZYVMCAEraeIi4kJE+Hlv5s8VllXavTKRKyYjKllc3aFxfnMh5yppNoymXolU0vut1WyZQ7tpjDuebUcyv2BcsFXsuW2ydBvaffVaqqJ8h6jiCEnPqqtQ85Fch3F6hNDE2qYPY6JYCUc0Wj8wIt28LJS1LPXzLx5CZAXIaUE+lSNWaTfCbBrGaiwy8yfB04Rg/+9rm7JKkI8IxvbSqnKwDTp2/5C136LA2uMXcYUTCDwyPEuSbmWONKA1oUQCKBJtXVBFXjVGWAM71wk7klwSJ/Y9ArXYCZbxLgB+wqRshNcU2wA/er/e5nTGZzGJI5N9GL3EvK0yw2DPLn4F6KWqk2lnEaoxIHzdSI9E+bMuprXCUnLc5BsXGdS/8SV/bFshJKYpP3I8Q4hiweeZ4t58vhFozLAb1YEnLoxMP7wZPm4RiRd4CsfMQCECpjbFPRMJpOMdOWMoUC1vIq0VBV1UcLLGXka8hxMOcEqlyqrKlaDORGgoK8Npjv4jDlYKK2PykLZSz+d/o9LTlLRDyU4wbDazrN0aTF30p+uzSQRdOh8Q7u26ZdVRmHMxeU9jz4UGMhxQuFZExlzAPgTAOcYpzd67VQXtG12Gv++8FdDptDUc/oSkHPBk4X2htm30+NpegFAFTdLn28ewHtJ07O+yMim+ykky6jlHK6T1pv59P6M/CWZPRylbxe4jwphsX01C6npxJiRbk13rc1tLpdq/4TUtZbd8+sPzgg8OczQZpityMc1YehutpqWzYJAENrnzRV0wmiSiuIjusFj8Ajve9EgtpwIVTHZc+mtBegVTnvBpN9+g4kL3mnbgrz5GXwH9sGHk9ABZq3EOsJ4X+ttu+8vRvP10ErrrB2nB4PDu3NtJKoXtz1xTRs6/qO7ffeD+ea1HMQ0hWeMsCP7fgOwKLC9lsIcc+wvU8wTRQjPxr9hhW2khgPEkeNuDJ5pMNvIZAKh28TSHmllG4G1mvcDF5UobOuFirFegsU6pjxp94CPFbpTlCu6u1CVa+9BZh9q6Sh17gCnKqIngisYtbMofRs9y/1BIr6D4O21vn/IwAA


Thank you

Edited by ebr
Formatting
Link to post
Share on other sites
  • 5 months later...
  • 3 months later...
Luke

Hi, can you try the beta server 4.6.0.21+ and see if that resolves this for you? Thanks !

Link to post
Share on other sites

Create an account or sign in to comment

You need to be a member in order to leave a comment

Create an account

Sign up for a new account in our community. It's easy!

Register a new account

Sign in

Already have an account? Sign in here.

Sign In Now
×
×
  • Create New...