Jump to content
Quiptix

Buffering / stuttering in Emby LG app

Recommended Posts

Quiptix

Cross-post from other topic


 


 


I have some buffering problem in the app, even when transcoding is not needed.


 


I have done some research. Buffering occurs most likely in the LG App because the server is almost idle when done with the "transcoding". After a couple of minutes, it starts buffering / stuttering, mostly within 2 minutes. When I skip through the movie, buffering is gone (even on the scenes where it first buffered, so it is not TS related), but re-appears within minutes. Pressing pause and play doesn't resolve it. 


 


At this moment I understand why there is some transcoding. The MKV is "transcoded" into a TS stream and the TS stream is used by the player in the LG.


 


I'm at WebOS version 05.30.10, type LG UH850V


Edited by Quiptix

Share this post


Link to post
Share on other sites
Luke

Hi, try lowering the in-app bitrate setting to a lower value.

  • Like 1

Share this post


Link to post
Share on other sites
Luke

Edit: right, you can't do that. We had to hide that function but we'll have to make it available for an upcoming update.

Share this post


Link to post
Share on other sites
Quiptix

Edit: right, you can't do that. We had to hide that function but we'll have to make it available for an upcoming update.

But would that trigger transcoding on the server end?

 

And why do Screenplay or direct access via DLNA not have this problem?

 

4K HEVC Netflix is also no problem, (probably lower bitrates...)

 

 

In addition:

Examined the mkv, which is 12Mbps. LG's can handle at 20Mbps as by these specs: http://www.lg.com/uk/support/product-help/CT00008334-1435836452324-others

Could be outdated...

Edited by Quiptix

Share this post


Link to post
Share on other sites
Kipperdawn

I too am experiencing stuttering, on files that aren't transcoding. Ie it is reporting as direct streaming... The server is idle and not doing anything. Screenplay and chromecast are fine. I can post my server log not sure how to do it, don't see any option in here to attach files. 

 

I have included a few snippets, not sure if it is related or not

 

 

2017-10-29 19:27:38.093 Info App: User policy for Family. EnablePlaybackRemuxing: True EnableVideoPlaybackTranscoding: True EnableAudioPlaybackTranscoding: True
2017-10-29 19:27:38.093 Info App: Profile: Unknown Profile, Path: \\HYPERVISOR-1.kipnet\Video_Storage_3\Movies\Cars 3.mkv, isEligibleForDirectPlay: True, isEligibleForDirectStream: True
2017-10-29 19:27:38.093 Info App: Profile: Unknown Profile, No direct play profiles found for Path: \\HYPERVISOR-1.kipnet\Video_Storage_3\Movies\Cars 3.mkv
2017-10-29 19:27:38.093 Info App: Profile: Unknown Profile, Path: \\HYPERVISOR-1.kipnet\Video_Storage_3\Movies\Cars 3.mkv, isEligibleForDirectPlay: True, isEligibleForDirectStream: True
2017-10-29 19:27:38.093 Info App: Profile: Unknown Profile, No direct play profiles found for Path: \\HYPERVISOR-1.kipnet\Video_Storage_3\Movies\Cars 3.mkv
2017-10-29 19:27:38.093 Info App: Profile: Unknown Profile, Path: \\HYPERVISOR-1.kipnet\Video_Storage_3\Movies\Cars 3.mkv, isEligibleForDirectPlay: True, isEligibleForDirectStream: True
2017-10-29 19:27:38.093 Info App: Profile: Unknown Profile, No direct play profiles found for Path: \\HYPERVISOR-1.kipnet\Video_Storage_3\Movies\Cars 3.mkv
2017-10-29 19:27:38.194 Info HttpServer: HTTP POST http://hypervisor-1:8096/emby/Sessions/Playing. UserAgent: Mozilla/5.0 (Web0S; Linux/SmartTV) AppleWebKit/537.36 (KHTML, like Gecko) Chrome/38.0.2125.122 Safari/537.36 WebAppManager
2017-10-29 19:27:38.203 Info HttpServer: HTTP Response 204 to 192.168.10.240. Time: 8ms. http://hypervisor-1:8096/emby/Sessions/Playing 
2017-10-29 19:27:38.224 Info HttpServer: HTTP GET http://hypervisor-1.kipnet:8096/emby/System/ActivityLog/Entries?startIndex=0&limit=7&minDate=2017-10-29T01%3A27%3A44.158Z. UserAgent: Mozilla/5.0 (Windows NT 10.0; Win64; x64) AppleWebKit/537.36 (KHTML, like Gecko) Chrome/61.0.3163.100 Safari/537.36
2017-10-29 19:27:38.228 Info HttpServer: HTTP Response 200 to 192.168.10.200. Time: 4ms. http://hypervisor-1.kipnet:8096/emby/System/ActivityLog/Entries?startIndex=0&limit=7&minDate=2017-10-29T01%3A27%3A44.158Z 
2017-10-29 19:27:38.271 Info HttpServer: HTTP GET http://hypervisor-1:8096/emby/videos/422393057af393266ea72520b8b80f75/master.m3u8?DeviceId=7837eda209310289f40bf84173ba056b8163fdd3&MediaSourceId=422393057af393266ea72520b8b80f75&VideoCodec=h264&AudioCodec=ac3,eac3,aac,mp3&AudioStreamIndex=1&VideoBitrate=169616000&AudioBitrate=384000&PlaySessionId=8a15f9241ad340758fbc77ee018403c7&CopyTimestamps=false&TranscodingMaxAudioChannels=6&EnableSubtitlesInManifest=false&Tag=31594ec431556e4166815eb19d0f82c4&RequireAvc=false&RequireNonAnamorphic=false&SegmentContainer=ts&MinSegments=1&BreakOnNonKeyFrames=False&h264-profile=high,main,baseline,constrainedbaseline&h264-level=51. Host=hypervisor-1:8096, Cookie=, Accept-Encoding=gzip, deflate, User-Agent=Mozilla/5.0 (Web0S; Linux/SmartTV) AppleWebKit/537.36 (KHTML, like Gecko) Chrome/38.0.2125.122 Safari/537.36 WebAppManager, Connection=Keep-Alive
2017-10-29 19:27:38.296 Info HttpServer: HTTP GET http://hypervisor-1:8096/emby/videos/422393057af393266ea72520b8b80f75/main.m3u8?DeviceId=7837eda209310289f40bf84173ba056b8163fdd3&MediaSourceId=422393057af393266ea72520b8b80f75&VideoCodec=h264&AudioCodec=ac3,eac3,aac,mp3&AudioStreamIndex=1&VideoBitrate=169616000&AudioBitrate=384000&PlaySessionId=8a15f9241ad340758fbc77ee018403c7&CopyTimestamps=false&TranscodingMaxAudioChannels=6&EnableSubtitlesInManifest=false&Tag=31594ec431556e4166815eb19d0f82c4&RequireAvc=false&RequireNonAnamorphic=false&SegmentContainer=ts&MinSegments=1&BreakOnNonKeyFrames=False&h264-profile=high,main,baseline,constrainedbaseline&h264-level=51. Host=hypervisor-1:8096, Cookie=, Accept-Encoding=gzip, deflate, User-Agent=Mozilla/5.0 (Web0S; Linux/SmartTV) AppleWebKit/537.36 (KHTML, like Gecko) Chrome/38.0.2125.122 Safari/537.36 WebAppManager, Connection=Keep-Alive
2017-10-29 19:27:38.463 Info HttpServer: HTTP GET http://hypervisor-1:8096/emby/videos/422393057af393266ea72520b8b80f75/hls1/main/0.ts?DeviceId=7837eda209310289f40bf84173ba056b8163fdd3&MediaSourceId=422393057af393266ea72520b8b80f75&VideoCodec=h264&AudioCodec=ac3,eac3,aac,mp3&AudioStreamIndex=1&VideoBitrate=169616000&AudioBitrate=384000&PlaySessionId=8a15f9241ad340758fbc77ee018403c7&CopyTimestamps=false&TranscodingMaxAudioChannels=6&EnableSubtitlesInManifest=false&Tag=31594ec431556e4166815eb19d0f82c4&RequireAvc=false&RequireNonAnamorphic=false&SegmentContainer=ts&MinSegments=1&BreakOnNonKeyFrames=False&h264-profile=high,main,baseline,constrainedbaseline&h264-level=51. Host=hypervisor-1:8096, Connection=close, Cookie=, User-Agent=Mozilla/5.0 (Web0S; Linux/SmartTV) AppleWebKit/537.36 (KHTML, like Gecko) Chrome/38.0.2125.122 Safari/537.36 WebAppManager
2017-10-29 19:27:38.467 Info App: C:\Applications\Emby\ffmpeg\20170308\ffmpeg.exe -f matroska,webm -i file:"\\HYPERVISOR-1\Video_Storage_3\Movies\Cars 3.mkv" -map_metadata -1 -map_chapters -1 -threads 0 -map 0:0 -map 0:1 -map -0:s -codec:v:0 copy -bsf:v h264_mp4toannexb -copyts -vsync -1 -codec:a:0 ac3 -ac 6 -ab 384000  -f segment -max_delay 5000000 -avoid_negative_ts disabled -start_at_zero -segment_time 6  -individual_header_trailer 0 -segment_format mpegts -segment_list_type m3u8 -segment_start_number 0 -segment_list "C:\Applications\Emby\transcoding-temp\73bd5f29a40e018d769ee43fcf98d6e8.m3u8" -y "C:\Applications\Emby\transcoding-temp\73bd5f29a40e018d769ee43fcf98d6e8%d.ts"
2017-10-29 19:27:38.646 Info App: ffmpeg successfully started
2017-10-29 19:27:38.646 Info App: returning C:\Applications\Emby\transcoding-temp\73bd5f29a40e018d769ee43fcf98d6e80.ts
2017-10-29 19:27:39.522 Info HttpResultFactory: Transmit file C:\Applications\Emby\transcoding-temp\73bd5f29a40e018d769ee43fcf98d6e80.ts
2017-10-29 19:27:40.534 Info HttpServer: HTTP POST http://hypervisor-1:8096/emby/Sessions/Playing/Progress. UserAgent: Mozilla/5.0 (Web0S; Linux/SmartTV) AppleWebKit/537.36 (KHTML, like Gecko) Chrome/38.0.2125.122 Safari/537.36 WebAppManager
2017-10-29 19:27:40.536 Info HttpServer: HTTP Response 204 to 192.168.10.240. Time: 2ms. http://hypervisor-1:8096/emby/Sessions/Playing/Progress 
2017-10-29 19:27:40.590 Info HttpServer: HTTP GET http://hypervisor-1:8096/emby/videos/422393057af393266ea72520b8b80f75/hls1/main/1.ts?DeviceId=7837eda209310289f40bf84173ba056b8163fdd3&MediaSourceId=422393057af393266ea72520b8b80f75&VideoCodec=h264&AudioCodec=ac3,eac3,aac,mp3&AudioStreamIndex=1&VideoBitrate=169616000&AudioBitrate=384000&PlaySessionId=8a15f9241ad340758fbc77ee018403c7&CopyTimestamps=false&TranscodingMaxAudioChannels=6&EnableSubtitlesInManifest=false&Tag=31594ec431556e4166815eb19d0f82c4&RequireAvc=false&RequireNonAnamorphic=false&SegmentContainer=ts&MinSegments=1&BreakOnNonKeyFrames=False&h264-profile=high,main,baseline,constrainedbaseline&h264-level=51. Host=hypervisor-1:8096, Connection=close, Cookie=, User-Agent=Mozilla/5.0 (Web0S; Linux/SmartTV) AppleWebKit/537.36 (KHTML, like Gecko) Chrome/38.0.2125.122 Safari/537.36 WebAppManager
2017-10-29 19:27:40.591 Info HttpResultFactory: Transmit file C:\Applications\Emby\transcoding-temp\73bd5f29a40e018d769ee43fcf98d6e81.ts
2017-10-29 19:27:42.393 Info HttpServer: HTTP GET http://hypervisor-1:8096/emby/videos/422393057af393266ea72520b8b80f75/hls1/main/2.ts?DeviceId=7837eda209310289f40bf84173ba056b8163fdd3&MediaSourceId=422393057af393266ea72520b8b80f75&VideoCodec=h264&AudioCodec=ac3,eac3,aac,mp3&AudioStreamIndex=1&VideoBitrate=169616000&AudioBitrate=384000&PlaySessionId=8a15f9241ad340758fbc77ee018403c7&CopyTimestamps=false&TranscodingMaxAudioChannels=6&EnableSubtitlesInManifest=false&Tag=31594ec431556e4166815eb19d0f82c4&RequireAvc=false&RequireNonAnamorphic=false&SegmentContainer=ts&MinSegments=1&BreakOnNonKeyFrames=False&h264-profile=high,main,baseline,constrainedbaseline&h264-level=51. Host=hypervisor-1:8096, Connection=close, Cookie=, User-Agent=Mozilla/5.0 (Web0S; Linux/SmartTV) AppleWebKit/537.36 (KHTML, like Gecko) Chrome/38.0.2125.122 Safari/537.36 WebAppManager
2017-10-29 19:27:42.393 Info HttpResultFactory: Transmit file C:\Applications\Emby\transcoding-temp\73bd5f29a40e018d769ee43fcf98d6e82.ts
2017-10-29 19:27:45.140 Info HttpServer: HTTP POST http://hypervisor-1:8096/emby/Sessions/Playing/Progress. UserAgent: Mozilla/5.0 (Web0S; Linux/SmartTV) AppleWebKit/537.36 (KHTML, like Gecko) Chrome/38.0.2125.122 Safari/537.36 WebAppManager
2017-10-29 19:27:45.143 Info HttpServer: HTTP Response 204 to 192.168.10.240. Time: 2ms. http://hypervisor-1:8096/emby/Sessions/Playing/Progress 
2017-10-29 19:27:45.149 Info HttpServer: HTTP GET http://hypervisor-1:8096/emby/videos/422393057af393266ea72520b8b80f75/hls1/main/380.ts?DeviceId=7837eda209310289f40bf84173ba056b8163fdd3&MediaSourceId=422393057af393266ea72520b8b80f75&VideoCodec=h264&AudioCodec=ac3,eac3,aac,mp3&AudioStreamIndex=1&VideoBitrate=169616000&AudioBitrate=384000&PlaySessionId=8a15f9241ad340758fbc77ee018403c7&CopyTimestamps=false&TranscodingMaxAudioChannels=6&EnableSubtitlesInManifest=false&Tag=31594ec431556e4166815eb19d0f82c4&RequireAvc=false&RequireNonAnamorphic=false&SegmentContainer=ts&MinSegments=1&BreakOnNonKeyFrames=False&h264-profile=high,main,baseline,constrainedbaseline&h264-level=51. Host=hypervisor-1:8096, Connection=close, Cookie=, User-Agent=Mozilla/5.0 (Web0S; Linux/SmartTV) AppleWebKit/537.36 (KHTML, like Gecko) Chrome/38.0.2125.122 Safari/537.36 WebAppManager
2017-10-29 19:27:45.152 Info App: Stopping ffmpeg process with q command for C:\Applications\Emby\transcoding-temp\73bd5f29a40e018d769ee43fcf98d6e8.m3u8
2017-10-29 19:27:45.262 Info App: FFMpeg exited with code 0
2017-10-29 19:27:45.264 Info App: C:\Applications\Emby\ffmpeg\20170308\ffmpeg.exe -ss 00:38:00.000 -f matroska,webm -i file:"\\HYPERVISOR-1\Video_Storage_3\Movies\Cars 3.mkv" -map_metadata -1 -map_chapters -1 -threads 0 -map 0:0 -map 0:1 -map -0:s -codec:v:0 copy -bsf:v h264_mp4toannexb -copyts -vsync -1 -codec:a:0 ac3 -ac 6 -ab 384000  -f segment -max_delay 5000000 -avoid_negative_ts disabled -start_at_zero -segment_time 6 -segment_time_delta -2280 -individual_header_trailer 0 -segment_format mpegts -segment_list_type m3u8 -segment_start_number 380 -segment_list "C:\Applications\Emby\transcoding-temp\73bd5f29a40e018d769ee43fcf98d6e8.m3u8" -y "C:\Applications\Emby\transcoding-temp\73bd5f29a40e018d769ee43fcf98d6e8%d.ts"
2017-10-29 19:27:45.412 Info App: ffmpeg successfully started
2017-10-29 19:27:45.412 Info App: returning C:\Applications\Emby\transcoding-temp\73bd5f29a40e018d769ee43fcf98d6e8380.ts
2017-10-29 19:27:46.615 Info HttpResultFactory: Transmit file C:\Applications\Emby\transcoding-temp\73bd5f29a40e018d769ee43fcf98d6e8380.ts

 

2017-10-29 19:39:13.404 Error HttpServer: Error processing request
*** Error Report ***
Version: 3.2.33.0
Command line: C:\Applications\Emby\system\EmbyServer.dll -service
Operating system: Microsoft Windows NT 6.2.9200.0
64-Bit OS: True
64-Bit Process: True
User Interactive: True
Processor count: 8
Program data path: C:\Applications\Emby
Application directory: C:\Applications\Emby\system
MediaBrowser.Common.Extensions.ResourceNotFoundException: Cars 3 does not have an image of type Thumb
   at MediaBrowser.Api.Images.ImageService.GetImage(ImageRequest request, IHasMetadata item, Boolean isHeadRequest)
   at MediaBrowser.Api.Images.ImageService.Get(GetItemImage request)
   at Emby.Server.Implementations.Services.ServiceExecGeneral.<Execute>d__2.MoveNext()
--- End of stack trace from previous location where exception was thrown ---
   at System.Runtime.ExceptionServices.ExceptionDispatchInfo.Throw()
   at System.Runtime.CompilerServices.TaskAwaiter.HandleNonSuccessAndDebuggerNotification(Task task)
   at Emby.Server.Implementations.Services.ServiceHandler.<ProcessRequestAsync>d__15.MoveNext()
--- End of stack trace from previous location where exception was thrown ---
   at System.Runtime.ExceptionServices.ExceptionDispatchInfo.Throw()
   at System.Runtime.CompilerServices.TaskAwaiter.HandleNonSuccessAndDebuggerNotification(Task task)
   at Emby.Server.Implementations.HttpServer.HttpListenerHost.<RequestHandler>d__72.MoveNext()
MediaBrowser.Common.Extensions.ResourceNotFoundException
   at MediaBrowser.Api.Images.ImageService.GetImage(ImageRequest request, IHasMetadata item, Boolean isHeadRequest)
   at MediaBrowser.Api.Images.ImageService.Get(GetItemImage request)
   at Emby.Server.Implementations.Services.ServiceExecGeneral.<Execute>d__2.MoveNext()
--- End of stack trace from previous location where exception was thrown ---
   at System.Runtime.ExceptionServices.ExceptionDispatchInfo.Throw()
   at System.Runtime.CompilerServices.TaskAwaiter.HandleNonSuccessAndDebuggerNotification(Task task)
   at Emby.Server.Implementations.Services.ServiceHandler.<ProcessRequestAsync>d__15.MoveNext()
--- End of stack trace from previous location where exception was thrown ---
   at System.Runtime.ExceptionServices.ExceptionDispatchInfo.Throw()
   at System.Runtime.CompilerServices.TaskAwaiter.HandleNonSuccessAndDebuggerNotification(Task task)
   at Emby.Server.Implementations.HttpServer.HttpListenerHost.<RequestHandler>d__72.MoveNext()

Share this post


Link to post
Share on other sites
Quiptix

At this moment I am convinced that the "transcoding" is a strategy to build a new container (from mkv to TS) as such the LG can do smart things with it. In the command to ffmpeg you can see that the vcodec and acodec is "copy" and building the TS. More or less remuxing the media. That's why I believe that de Emby LG App is the one to "blame" maybe or maybe not in conjunction with the LG.

 

But I think Luke has to confirm, deny my thoughts.

Share this post


Link to post
Share on other sites
Luke

@@Kipperdawn try updating to the latest release of emby server, thanks.

Share this post


Link to post
Share on other sites
Quiptix

When disabling remux for the user. The stuttering is gone...

Will test the cycle again when the QNAP version is available.

Share this post


Link to post
Share on other sites
Luke

Thanks for the info.

Share this post


Link to post
Share on other sites
Kipperdawn

Hi Luke,

 

I will give it a shot and let you know.

 

thx

kp

Share this post


Link to post
Share on other sites
Quiptix

Thanks for the info.

Have installed 3.2.35 and now stuttering (with remux enabled) occurs way later, but still occurs.

Previously it was after 90 seconds, now it is around 4 minutes.

 

Additional info, it seems to happen to media with a DTS stream (which is not transcoding as I disabled it). With a DTS stream Emby transcodes it to a TS. I have tested a movie with a AC3 audio stream and it doesn't transcode to a TS and plays de MKV directly.

 

 

 

Vincent

Edited by Quiptix

Share this post


Link to post
Share on other sites
Kipperdawn

Hi Luke,

 

So i tried it with v3.2.35.0 and unfortunately it is still stuttering... almost instantly and kept doing in constantly.

 

Here are snippets of the logs

 

 

Server log

2017-11-05 08:26:51.063 Info App: User policy for Family. EnablePlaybackRemuxing: True EnableVideoPlaybackTranscoding: True EnableAudioPlaybackTranscoding: True
2017-11-05 08:26:51.063 Info App: Profile: Unknown Profile, Path: \\HYPERVISOR-1.kipnet\Video_Storage_3\Movies\Finding Dory.mkv, isEligibleForDirectPlay: True, isEligibleForDirectStream: True
2017-11-05 08:26:51.063 Info App: Profile: Unknown Profile, No direct play profiles found for Path: \\HYPERVISOR-1.kipnet\Video_Storage_3\Movies\Finding Dory.mkv
2017-11-05 08:26:51.064 Info App: Profile: Unknown Profile, Path: \\HYPERVISOR-1.kipnet\Video_Storage_3\Movies\Finding Dory.mkv, isEligibleForDirectPlay: True, isEligibleForDirectStream: True
2017-11-05 08:26:51.064 Info App: Profile: Unknown Profile, No direct play profiles found for Path: \\HYPERVISOR-1.kipnet\Video_Storage_3\Movies\Finding Dory.mkv
2017-11-05 08:26:51.065 Info App: Profile: Unknown Profile, Path: \\HYPERVISOR-1.kipnet\Video_Storage_3\Movies\Finding Dory.mkv, isEligibleForDirectPlay: True, isEligibleForDirectStream: True
2017-11-05 08:26:51.065 Info App: Profile: Unknown Profile, No direct play profiles found for Path: \\HYPERVISOR-1.kipnet\Video_Storage_3\Movies\Finding Dory.mkv
2017-11-05 08:26:51.513 Info HttpServer: HTTP GET http://hypervisor-1:8096/emby/videos/c8f9d930a588e5eede453f01b3034640/master.m3u8?DeviceId=7837eda209310289f40bf84173ba056b8163fdd3&MediaSourceId=c8f9d930a588e5eede453f01b3034640&VideoCodec=h264&AudioCodec=ac3,eac3,aac,mp3&AudioStreamIndex=1&VideoBitrate=169616000&AudioBitrate=384000&PlaySessionId=d2bc2b12cb8b4cc49a8b193f7af4bac3&CopyTimestamps=false&TranscodingMaxAudioChannels=6&EnableSubtitlesInManifest=false&Tag=b55af6fd5bfe7b9e75e158bbcbba3793&RequireAvc=false&RequireNonAnamorphic=false&SegmentContainer=ts&MinSegments=1&BreakOnNonKeyFrames=False&TranscodeReasons=AudioCodecNotSupported&h264-profile=high,main,baseline,constrainedbaseline&h264-level=51. Host=hypervisor-1:8096, Cookie=, Accept-Encoding=gzip, deflate, User-Agent=Mozilla/5.0 (Web0S; Linux/SmartTV) AppleWebKit/537.36 (KHTML, like Gecko) Chrome/38.0.2125.122 Safari/537.36 WebAppManager, Connection=Keep-Alive
2017-11-05 08:26:51.540 Info HttpServer: HTTP POST http://hypervisor-1:8096/emby/Sessions/Playing. UserAgent: Mozilla/5.0 (Web0S; Linux/SmartTV) AppleWebKit/537.36 (KHTML, like Gecko) Chrome/38.0.2125.122 Safari/537.36 WebAppManager
2017-11-05 08:26:51.553 Info HttpServer: HTTP Response 204 to 192.168.10.240. Time: 14ms. http://hypervisor-1:8096/emby/Sessions/Playing 
2017-11-05 08:26:51.587 Info HttpServer: HTTP GET http://hypervisor-1:8096/emby/videos/c8f9d930a588e5eede453f01b3034640/main.m3u8?DeviceId=7837eda209310289f40bf84173ba056b8163fdd3&MediaSourceId=c8f9d930a588e5eede453f01b3034640&VideoCodec=h264&AudioCodec=ac3,eac3,aac,mp3&AudioStreamIndex=1&VideoBitrate=169616000&AudioBitrate=384000&PlaySessionId=d2bc2b12cb8b4cc49a8b193f7af4bac3&CopyTimestamps=false&TranscodingMaxAudioChannels=6&EnableSubtitlesInManifest=false&Tag=b55af6fd5bfe7b9e75e158bbcbba3793&RequireAvc=false&RequireNonAnamorphic=false&SegmentContainer=ts&MinSegments=1&BreakOnNonKeyFrames=False&TranscodeReasons=AudioCodecNotSupported&h264-profile=high,main,baseline,constrainedbaseline&h264-level=51. Host=hypervisor-1:8096, Cookie=, Accept-Encoding=gzip, deflate, User-Agent=Mozilla/5.0 (Web0S; Linux/SmartTV) AppleWebKit/537.36 (KHTML, like Gecko) Chrome/38.0.2125.122 Safari/537.36 WebAppManager, Connection=Keep-Alive
2017-11-05 08:26:51.824 Info HttpServer: HTTP GET http://hypervisor-1:8096/emby/videos/c8f9d930a588e5eede453f01b3034640/hls1/main/0.ts?DeviceId=7837eda209310289f40bf84173ba056b8163fdd3&MediaSourceId=c8f9d930a588e5eede453f01b3034640&VideoCodec=h264&AudioCodec=ac3,eac3,aac,mp3&AudioStreamIndex=1&VideoBitrate=169616000&AudioBitrate=384000&PlaySessionId=d2bc2b12cb8b4cc49a8b193f7af4bac3&CopyTimestamps=false&TranscodingMaxAudioChannels=6&EnableSubtitlesInManifest=false&Tag=b55af6fd5bfe7b9e75e158bbcbba3793&RequireAvc=false&RequireNonAnamorphic=false&SegmentContainer=ts&MinSegments=1&BreakOnNonKeyFrames=False&TranscodeReasons=AudioCodecNotSupported&h264-profile=high,main,baseline,constrainedbaseline&h264-level=51. Host=hypervisor-1:8096, Connection=close, Cookie=, User-Agent=Mozilla/5.0 (Web0S; Linux/SmartTV) AppleWebKit/537.36 (KHTML, like Gecko) Chrome/38.0.2125.122 Safari/537.36 WebAppManager
2017-11-05 08:26:51.864 Info App: C:\Applications\Emby\system\ffmpeg.exe -f matroska -i file:"\\HYPERVISOR-1\Video_Storage_3\Movies\Finding Dory.mkv" -map_metadata -1 -map_chapters -1 -threads 0 -map 0:0 -map 0:1 -map -0:s -codec:v:0 copy -bsf:v h264_mp4toannexb -copyts -vsync -1 -codec:a:0 ac3 -ac 6 -ab 384000  -f segment -max_delay 5000000 -avoid_negative_ts disabled -start_at_zero -segment_time 6  -individual_header_trailer 0 -segment_format mpegts -segment_list_type m3u8 -segment_start_number 0 -segment_list "C:\Applications\Emby\transcoding-temp\910610700d0446d458755233956dc8f2.m3u8" -y "C:\Applications\Emby\transcoding-temp\910610700d0446d458755233956dc8f2%d.ts"
2017-11-05 08:26:53.374 Info App: ffmpeg successfully started
2017-11-05 08:26:53.375 Info App: returning C:\Applications\Emby\transcoding-temp\910610700d0446d458755233956dc8f20.ts
2017-11-05 08:26:53.950 Info HttpResultFactory: Transmit file C:\Applications\Emby\transcoding-temp\910610700d0446d458755233956dc8f20.ts
 

 

 

ffmpeg.log

Application version: 3.2.35.0
 
 
{"Protocol":"File","Id":"c8f9d930a588e5eede453f01b3034640","Path":"\\\\HYPERVISOR-1\\Video_Storage_3\\Movies\\Finding Dory.mkv","Type":"Default","Container":"mkv","Name":"1080P/H264/DTS","IsRemote":false,"ETag":"b55af6fd5bfe7b9e75e158bbcbba3793","RunTimeTicks":58236510208,"ReadAtNativeFramerate":false,"IgnoreDts":false,"IgnoreIndex":false,"GenPtsInput":false,"SupportsTranscoding":true,"SupportsDirectStream":true,"SupportsDirectPlay":true,"IsInfiniteStream":false,"RequiresOpening":false,"RequiresClosing":false,"SupportsProbing":true,"RequiresLooping":false,"VideoType":"VideoFile","MediaStreams":[{"Codec":"h264","Language":"eng","TimeBase":"1/1000","CodecTimeBase":"1001/48000","NalLengthSize":"4","IsInterlaced":false,"IsAVC":true,"BitRate":18150078,"BitDepth":8,"RefFrames":1,"IsDefault":true,"IsForced":false,"Height":1080,"Width":1920,"AverageFrameRate":23.9760246,"RealFrameRate":23.9760246,"Profile":"High","Type":"Video","AspectRatio":"16:9","Index":0,"IsExternal":false,"IsTextSubtitleStream":false,"SupportsExternalStream":false,"PixelFormat":"yuv420p","Level":41,"IsAnamorphic":false},{"Codec":"dts","Language":"eng","TimeBase":"1/1000","CodecTimeBase":"1/48000","DisplayTitle":"Eng DTS 5.1 Default","IsInterlaced":false,"ChannelLayout":"5.1","BitRate":1536000,"Channels":6,"SampleRate":48000,"IsDefault":true,"IsForced":false,"Profile":"DTS","Type":"Audio","Index":1,"IsExternal":false,"IsTextSubtitleStream":false,"SupportsExternalStream":false,"Level":0,"IsAnamorphic":false},{"Codec":"subrip","Language":"eng","TimeBase":"1/1000","CodecTimeBase":"0/1","Title":"SDH","DisplayTitle":"Eng SDH","IsInterlaced":false,"IsDefault":false,"IsForced":false,"Type":"Subtitle","Index":2,"IsExternal":false,"IsTextSubtitleStream":true,"SupportsExternalStream":true,"Level":0,"IsAnamorphic":false},{"Codec":"subrip","Language":"eng","TimeBase":"1/1000","CodecTimeBase":"0/1","Title":"Commentary","DisplayTitle":"Eng Commentary","IsInterlaced":false,"IsDefault":false,"IsForced":false,"Type":"Subtitle","Index":3,"IsExternal":false,"IsTextSubtitleStream":true,"SupportsExternalStream":true,"Level":0,"IsAnamorphic":false},{"Codec":"mjpeg","TimeBase":"1/90000","CodecTimeBase":"0/1","IsInterlaced":false,"BitDepth":8,"RefFrames":1,"IsDefault":false,"IsForced":false,"Height":1102,"Width":900,"RealFrameRate":90000,"Type":"EmbeddedImage","AspectRatio":"450:551","Index":4,"IsExternal":false,"IsTextSubtitleStream":false,"SupportsExternalStream":false,"PixelFormat":"yuvj420p","Level":-99,"IsAnamorphic":false}],"Formats":[],"Bitrate":19686078,"RequiredHttpHeaders":{}}
 
User policy for Family: EnablePlaybackRemuxing: True EnableVideoPlaybackTranscoding: True EnableAudioPlaybackTranscoding: True
 
C:\Applications\Emby\system\ffmpeg.exe -f matroska -i file:"\\HYPERVISOR-1\Video_Storage_3\Movies\Finding Dory.mkv" -map_metadata -1 -map_chapters -1 -threads 0 -map 0:0 -map 0:1 -map -0:s -codec:v:0 copy -bsf:v h264_mp4toannexb -copyts -vsync -1 -codec:a:0 ac3 -ac 6 -ab 384000  -f segment -max_delay 5000000 -avoid_negative_ts disabled -start_at_zero -segment_time 6  -individual_header_trailer 0 -segment_format mpegts -segment_list_type m3u8 -segment_start_number 0 -segment_list "C:\Applications\Emby\transcoding-temp\910610700d0446d458755233956dc8f2.m3u8" -y "C:\Applications\Emby\transcoding-temp\910610700d0446d458755233956dc8f2%d.ts"
 
ffmpeg version 3.4 Copyright © 2000-2017 the FFmpeg developers
  built with gcc 7.2.0 (GCC)
  configuration: --enable-gpl --enable-version3 --enable-sdl2 --enable-bzlib --enable-fontconfig --enable-gnutls --enable-iconv --enable-libass --enable-libbluray --enable-libfreetype --enable-libmp3lame --enable-libopenjpeg --enable-libopus --enable-libshine --enable-libsnappy --enable-libsoxr --enable-libtheora --enable-libtwolame --enable-libvpx --enable-libwavpack --enable-libwebp --enable-libx264 --enable-libx265 --enable-libxml2 --enable-libzimg --enable-lzma --enable-zlib --enable-gmp --enable-libvidstab --enable-libvorbis --enable-cuda --enable-cuvid --enable-d3d11va --enable-nvenc --enable-dxva2 --enable-avisynth --enable-libmfx
  libavutil      55. 78.100 / 55. 78.100
  libavcodec     57.107.100 / 57.107.100
  libavformat    57. 83.100 / 57. 83.100
  libavdevice    57. 10.100 / 57. 10.100
  libavfilter     6.107.100 /  6.107.100
  libswscale      4.  8.100 /  4.  8.100
  libswresample   2.  9.100 /  2.  9.100
  libpostproc    54.  7.100 / 54.  7.100
Input #0, matroska,webm, from 'file:\\HYPERVISOR-1\Video_Storage_3\Movies\Finding Dory.mkv':
  Metadata:
    title           : Finding Dory (2016) - Encode by SbR
    encoder         : libebml v1.3.4 + libmatroska v1.4.5
    creation_time   : 2017-02-10T05:31:26.000000Z
  Duration: 01:37:03.65, start: 0.000000, bitrate: 18150 kb/s
    Chapter #0:0: start 0.000000, end 155.739000
    Metadata:
      title           : Prologue
    Chapter #0:1: start 155.739000, end 410.243000
    Metadata:
      title           : Lost At Sea
    Chapter #0:2: start 410.243000, end 653.194000
    Metadata:
      title           : Life With Dory
    Chapter #0:3: start 653.194000, end 813.187000
    Metadata:
      title           : Losing Dory
    Chapter #0:4: start 813.187000, end 925.132000
    Metadata:
      title           : Dory Leads
    Chapter #0:5: start 925.132000, end 1023.314000
    Metadata:
      title           : Totally Sick
    Chapter #0:6: start 1023.314000, end 1175.466000
    Metadata:
      title           : Shipping Lanes
    Chapter #0:7: start 1175.466000, end 1295.294000
    Metadata:
      title           : Marine Life Institute
    Chapter #0:8: start 1295.294000, end 1498.705000
    Metadata:
      title           : Under Quarantine
    Chapter #0:9: start 1498.705000, end 1628.543000
    Metadata:
      title           : Getting In
    Chapter #0:10: start 1628.543000, end 1833.206000
    Metadata:
      title           : No Pipes
    Chapter #0:11: start 1833.206000, end 2100.265000
    Metadata:
      title           : Manifest Destiny
    Chapter #0:12: start 2100.265000, end 2272.020000
    Metadata:
      title           : Operation Becky
    Chapter #0:13: start 2272.020000, end 2417.999000
    Metadata:
      title           : Stroller Crossing
    Chapter #0:14: start 2417.999000, end 2466.672000
    Metadata:
      title           : Stuck
    Chapter #0:15: start 2466.672000, end 2550.423000
    Metadata:
      title           : Argument
    Chapter #0:16: start 2550.423000, end 2763.427000
    Metadata:
      title           : Touch Pool
    Chapter #0:17: start 2763.427000, end 2921.710000
    Metadata:
      title           : Confession
    Chapter #0:18: start 2921.710000, end 3027.858000
    Metadata:
      title           : Tag
    Chapter #0:19: start 3027.858000, end 3306.678000
    Metadata:
      title           : Childhood Home
    Chapter #0:20: start 3306.678000, end 3425.839000
    Metadata:
      title           : Pipe Travel
    Chapter #0:21: start 3425.839000, end 3641.346000
    Metadata:
      title           : Meeting Marlin
    Chapter #0:22: start 3641.346000, end 3872.952000
    Metadata:
      title           : Off To Cleveland
    Chapter #0:23: start 3872.952000, end 4236.816000
    Metadata:
      title           : All Alone
    Chapter #0:24: start 4236.816000, end 4348.302000
    Metadata:
      title           : Game Plan
    Chapter #0:25: start 4348.302000, end 4449.862000
    Metadata:
      title           : Stop That Truck
    Chapter #0:26: start 4449.862000, end 4706.493000
    Metadata:
      title           : Time To Go
    Chapter #0:27: start 4706.493000, end 5209.329000
    Metadata:
      title           : Big Finish
    Chapter #0:28: start 5209.329000, end 5823.651000
    Metadata:
      title           : Epilogue
    Stream #0:0(eng): Video: h264 (High), yuv420p(tv, bt709, progressive), 1920x1080 [sAR 1:1 DAR 16:9], 23.98 fps, 23.98 tbr, 1k tbn, 47.95 tbc (default)
    Metadata:
      BPS             : 16637445
      BPS-eng         : 16637445
      DURATION        : 01:37:03.651000000
      DURATION-eng    : 01:37:03.651000000
      NUMBER_OF_FRAMES: 139628
      NUMBER_OF_FRAMES-eng: 139628
      NUMBER_OF_BYTES : 12111334776
      NUMBER_OF_BYTES-eng: 12111334776
      _STATISTICS_WRITING_APP: mkvmerge v9.7.1 ('Pandemonium') 64bit
      _STATISTICS_WRITING_APP-eng: mkvmerge v9.7.1 ('Pandemonium') 64bit
      _STATISTICS_WRITING_DATE_UTC: 2017-02-10 05:31:26
      _STATISTICS_WRITING_DATE_UTC-eng: 2017-02-10 05:31:26
      _STATISTICS_TAGS: BPS DURATION NUMBER_OF_FRAMES NUMBER_OF_BYTES
      _STATISTICS_TAGS-eng: BPS DURATION NUMBER_OF_FRAMES NUMBER_OF_BYTES
    Stream #0:1(eng): Audio: dts (DTS), 48000 Hz, 5.1(side), fltp, 1536 kb/s (default)
    Metadata:
      BPS             : 1508999
      BPS-eng         : 1508999
      DURATION        : 01:37:03.649000000
      DURATION-eng    : 01:37:03.649000000
      NUMBER_OF_FRAMES: 545967
      NUMBER_OF_FRAMES-eng: 545967
      NUMBER_OF_BYTES : 1098485604
      NUMBER_OF_BYTES-eng: 1098485604
      _STATISTICS_WRITING_APP: mkvmerge v9.7.1 ('Pandemonium') 64bit
      _STATISTICS_WRITING_APP-eng: mkvmerge v9.7.1 ('Pandemonium') 64bit
      _STATISTICS_WRITING_DATE_UTC: 2017-02-10 05:31:26
      _STATISTICS_WRITING_DATE_UTC-eng: 2017-02-10 05:31:26
      _STATISTICS_TAGS: BPS DURATION NUMBER_OF_FRAMES NUMBER_OF_BYTES
      _STATISTICS_TAGS-eng: BPS DURATION NUMBER_OF_FRAMES NUMBER_OF_BYTES
    Stream #0:2(eng): Subtitle: subrip
    Metadata:
      title           : SDH
      BPS             : 94
      BPS-eng         : 94
      DURATION        : 01:35:21.007000000
      DURATION-eng    : 01:35:21.007000000
      NUMBER_OF_FRAMES: 1764
      NUMBER_OF_FRAMES-eng: 1764
      NUMBER_OF_BYTES : 67391
      NUMBER_OF_BYTES-eng: 67391
      _STATISTICS_WRITING_APP: mkvmerge v9.7.1 ('Pandemonium') 64bit
      _STATISTICS_WRITING_APP-eng: mkvmerge v9.7.1 ('Pandemonium') 64bit
      _STATISTICS_WRITING_DATE_UTC: 2017-02-10 05:31:26
      _STATISTICS_WRITING_DATE_UTC-eng: 2017-02-10 05:31:26
      _STATISTICS_TAGS: BPS DURATION NUMBER_OF_FRAMES NUMBER_OF_BYTES
      _STATISTICS_TAGS-eng: BPS DURATION NUMBER_OF_FRAMES NUMBER_OF_BYTES
    Stream #0:3(eng): Subtitle: subrip
    Metadata:
      title           : Commentary
      BPS             : 153
      BPS-eng         : 153
      DURATION        : 01:29:56.850000000
      DURATION-eng    : 01:29:56.850000000
      NUMBER_OF_FRAMES: 2270
      NUMBER_OF_FRAMES-eng: 2270
      NUMBER_OF_BYTES : 103608
      NUMBER_OF_BYTES-eng: 103608
      _STATISTICS_WRITING_APP: mkvmerge v9.7.1 ('Pandemonium') 64bit
      _STATISTICS_WRITING_APP-eng: mkvmerge v9.7.1 ('Pandemonium') 64bit
      _STATISTICS_WRITING_DATE_UTC: 2017-02-10 05:31:26
      _STATISTICS_WRITING_DATE_UTC-eng: 2017-02-10 05:31:26
      _STATISTICS_TAGS: BPS DURATION NUMBER_OF_FRAMES NUMBER_OF_BYTES
      _STATISTICS_TAGS-eng: BPS DURATION NUMBER_OF_FRAMES NUMBER_OF_BYTES
    Stream #0:4: Video: mjpeg, yuvj420p(pc, bt470bg/unknown/unknown), 900x1102 [sAR 304:304 DAR 450:551], 90k tbr, 90k tbn, 90k tbc
    Metadata:
      filename        : cover.jpg
      mimetype        : image/jpeg
Stream mapping:
  Stream #0:0 -> #0:0 (copy)
  Stream #0:1 -> #0:1 (dts (dca) -> ac3 (native))
Press [q] to stop, [?] for help
[segment @ 00000011f5fce840] Opening 'C:\Applications\Emby\transcoding-temp\910610700d0446d458755233956dc8f20.ts' for writing
Output #0, segment, to 'C:\Applications\Emby\transcoding-temp\910610700d0446d458755233956dc8f2%d.ts':
  Metadata:
    encoder         : Lavf57.83.100
    Stream #0:0: Video: h264 (High), yuv420p(tv, bt709, progressive), 1920x1080 [sAR 1:1 DAR 16:9], q=2-31, 23.98 fps, 23.98 tbr, 90k tbn, 23.98 tbc (default)
    Stream #0:1: Audio: ac3, 48000 Hz, 5.1, fltp, 384 kb/s (default)
    Metadata:
      encoder         : Lavc57.107.100 ac3
frame=  186 fps=0.0 q=-1.0 size=N/A time=00:00:07.73 bitrate=N/A speed=15.2x    
[segment @ 00000011f5fce840] Opening 'C:\Applications\Emby\transcoding-temp\910610700d0446d458755233956dc8f2.m3u8.tmp' for writing
[segment @ 00000011f5fce840] Opening 'C:\Applications\Emby\transcoding-temp\910610700d0446d458755233956dc8f21.ts' for writing
frame=  445 fps=441 q=-1.0 size=N/A time=00:00:18.55 bitrate=N/A speed=18.4x    
[segment @ 00000011f5fce840] Opening 'C:\Applications\Emby\transcoding-temp\910610700d0446d458755233956dc8f2.m3u8.tmp' for writing
[segment @ 00000011f5fce840] Opening 'C:\Applications\Emby\transcoding-temp\910610700d0446d458755233956dc8f22.ts' for writing
frame=  695 fps=456 q=-1.0 size=N/A time=00:00:29.01 bitrate=N/A speed=  19x    
[segment @ 00000011f5fce840] Opening 'C:\Applications\Emby\transcoding-temp\910610700d0446d458755233956dc8f2.m3u8.tmp' for writing
[segment @ 00000011f5fce840] Opening 'C:\Applications\Emby\transcoding-temp\910610700d0446d458755233956dc8f23.ts' for writing
[segment @ 00000011f5fce840] Opening 'C:\Applications\Emby\transcoding-temp\910610700d0446d458755233956dc8f2.m3u8.tmp' for writing
[segment @ 00000011f5fce840] Opening 'C:\Applications\Emby\transcoding-temp\910610700d0446d458755233956dc8f24.ts' for writing
frame= 1055 fps=521 q=-1.0 size=N/A time=00:00:44.21 bitrate=N/A speed=21.8x    
[segment @ 00000011f5fce840] Opening 'C:\Applications\Emby\transcoding-temp\910610700d0446d458755233956dc8f2.m3u8.tmp' for writing
[segment @ 00000011f5fce840] Opening 'C:\Applications\Emby\transcoding-temp\910610700d0446d458755233956dc8f25.ts' for writing
frame= 1427 fps=562 q=-1.0 size=N/A time=00:00:59.60 bitrate=N/A speed=23.5x    
[segment @ 00000011f5fce840] Opening 'C:\Applications\Emby\transcoding-temp\910610700d0446d458755233956dc8f2.m3u8.tmp' for writing
[segment @ 00000011f5fce840] Opening 'C:\Applications\Emby\transcoding-temp\910610700d0446d458755233956dc8f26.ts' for writing
frame= 1683 fps=553 q=-1.0 size=N/A time=00:01:10.29 bitrate=N/A speed=23.1x    
[segment @ 00000011f5fce840] Opening 'C:\Applications\Emby\transcoding-temp\910610700d0446d458755233956dc8f2.m3u8.tmp' for writing
[segment @ 00000011f5fce840] Opening 'C:\Applications\Emby\transcoding-temp\910610700d0446d458755233956dc8f27.ts' for writing
frame= 1931 fps=545 q=-1.0 size=N/A time=00:01:20.60 bitrate=N/A speed=22.8x    
[segment @ 00000011f5fce840] Opening 'C:\Applications\Emby\transcoding-temp\910610700d0446d458755233956dc8f2.m3u8.tmp' for writing
[segment @ 00000011f5fce840] Opening 'C:\Applications\Emby\transcoding-temp\910610700d0446d458755233956dc8f28.ts' for writing
frame= 2189 fps=540 q=-1.0 size=N/A time=00:01:31.45 bitrate=N/A speed=22.5x    
[segment @ 00000011f5fce840] Opening 'C:\Applications\Emby\transcoding-temp\910610700d0446d458755233956dc8f2.m3u8.tmp' for writing
[segment @ 00000011f5fce840] Opening 'C:\Applications\Emby\transcoding-temp\910610700d0446d458755233956dc8f29.ts' for writing
frame= 2446 fps=537 q=-1.0 size=N/A time=00:01:42.13 bitrate=N/A speed=22.4x    
[segment @ 00000011f5fce840] Opening 'C:\Applications\Emby\transcoding-temp\910610700d0446d458755233956dc8f2.m3u8.tmp' for writing
[segment @ 00000011f5fce840] Opening 'C:\Applications\Emby\transcoding-temp\910610700d0446d458755233956dc8f210.ts' for writing
frame= 2700 fps=534 q=-1.0 size=N/A time=00:01:52.73 bitrate=N/A speed=22.3x    
[segment @ 00000011f5fce840] Opening 'C:\Applications\Emby\transcoding-temp\910610700d0446d458755233956dc8f2.m3u8.tmp' for writing
[segment @ 00000011f5fce840] Opening 'C:\Applications\Emby\transcoding-temp\910610700d0446d458755233956dc8f211.ts' for writing
[segment @ 00000011f5fce840] Opening 'C:\Applications\Emby\transcoding-temp\910610700d0446d458755233956dc8f2.m3u8.tmp' for writing
[segment @ 00000011f5fce840] Opening 'C:\Applications\Emby\transcoding-temp\910610700d0446d458755233956dc8f212.ts' for writing
frame= 3063 fps=550 q=-1.0 size=N/A time=00:02:07.73 bitrate=N/A speed=22.9x    
[segment @ 00000011f5fce840] Opening 'C:\Applications\Emby\transcoding-temp\910610700d0446d458755233956dc8f2.m3u8.tmp' for writing
[segment @ 00000011f5fce840] Opening 'C:\Applications\Emby\transcoding-temp\910610700d0446d458755233956dc8f213.ts' for writing
frame= 3340 fps=550 q=-1.0 size=N/A time=00:02:19.48 bitrate=N/A speed=  23x    
[segment @ 00000011f5fce840] Opening 'C:\Applications\Emby\transcoding-temp\910610700d0446d458755233956dc8f2.m3u8.tmp' for writing
[segment @ 00000011f5fce840] Opening 'C:\Applications\Emby\transcoding-temp\910610700d0446d458755233956dc8f214.ts' for writing
frame= 3630 fps=551 q=-1.0 size=N/A time=00:02:31.38 bitrate=N/A speed=  23x    
[segment @ 00000011f5fce840] Opening 'C:\Applications\Emby\transcoding-temp\910610700d0446d458755233956dc8f2.m3u8.tmp' for writing
[segment @ 00000011f5fce840] Opening 'C:\Applications\Emby\transcoding-temp\910610700d0446d458755233956dc8f215.ts' for writing
frame= 3932 fps=555 q=-1.0 size=N/A time=00:02:44.05 bitrate=N/A speed=23.1x    
[segment @ 00000011f5fce840] Opening 'C:\Applications\Emby\transcoding-temp\910610700d0446d458755233956dc8f2.m3u8.tmp' for writing
[segment @ 00000011f5fce840] Opening 'C:\Applications\Emby\transcoding-temp\910610700d0446d458755233956dc8f216.ts' for writing
[segment @ 00000011f5fce840] Opening 'C:\Applications\Emby\transcoding-temp\910610700d0446d458755233956dc8f2.m3u8.tmp' for writing
[segment @ 00000011f5fce840] Opening 'C:\Applications\Emby\transcoding-temp\910610700d0446d458755233956dc8f217.ts' for writing
frame= 4267 fps=561 q=-1.0 size=N/A time=00:02:58.10 bitrate=N/A speed=23.4x    
[segment @ 00000011f5fce840] Opening 'C:\Applications\Emby\transcoding-temp\910610700d0446d458755233956dc8f2.m3u8.tmp' for writing
[segment @ 00000011f5fce840] Opening 'C:\Applications\Emby\transcoding-temp\910610700d0446d458755233956dc8f218.ts' for writing
frame= 4659 fps=574 q=-1.0 size=N/A time=00:03:14.45 bitrate=N/A speed=  24x    
[segment @ 00000011f5fce840] Opening 'C:\Applications\Emby\transcoding-temp\910610700d0446d458755233956dc8f2.m3u8.tmp' for writing
[segment @ 00000011f5fce840] Opening 'C:\Applications\Emby\transcoding-temp\910610700d0446d458755233956dc8f219.ts' for writing
[segment @ 00000011f5fce840] Opening 'C:\Applications\Emby\transcoding-temp\910610700d0446d458755233956dc8f2.m3u8.tmp' for writing
[segment @ 00000011f5fce840] Opening 'C:\Applications\Emby\transcoding-temp\910610700d0446d458755233956dc8f220.ts' for writing
frame= 5074 fps=588 q=-1.0 size=N/A time=00:03:31.77 bitrate=N/A speed=24.5x    
[segment @ 00000011f5fce840] Opening 'C:\Applications\Emby\transcoding-temp\910610700d0446d458755233956dc8f2.m3u8.tmp' for writing
[segment @ 00000011f5fce840] Opening 'C:\Applications\Emby\transcoding-temp\910610700d0446d458755233956dc8f221.ts' for writing
[segment @ 00000011f5fce840] Opening 'C:\Applications\Emby\transcoding-temp\910610700d0446d458755233956dc8f2.m3u8.tmp' for writing
[segment @ 00000011f5fce840] Opening 'C:\Applications\Emby\transcoding-temp\910610700d0446d458755233956dc8f222.ts' for writing
frame= 5581 fps=610 q=-1.0 size=N/A time=00:03:52.98 bitrate=N/A speed=25.5x    
[segment @ 00000011f5fce840] Opening 'C:\Applications\Emby\transcoding-temp\910610700d0446d458755233956dc8f2.m3u8.tmp' for writing
[segment @ 00000011f5fce840] Opening 'C:\Applications\Emby\transcoding-temp\910610700d0446d458755233956dc8f223.ts' for writing
[segment @ 00000011f5fce840] Opening 'C:\Applications\Emby\transcoding-temp\910610700d0446d458755233956dc8f2.m3u8.tmp' for writing
[segment @ 00000011f5fce840] Opening 'C:\Applications\Emby\transcoding-temp\910610700d0446d458755233956dc8f224.ts' for writing
frame= 6217 fps=643 q=-1.0 size=N/A time=00:04:19.32 bitrate=N/A speed=26.8x    
[segment @ 00000011f5fce840] Opening 'C:\Applications\Emby\transcoding-temp\910610700d0446d458755233956dc8f2.m3u8.tmp' for writing
[segment @ 00000011f5fce840] Opening 'C:\Applications\Emby\transcoding-temp\910610700d0446d458755233956dc8f225.ts' for writing
[segment @ 00000011f5fce840] Opening 'C:\Applications\Emby\transcoding-temp\910610700d0446d458755233956dc8f2.m3u8.tmp' for writing
[segment @ 00000011f5fce840] Opening 'C:\Applications\Emby\transcoding-temp\910610700d0446d458755233956dc8f226.ts' for writing
[segment @ 00000011f5fce840] Opening 'C:\Applications\Emby\transcoding-temp\910610700d0446d458755233956dc8f2.m3u8.tmp' for writing
[segment @ 00000011f5fce840] Opening 'C:\Applications\Emby\transcoding-temp\910610700d0446d458755233956dc8f227.ts' for writing
frame= 6744 fps=663 q=-1.0 size=N/A time=00:04:41.37 bitrate=N/A speed=27.7x    
[segment @ 00000011f5fce840] Opening 'C:\Applications\Emby\transcoding-temp\910610700d0446d458755233956dc8f2.m3u8.tmp' for writing
[segment @ 00000011f5fce840] Opening 'C:\Applications\Emby\transcoding-temp\910610700d0446d458755233956dc8f228.ts' for writing
[segment @ 00000011f5fce840] Opening 'C:\Applications\Emby\transcoding-temp\910610700d0446d458755233956dc8f2.m3u8.tmp' for writing
[segment @ 00000011f5fce840] Opening 'C:\Applications\Emby\transcoding-temp\910610700d0446d458755233956dc8f229.ts' for writing
frame= 7360 fps=689 q=-1.0 size=N/A time=00:05:07.03 bitrate=N/A speed=28.7x    
[segment @ 00000011f5fce840] Opening 'C:\Applications\Emby\transcoding-temp\910610700d0446d458755233956dc8f2.m3u8.tmp' for writing
[segment @ 00000011f5fce840] Opening 'C:\Applications\Emby\transcoding-temp\910610700d0446d458755233956dc8f230.ts' for writing
[segment @ 00000011f5fce840] Opening 'C:\Applications\Emby\transcoding-temp\910610700d0446d458755233956dc8f2.m3u8.tmp' for writing
[segment @ 00000011f5fce840] Opening 'C:\Applications\Emby\transcoding-temp\910610700d0446d458755233956dc8f231.ts' for writing
frame= 7976 fps=712 q=-1.0 size=N/A time=00:05:32.63 bitrate=N/A speed=29.7x    
[segment @ 00000011f5fce840] Opening 'C:\Applications\Emby\transcoding-temp\910610700d0446d458755233956dc8f2.m3u8.tmp' for writing
[segment @ 00000011f5fce840] Opening 'C:\Applications\Emby\transcoding-temp\910610700d0446d458755233956dc8f232.ts' for writing
[segment @ 00000011f5fce840] Opening 'C:\Applications\Emby\transcoding-temp\910610700d0446d458755233956dc8f2.m3u8.tmp' for writing
[segment @ 00000011f5fce840] Opening 'C:\Applications\Emby\transcoding-temp\910610700d0446d458755233956dc8f233.ts' for writing
[segment @ 00000011f5fce840] Opening 'C:\Applications\Emby\transcoding-temp\910610700d0446d458755233956dc8f2.m3u8.tmp' for writing
[segment @ 00000011f5fce840] Opening 'C:\Applications\Emby\transcoding-temp\910610700d0446d458755233956dc8f234.ts' for writing
frame= 8303 fps=710 q=-1.0 size=N/A time=00:05:46.42 bitrate=N/A speed=29.6x    
[segment @ 00000011f5fce840] Opening 'C:\Applications\Emby\transcoding-temp\910610700d0446d458755233956dc8f2.m3u8.tmp' for writing
[segment @ 00000011f5fce840] Opening 'C:\Applications\Emby\transcoding-temp\910610700d0446d458755233956dc8f235.ts' for writing
[segment @ 00000011f5fce840] Opening 'C:\Applications\Emby\transcoding-temp\910610700d0446d458755233956dc8f2.m3u8.tmp' for writing
[segment @ 00000011f5fce840] Opening 'C:\Applications\Emby\transcoding-temp\910610700d0446d458755233956dc8f236.ts' for writing
[segment @ 00000011f5fce840] Opening 'C:\Applications\Emby\transcoding-temp\910610700d0446d458755233956dc8f2.m3u8.tmp' for writing
[segment @ 00000011f5fce840] Opening 'C:\Applications\Emby\transcoding-temp\910610700d0446d458755233956dc8f237.ts' for writing
frame= 8692 fps=712 q=-1.0 size=N/A time=00:06:02.65 bitrate=N/A speed=29.7x    
[segment @ 00000011f5fce840] Opening 'C:\Applications\Emby\transcoding-temp\910610700d0446d458755233956dc8f2.m3u8.tmp' for writing
[segment @ 00000011f5fce840] Opening 'C:\Applications\Emby\transcoding-temp\910610700d0446d458755233956dc8f238.ts' for writing
frame= 9047 fps=712 q=-1.0 size=N/A time=00:06:17.36 bitrate=N/A speed=29.7x    
[segment @ 00000011f5fce840] Opening 'C:\Applications\Emby\transcoding-temp\910610700d0446d458755233956dc8f2.m3u8.tmp' for writing
[segment @ 00000011f5fce840] Opening 'C:\Applications\Emby\transcoding-temp\910610700d0446d458755233956dc8f239.ts' for writing
[segment @ 00000011f5fce840] Opening 'C:\Applications\Emby\transcoding-temp\910610700d0446d458755233956dc8f2.m3u8.tmp' for writing
[segment @ 00000011f5fce840] Opening 'C:\Applications\Emby\transcoding-temp\910610700d0446d458755233956dc8f240.ts' for writing
[segment @ 00000011f5fce840] Opening 'C:\Applications\Emby\transcoding-temp\910610700d0446d458755233956dc8f2.m3u8.tmp' for writing
[segment @ 00000011f5fce840] Opening 'C:\Applications\Emby\transcoding-temp\910610700d0446d458755233956dc8f241.ts' for writing
frame= 9437 fps=714 q=-1.0 size=N/A time=00:06:33.62 bitrate=N/A speed=29.8x    
[segment @ 00000011f5fce840] Opening 'C:\Applications\Emby\transcoding-temp\910610700d0446d458755233956dc8f2.m3u8.tmp' for writing
[segment @ 00000011f5fce840] Opening 'C:\Applications\Emby\transcoding-temp\910610700d0446d458755233956dc8f242.ts' for writing
[segment @ 00000011f5fce840] Opening 'C:\Applications\Emby\transcoding-temp\910610700d0446d458755233956dc8f2.m3u8.tmp' for writing
[segment @ 00000011f5fce840] Opening 'C:\Applications\Emby\transcoding-temp\910610700d0446d458755233956dc8f243.ts' for writing
frame= 9806 fps=714 q=-1.0 size=N/A time=00:06:49.17 bitrate=N/A speed=29.8x    
[segment @ 00000011f5fce840] Opening 'C:\Applications\Emby\transcoding-temp\910610700d0446d458755233956dc8f2.m3u8.tmp' for writing
[segment @ 00000011f5fce840] Opening 'C:\Applications\Emby\transcoding-temp\910610700d0446d458755233956dc8f244.ts' for writing
frame=10143 fps=713 q=-1.0 size=N/A time=00:07:03.19 bitrate=N/A speed=29.7x    
[segment @ 00000011f5fce840] Opening 'C:\Applications\Emby\transcoding-temp\910610700d0446d458755233956dc8f2.m3u8.tmp' for writing
[segment @ 00000011f5fce840] Opening 'C:\Applications\Emby\transcoding-temp\910610700d0446d458755233956dc8f245.ts' for writing
[segment @ 00000011f5fce840] Opening 'C:\Applications\Emby\transcoding-temp\910610700d0446d458755233956dc8f2.m3u8.tmp' for writing
[segment @ 00000011f5fce840] Opening 'C:\Applications\Emby\transcoding-temp\910610700d0446d458755233956dc8f246.ts' for writing
frame=10580 fps=718 q=-1.0 size=N/A time=00:07:21.33 bitrate=N/A speed=  30x    
[segment @ 00000011f5fce840] Opening 'C:\Applications\Emby\transcoding-temp\910610700d0446d458755233956dc8f2.m3u8.tmp' for writing
[segment @ 00000011f5fce840] Opening 'C:\Applications\Emby\transcoding-temp\910610700d0446d458755233956dc8f247.ts' for writing
frame=10933 fps=718 q=-1.0 size=N/A time=00:07:36.02 bitrate=N/A speed=29.9x    
[segment @ 00000011f5fce840] Opening 'C:\Applications\Emby\transcoding-temp\910610700d0446d458755233956dc8f2.m3u8.tmp' for writing
[segment @ 00000011f5fce840] Opening 'C:\Applications\Emby\transcoding-temp\910610700d0446d458755233956dc8f248.ts' for writing
frame=11223 fps=714 q=-1.0 size=N/A time=00:07:48.09 bitrate=N/A speed=29.8x    
[segment @ 00000011f5fce840] Opening 'C:\Applications\Emby\transcoding-temp\910610700d0446d458755233956dc8f2.m3u8.tmp' for writing
[segment @ 00000011f5fce840] Opening 'C:\Applications\Emby\transcoding-temp\910610700d0446d458755233956dc8f249.ts' for writing
[segment @ 00000011f5fce840] Opening 'C:\Applications\Emby\transcoding-temp\910610700d0446d458755233956dc8f2.m3u8.tmp' for writing
[segment @ 00000011f5fce840] Opening 'C:\Applications\Emby\transcoding-temp\910610700d0446d458755233956dc8f250.ts' for writing
frame=11552 fps=711 q=-1.0 size=N/A time=00:08:01.85 bitrate=N/A speed=29.7x    
[segment @ 00000011f5fce840] Opening 'C:\Applications\Emby\transcoding-temp\910610700d0446d458755233956dc8f2.m3u8.tmp' for writing
[segment @ 00000011f5fce840] Opening 'C:\Applications\Emby\transcoding-temp\910610700d0446d458755233956dc8f251.ts' for writing
frame=11974 fps=715 q=-1.0 size=N/A time=00:08:19.45 bitrate=N/A speed=29.8x    
[segment @ 00000011f5fce840] Opening 'C:\Applications\Emby\transcoding-temp\910610700d0446d458755233956dc8f2.m3u8.tmp' for writing
[segment @ 00000011f5fce840] Opening 'C:\Applications\Emby\transcoding-temp\910610700d0446d458755233956dc8f252.ts' for writing
[segment @ 00000011f5fce840] Opening 'C:\Applications\Emby\transcoding-temp\910610700d0446d458755233956dc8f2.m3u8.tmp' for writing
[segment @ 00000011f5fce840] Opening 'C:\Applications\Emby\transcoding-temp\910610700d0446d458755233956dc8f253.ts' for writing
frame=12440 fps=721 q=-1.0 size=N/A time=00:08:39.00 bitrate=N/A speed=30.1x    
[segment @ 00000011f5fce840] Opening 'C:\Applications\Emby\transcoding-temp\910610700d0446d458755233956dc8f2.m3u8.tmp' for writing
[segment @ 00000011f5fce840] Opening 'C:\Applications\Emby\transcoding-temp\910610700d0446d458755233956dc8f254.ts' for writing
frame=12713 fps=717 q=-1.0 size=N/A time=00:08:50.26 bitrate=N/A speed=29.9x    
[segment @ 00000011f5fce840] Opening 'C:\Applications\Emby\transcoding-temp\910610700d0446d458755233956dc8f2.m3u8.tmp' for writing
[segment @ 00000011f5fce840] Opening 'C:\Applications\Emby\transcoding-temp\910610700d0446d458755233956dc8f255.ts' for writing
[segment @ 00000011f5fce840] Opening 'C:\Applications\Emby\transcoding-temp\910610700d0446d458755233956dc8f2.m3u8.tmp' for writing
[segment @ 00000011f5fce840] Opening 'C:\Applications\Emby\transcoding-temp\910610700d0446d458755233956dc8f256.ts' for writing
frame=12997 fps=712 q=-1.0 size=N/A time=00:09:02.10 bitrate=N/A speed=29.7x    
[segment @ 00000011f5fce840] Opening 'C:\Applications\Emby\transcoding-temp\910610700d0446d458755233956dc8f2.m3u8.tmp' for writing
[segment @ 00000011f5fce840] Opening 'C:\Applications\Emby\transcoding-temp\910610700d0446d458755233956dc8f257.ts' for writing
frame=13248 fps=707 q=-1.0 size=N/A time=00:09:12.60 bitrate=N/A speed=29.5x    
[segment @ 00000011f5fce840] Opening 'C:\Applications\Emby\transcoding-temp\910610700d0446d458755233956dc8f2.m3u8.tmp' for writing
[segment @ 00000011f5fce840] Opening 'C:\Applications\Emby\transcoding-temp\910610700d0446d458755233956dc8f258.ts' for writing
[segment @ 00000011f5fce840] Opening 'C:\Applications\Emby\transcoding-temp\910610700d0446d458755233956dc8f2.m3u8.tmp' for writing
[segment @ 00000011f5fce840] Opening 'C:\Applications\Emby\transcoding-temp\910610700d0446d458755233956dc8f259.ts' for writing
frame=13595 fps=706 q=-1.0 size=N/A time=00:09:27.09 bitrate=N/A speed=29.4x    
[segment @ 00000011f5fce840] Opening 'C:\Applications\Emby\transcoding-temp\910610700d0446d458755233956dc8f2.m3u8.tmp' for writing
[segment @ 00000011f5fce840] Opening 'C:\Applications\Emby\transcoding-temp\910610700d0446d458755233956dc8f260.ts' for writing
[segment @ 00000011f5fce840] Opening 'C:\Applications\Emby\transcoding-temp\910610700d0446d458755233956dc8f2.m3u8.tmp' for writing
[segment @ 00000011f5fce840] Opening 'C:\Applications\Emby\transcoding-temp\910610700d0446d458755233956dc8f261.ts' for writing
[segment @ 00000011f5fce840] Opening 'C:\Applications\Emby\transcoding-temp\910610700d0446d458755233956dc8f2.m3u8.tmp' for writing
[segment @ 00000011f5fce840] Opening 'C:\Applications\Emby\transcoding-temp\910610700d0446d458755233956dc8f262.ts' for writing
frame=14057 fps=711 q=-1.0 size=N/A time=00:09:46.33 bitrate=N/A speed=29.7x    
[segment @ 00000011f5fce840] Opening 'C:\Applications\Emby\transcoding-temp\910610700d0446d458755233956dc8f2.m3u8.tmp' for writing
[segment @ 00000011f5fce840] Opening 'C:\Applications\Emby\transcoding-temp\910610700d0446d458755233956dc8f263.ts' for writing
[segment @ 00000011f5fce840] Opening 'C:\Applications\Emby\transcoding-temp\910610700d0446d458755233956dc8f2.m3u8.tmp' for writing
[segment @ 00000011f5fce840] Opening 'C:\Applications\Emby\transcoding-temp\910610700d0446d458755233956dc8f264.ts' for writing
frame=14456 fps=713 q=-1.0 size=N/A time=00:10:02.93 bitrate=N/A speed=29.7x    
[segment @ 00000011f5fce840] Opening 'C:\Applications\Emby\transcoding-temp\910610700d0446d458755233956dc8f2.m3u8.tmp' for writing
[segment @ 00000011f5fce840] Opening 'C:\Applications\Emby\transcoding-temp\910610700d0446d458755233956dc8f265.ts' for writing
[segment @ 00000011f5fce840] Opening 'C:\Applications\Emby\transcoding-temp\910610700d0446d458755233956dc8f2.m3u8.tmp' for writing
[segment @ 00000011f5fce840] Opening 'C:\Applications\Emby\transcoding-temp\910610700d0446d458755233956dc8f266.ts' for writing
frame=14732 fps=709 q=-1.0 size=N/A time=00:10:14.45 bitrate=N/A speed=29.6x    
[segment @ 00000011f5fce840] Opening 'C:\Applications\Emby\transcoding-temp\910610700d0446d458755233956dc8f2.m3u8.tmp' for writing
[segment @ 00000011f5fce840] Opening 'C:\Applications\Emby\transcoding-temp\910610700d0446d458755233956dc8f267.ts' for writing
[segment @ 00000011f5fce840] Opening 'C:\Applications\Emby\transcoding-temp\910610700d0446d458755233956dc8f2.m3u8.tmp' for writing
[segment @ 00000011f5fce840] Opening 'C:\Applications\Emby\transcoding-temp\910610700d0446d458755233956dc8f268.ts' for writing
frame=15132 fps=711 q=-1.0 size=N/A time=00:10:31.13 bitrate=N/A speed=29.6x    
[segment @ 00000011f5fce840] Opening 'C:\Applications\Emby\transcoding-temp\910610700d0446d458755233956dc8f2.m3u8.tmp' for writing
[segment @ 00000011f5fce840] Opening 'C:\Applications\Emby\transcoding-temp\910610700d0446d458755233956dc8f269.ts' for writing
frame=15398 fps=706 q=-1.0 size=N/A time=00:10:42.29 bitrate=N/A speed=29.4x    
[segment @ 00000011f5fce840] Opening 'C:\Applications\Emby\transcoding-temp\910610700d0446d458755233956dc8f2.m3u8.tmp' for writing
[segment @ 00000011f5fce840] Opening 'C:\Applications\Emby\transcoding-temp\910610700d0446d458755233956dc8f270.ts' for writing
[segment @ 00000011f5fce840] Opening 'C:\Applications\Emby\transcoding-temp\910610700d0446d458755233956dc8f2.m3u8.tmp' for writing
[segment @ 00000011f5fce840] Opening 'C:\Applications\Emby\transcoding-temp\910610700d0446d458755233956dc8f271.ts' for writing
frame=15696 fps=703 q=-1.0 size=N/A time=00:10:54.71 bitrate=N/A speed=29.3x    
[segment @ 00000011f5fce840] Opening 'C:\Applications\Emby\transcoding-temp\910610700d0446d458755233956dc8f2.m3u8.tmp' for writing
[segment @ 00000011f5fce840] Opening 'C:\Applications\Emby\transcoding-temp\910610700d0446d458755233956dc8f272.ts' for writing
frame=15991 fps=700 q=-1.0 size=N/A time=00:11:07.00 bitrate=N/A speed=29.2x    
[segment @ 00000011f5fce840] Opening 'C:\Applications\Emby\transcoding-temp\910610700d0446d458755233956dc8f2.m3u8.tmp' for writing
[segment @ 00000011f5fce840] Opening 'C:\Applications\Emby\transcoding-temp\910610700d0446d458755233956dc8f273.ts' for writing
frame=16231 fps=696 q=-1.0 size=N/A time=00:11:16.98 bitrate=N/A speed=  29x    
[segment @ 00000011f5fce840] Opening 'C:\Applications\Emby\transcoding-temp\910610700d0446d458755233956dc8f2.m3u8.tmp' for writing
[segment @ 00000011f5fce840] Opening 'C:\Applications\Emby\transcoding-temp\910610700d0446d458755233956dc8f274.ts' for writing
frame=16489 fps=692 q=-1.0 size=N/A time=00:11:27.80 bitrate=N/A speed=28.8x    
[segment @ 00000011f5fce840] Opening 'C:\Applications\Emby\transcoding-temp\910610700d0446d458755233956dc8f2.m3u8.tmp' for writing
[segment @ 00000011f5fce840] Opening 'C:\Applications\Emby\transcoding-temp\910610700d0446d458755233956dc8f275.ts' for writing
frame=16866 fps=692 q=-1.0 size=N/A time=00:11:43.51 bitrate=N/A speed=28.9x    
[segment @ 00000011f5fce840] Opening 'C:\Applications\Emby\transcoding-temp\910610700d0446d458755233956dc8f2.m3u8.tmp' for writing
[segment @ 00000011f5fce840] Opening 'C:\Applications\Emby\transcoding-temp\910610700d0446d458755233956dc8f276.ts' for writing
[segment @ 00000011f5fce840] Opening 'C:\Applications\Emby\transcoding-temp\910610700d0446d458755233956dc8f2.m3u8.tmp' for writing
[segment @ 00000011f5fce840] Opening 'C:\Applications\Emby\transcoding-temp\910610700d0446d458755233956dc8f277.ts' for writing
frame=17189 fps=691 q=-1.0 size=N/A time=00:11:56.95 bitrate=N/A speed=28.8x    
[segment @ 00000011f5fce840] Opening 'C:\Applications\Emby\transcoding-temp\910610700d0446d458755233956dc8f2.m3u8.tmp' for writing
[segment @ 00000011f5fce840] Opening 'C:\Applications\Emby\transcoding-temp\910610700d0446d458755233956dc8f278.ts' for writing
frame=17597 fps=693 q=-1.0 size=N/A time=00:12:13.94 bitrate=N/A speed=28.9x    
[segment @ 00000011f5fce840] Opening 'C:\Applications\Emby\transcoding-temp\910610700d0446d458755233956dc8f2.m3u8.tmp' for writing
[segment @ 00000011f5fce840] Opening 'C:\Applications\Emby\transcoding-temp\910610700d0446d458755233956dc8f279.ts' for writing
[segment @ 00000011f5fce840] Opening 'C:\Applications\Emby\transcoding-temp\910610700d0446d458755233956dc8f2.m3u8.tmp' for writing
[segment @ 00000011f5fce840] Opening 'C:\Applications\Emby\transcoding-temp\910610700d0446d458755233956dc8f280.ts' for writing
frame=18054 fps=697 q=-1.0 size=N/A time=00:12:33.01 bitrate=N/A speed=29.1x    
[segment @ 00000011f5fce840] Opening 'C:\Applications\Emby\transcoding-temp\910610700d0446d458755233956dc8f2.m3u8.tmp' for writing
[segment @ 00000011f5fce840] Opening 'C:\Applications\Emby\transcoding-temp\910610700d0446d458755233956dc8f281.ts' for writing
[segment @ 00000011f5fce840] Opening 'C:\Applications\Emby\transcoding-temp\910610700d0446d458755233956dc8f2.m3u8.tmp' for writing
[segment @ 00000011f5fce840] Opening 'C:\Applications\Emby\transcoding-temp\910610700d0446d458755233956dc8f282.ts' for writing
frame=18527 fps=702 q=-1.0 size=N/A time=00:12:52.79 bitrate=N/A speed=29.3x    
[segment @ 00000011f5fce840] Opening 'C:\Applications\Emby\transcoding-temp\910610700d0446d458755233956dc8f2.m3u8.tmp' for writing
[segment @ 00000011f5fce840] Opening 'C:\Applications\Emby\transcoding-temp\910610700d0446d458755233956dc8f283.ts' for writing
[segment @ 00000011f5fce840] Opening 'C:\Applications\Emby\transcoding-temp\910610700d0446d458755233956dc8f2.m3u8.tmp' for writing
[segment @ 00000011f5fce840] Opening 'C:\Applications\Emby\transcoding-temp\910610700d0446d458755233956dc8f284.ts' for writing
frame=19086 fps=709 q=-1.0 size=N/A time=00:13:16.15 bitrate=N/A speed=29.6x    
[segment @ 00000011f5fce840] Opening 'C:\Applications\Emby\transcoding-temp\910610700d0446d458755233956dc8f2.m3u8.tmp' for writing
[segment @ 00000011f5fce840] Opening 'C:\Applications\Emby\transcoding-temp\910610700d0446d458755233956dc8f285.ts' for writing
[segment @ 00000011f5fce840] Opening 'C:\Applications\Emby\transcoding-temp\910610700d0446d458755233956dc8f2.m3u8.tmp' for writing
[segment @ 00000011f5fce840] Opening 'C:\Applications\Emby\transcoding-temp\910610700d0446d458755233956dc8f286.ts' for writing
[segment @ 00000011f5fce840] Opening 'C:\Applications\Emby\transcoding-temp\910610700d0446d458755233956dc8f2.m3u8.tmp' for writing
[segment @ 00000011f5fce840] Opening 'C:\Applications\Emby\transcoding-temp\910610700d0446d458755233956dc8f287.ts' for writing
[segment @ 00000011f5fce840] Opening 'C:\Applications\Emby\transcoding-temp\910610700d0446d458755233956dc8f2.m3u8.tmp' for writing
[segment @ 00000011f5fce840] Opening 'C:\Applications\Emby\transcoding-temp\910610700d0446d458755233956dc8f288.ts' for writing
frame=19717 fps=719 q=-1.0 size=N/A time=00:13:42.42 bitrate=N/A speed=  30x    
[segment @ 00000011f5fce840] Opening 'C:\Applications\Emby\transcoding-temp\910610700d0446d458755233956dc8f2.m3u8.tmp' for writing
[segment @ 00000011f5fce840] Opening 'C:\Applications\Emby\transcoding-temp\910610700d0446d458755233956dc8f289.ts' for writing
[segment @ 00000011f5fce840] Opening 'C:\Applications\Emby\transcoding-temp\910610700d0446d458755233956dc8f2.m3u8.tmp' for writing
[segment @ 00000011f5fce840] Opening 'C:\Applications\Emby\transcoding-temp\910610700d0446d458755233956dc8f290.ts' for writing
frame=20291 fps=727 q=-1.0 size=N/A time=00:14:06.42 bitrate=N/A speed=30.3x    
[segment @ 00000011f5fce840] Opening 'C:\Applications\Emby\transcoding-temp\910610700d0446d458755233956dc8f2.m3u8.tmp' for writing
[segment @ 00000011f5fce840] Opening 'C:\Applications\Emby\transcoding-temp\910610700d0446d458755233956dc8f291.ts' for writing
frame=20566 fps=723 q=-1.0 size=N/A time=00:14:17.94 bitrate=N/A speed=30.2x    
[segment @ 00000011f5fce840] Opening 'C:\Applications\Emby\transcoding-temp\910610700d0446d458755233956dc8f2.m3u8.tmp' for writing
[segment @ 00000011f5fce840] Opening 'C:\Applications\Emby\transcoding-temp\910610700d0446d458755233956dc8f292.ts' for writing
frame=20815 fps=719 q=-1.0 size=N/A time=00:14:28.34 bitrate=N/A speed=  30x    
[segment @ 00000011f5fce840] Opening 'C:\Applications\Emby\transcoding-temp\910610700d0446d458755233956dc8f2.m3u8.tmp' for writing
[segment @ 00000011f5fce840] Opening 'C:\Applications\Emby\transcoding-temp\910610700d0446d458755233956dc8f293.ts' for writing
frame=21088 fps=716 q=-1.0 size=N/A time=00:14:39.51 bitrate=N/A speed=29.9x    
[segment @ 00000011f5fce840] Opening 'C:\Applications\Emby\transcoding-temp\910610700d0446d458755233956dc8f2.m3u8.tmp' for writing
[segment @ 00000011f5fce840] Opening 'C:\Applications\Emby\transcoding-temp\910610700d0446d458755233956dc8f294.ts' for writing
frame=21371 fps=713 q=-1.0 size=N/A time=00:14:51.35 bitrate=N/A speed=29.7x    
[segment @ 00000011f5fce840] Opening 'C:\Applications\Emby\transcoding-temp\910610700d0446d458755233956dc8f2.m3u8.tmp' for writing
[segment @ 00000011f5fce840] Opening 'C:\Applications\Emby\transcoding-temp\910610700d0446d458755233956dc8f295.ts' for writing
[segment @ 00000011f5fce840] Opening 'C:\Applications\Emby\transcoding-temp\910610700d0446d458755233956dc8f2.m3u8.tmp' for writing
[segment @ 00000011f5fce840] Opening 'C:\Applications\Emby\transcoding-temp\910610700d0446d458755233956dc8f296.ts' for writing
frame=21705 fps=713 q=-1.0 size=N/A time=00:15:05.33 bitrate=N/A speed=29.7x    
[segment @ 00000011f5fce840] Opening 'C:\Applications\Emby\transcoding-temp\910610700d0446d458755233956dc8f2.m3u8.tmp' for writing
[segment @ 00000011f5fce840] Opening 'C:\Applications\Emby\transcoding-temp\910610700d0446d458755233956dc8f297.ts' for writing
frame=21975 fps=710 q=-1.0 size=N/A time=00:15:16.69 bitrate=N/A speed=29.6x    
[segment @ 00000011f5fce840] Opening 'C:\Applications\Emby\transcoding-temp\910610700d0446d458755233956dc8f2.m3u8.tmp' for writing
[segment @ 00000011f5fce840] Opening 'C:\Applications\Emby\transcoding-temp\910610700d0446d458755233956dc8f298.ts' for writing
frame=22249 fps=707 q=-1.0 size=N/A time=00:15:27.93 bitrate=N/A speed=29.5x    
[segment @ 00000011f5fce840] Opening 'C:\Applications\Emby\transcoding-temp\910610700d0446d458755233956dc8f2.m3u8.tmp' for writing
[segment @ 00000011f5fce840] Opening 'C:\Applications\Emby\transcoding-temp\910610700d0446d458755233956dc8f299.ts' for writing
frame=22480 fps=703 q=-1.0 size=N/A time=00:15:37.59 bitrate=N/A speed=29.3x    
[segment @ 00000011f5fce840] Opening 'C:\Applications\Emby\transcoding-temp\910610700d0446d458755233956dc8f2.m3u8.tmp' for writing
[segment @ 00000011f5fce840] Opening 'C:\Applications\Emby\transcoding-temp\910610700d0446d458755233956dc8f2100.ts' for writing
frame=22687 fps=699 q=-1.0 size=N/A time=00:15:46.23 bitrate=N/A speed=29.1x    
[segment @ 00000011f5fce840] Opening 'C:\Applications\Emby\transcoding-temp\910610700d0446d458755233956dc8f2.m3u8.tmp' for writing
[segment @ 00000011f5fce840] Opening 'C:\Applications\Emby\transcoding-temp\910610700d0446d458755233956dc8f2101.ts' for writing
frame=22967 fps=696 q=-1.0 size=N/A time=00:15:57.94 bitrate=N/A speed=  29x    
[segment @ 00000011f5fce840] Opening 'C:\Applications\Emby\transcoding-temp\910610700d0446d458755233956dc8f2.m3u8.tmp' for writing
[segment @ 00000011f5fce840] Opening 'C:\Applications\Emby\transcoding-temp\910610700d0446d458755233956dc8f2102.ts' for writing
frame=23348 fps=697 q=-1.0 size=N/A time=00:16:13.88 bitrate=N/A speed=29.1x    
[segment @ 00000011f5fce840] Opening 'C:\Applications\Emby\transcoding-temp\910610700d0446d458755233956dc8f2.m3u8.tmp' for writing
[segment @ 00000011f5fce840] Opening 'C:\Applications\Emby\transcoding-temp\910610700d0446d458755233956dc8f2103.ts' for writing
[segment @ 00000011f5fce840] Opening 'C:\Applications\Emby\transcoding-temp\910610700d0446d458755233956dc8f2.m3u8.tmp' for writing
[segment @ 00000011f5fce840] Opening 'C:\Applications\Emby\transcoding-temp\910610700d0446d458755233956dc8f2104.ts' for writing
frame=23711 fps=697 q=-1.0 size=N/A time=00:16:28.92 bitrate=N/A speed=29.1x    
[segment @ 00000011f5fce840] Opening 'C:\Applications\Emby\transcoding-temp\910610700d0446d458755233956dc8f2.m3u8.tmp' for writing
[segment @ 00000011f5fce840] Opening 'C:\Applications\Emby\transcoding-temp\910610700d0446d458755233956dc8f2105.ts' for writing
frame=24116 fps=699 q=-1.0 size=N/A time=00:16:45.85 bitrate=N/A speed=29.1x    
[segment @ 00000011f5fce840] Opening 'C:\Applications\Emby\transcoding-temp\910610700d0446d458755233956dc8f2.m3u8.tmp' for writing
[segment @ 00000011f5fce840] Opening 'C:\Applications\Emby\transcoding-temp\910610700d0446d458755233956dc8f2106.ts' for writing
[segment @ 00000011f5fce840] Opening 'C:\Applications\Emby\transcoding-temp\910610700d0446d458755233956dc8f2.m3u8.tmp' for writing
[segment @ 00000011f5fce840] Opening 'C:\Applications\Emby\transcoding-temp\910610700d0446d458755233956dc8f2107.ts' for writing
frame=24558 fps=701 q=-1.0 size=N/A time=00:17:04.21 bitrate=N/A speed=29.2x    
[segment @ 00000011f5fce840] Opening 'C:\Applications\Emby\transcoding-temp\910610700d0446d458755233956dc8f2.m3u8.tmp' for writing
[segment @ 00000011f5fce840] Opening 'C:\Applications\Emby\transcoding-temp\910610700d0446d458755233956dc8f2108.ts' for writing
[segment @ 00000011f5fce840] Opening 'C:\Applications\Emby\transcoding-temp\910610700d0446d458755233956dc8f2.m3u8.tmp' for writing
[segment @ 00000011f5fce840] Opening 'C:\Applications\Emby\transcoding-temp\910610700d0446d458755233956dc8f2109.ts' for writing
frame=24960 fps=703 q=-1.0 size=N/A time=00:17:21.05 bitrate=N/A speed=29.3x    
[segment @ 00000011f5fce840] Opening 'C:\Applications\Emby\transcoding-temp\910610700d0446d458755233956dc8f2.m3u8.tmp' for writing
[segment @ 00000011f5fce840] Opening 'C:\Applications\Emby\transcoding-temp\910610700d0446d458755233956dc8f2110.ts' for writing
frame=25351 fps=704 q=-1.0 size=N/A time=00:17:37.40 bitrate=N/A speed=29.4x    
[segment @ 00000011f5fce840] Opening 'C:\Applications\Emby\transcoding-temp\910610700d0446d458755233956dc8f2.m3u8.tmp' for writing
[segment @ 00000011f5fce840] Opening 'C:\Applications\Emby\transcoding-temp\910610700d0446d458755233956dc8f2111.ts' for writing
frame=25623 fps=701 q=-1.0 size=N/A time=00:17:48.72 bitrate=N/A speed=29.2x    
[segment @ 00000011f5fce840] Opening 'C:\Applications\Emby\transcoding-temp\910610700d0446d458755233956dc8f2.m3u8.tmp' for writing
[segment @ 00000011f5fce840] Opening 'C:\Applications\Emby\transcoding-temp\910610700d0446d458755233956dc8f2112.ts' for writing
[segment @ 00000011f5fce840] Opening 'C:\Applications\Emby\transcoding-temp\910610700d0446d458755233956dc8f2.m3u8.tmp' for writing
[segment @ 00000011f5fce840] Opening 'C:\Applications\Emby\transcoding-temp\910610700d0446d458755233956dc8f2113.ts' for writing
frame=25895 fps=699 q=-1.0 size=N/A time=00:18:00.12 bitrate=N/A speed=29.2x    
[segment @ 00000011f5fce840] Opening 'C:\Applications\Emby\transcoding-temp\910610700d0446d458755233956dc8f2.m3u8.tmp' for writing
[segment @ 00000011f5fce840] Opening 'C:\Applications\Emby\transcoding-temp\910610700d0446d458755233956dc8f2114.ts' for writing
[segment @ 00000011f5fce840] Opening 'C:\Applications\Emby\transcoding-temp\910610700d0446d458755233956dc8f2.m3u8.tmp' for writing
[segment @ 00000011f5fce840] Opening 'C:\Applications\Emby\transcoding-temp\910610700d0446d458755233956dc8f2115.ts' for writing
frame=26155 fps=697 q=-1.0 size=N/A time=00:18:11.00 bitrate=N/A speed=29.1x    
[segment @ 00000011f5fce840] Opening 'C:\Applications\Emby\transcoding-temp\910610700d0446d458755233956dc8f2.m3u8.tmp' for writing
[segment @ 00000011f5fce840] Opening 'C:\Applications\Emby\transcoding-temp\910610700d0446d458755233956dc8f2116.ts' for writing
[segment @ 00000011f5fce840] Opening 'C:\Applications\Emby\transcoding-temp\910610700d0446d458755233956dc8f2.m3u8.tmp' for writing
[segment @ 00000011f5fce840] Opening 'C:\Applications\Emby\transcoding-temp\910610700d0446d458755233956dc8f2117.ts' for writing
frame=26486 fps=696 q=-1.0 size=N/A time=00:18:24.85 bitrate=N/A speed=  29x    
[segment @ 00000011f5fce840] Opening 'C:\Applications\Emby\transcoding-temp\910610700d0446d458755233956dc8f2.m3u8.tmp' for writing
[segment @ 00000011f5fce840] Opening 'C:\Applications\Emby\transcoding-temp\910610700d0446d458755233956dc8f2118.ts' for writing
frame=26932 fps=698 q=-1.0 size=N/A time=00:18:43.41 bitrate=N/A speed=29.1x    
[segment @ 00000011f5fce840] Opening 'C:\Applications\Emby\transcoding-temp\910610700d0446d458755233956dc8f2.m3u8.tmp' for writing
[segment @ 00000011f5fce840] Opening 'C:\Applications\Emby\transcoding-temp\910610700d0446d458755233956dc8f2119.ts' for writing
[segment @ 00000011f5fce840] Opening 'C:\Applications\Emby\transcoding-temp\910610700d0446d458755233956dc8f2.m3u8.tmp' for writing
[segment @ 00000011f5fce840] Opening 'C:\Applications\Emby\transcoding-temp\910610700d0446d458755233956dc8f2120.ts' for writing
frame=27429 fps=702 q=-1.0 size=N/A time=00:19:03.99 bitrate=N/A speed=29.3x    
[segment @ 00000011f5fce840] Opening 'C:\Applications\Emby\transcoding-temp\910610700d0446d458755233956dc8f2.m3u8.tmp' for writing
[segment @ 00000011f5fce840] Opening 'C:\Applications\Emby\transcoding-temp\910610700d0446d458755233956dc8f2121.ts' for writing
[segment @ 00000011f5fce840] Opening 'C:\Applications\Emby\transcoding-temp\910610700d0446d458755233956dc8f2.m3u8.tmp' for writing
[segment @ 00000011f5fce840] Opening 'C:\Applications\Emby\transcoding-temp\910610700d0446d458755233956dc8f2122.ts' for writing
[segment @ 00000011f5fce840] Opening 'C:\Applications\Emby\transcoding-temp\910610700d0446d458755233956dc8f2.m3u8.tmp' for writing
[segment @ 00000011f5fce840] Opening 'C:\Applications\Emby\transcoding-temp\910610700d0446d458755233956dc8f2123.ts' for writing
frame=27777 fps=702 q=-1.0 size=N/A time=00:19:18.64 bitrate=N/A speed=29.3x    
[segment @ 00000011f5fce840] Opening 'C:\Applications\Emby\transcoding-temp\910610700d0446d458755233956dc8f2.m3u8.tmp' for writing
[segment @ 00000011f5fce840] Opening 'C:\Applications\Emby\transcoding-temp\910610700d0446d458755233956dc8f2124.ts' for writing
frame=28060 fps=700 q=-1.0 size=N/A time=00:19:30.33 bitrate=N/A speed=29.2x    
[segment @ 00000011f5fce840] Opening 'C:\Applications\Emby\transcoding-temp\910610700d0446d458755233956dc8f2.m3u8.tmp' for writing
[segment @ 00000011f5fce840] Opening 'C:\Applications\Emby\transcoding-temp\910610700d0446d458755233956dc8f2125.ts' for writing
frame=28293 fps=697 q=-1.0 size=N/A time=00:19:40.05 bitrate=N/A speed=29.1x    
[segment @ 00000011f5fce840] Opening 'C:\Applications\Emby\transcoding-temp\910610700d0446d458755233956dc8f2.m3u8.tmp' for writing
[segment @ 00000011f5fce840] Opening 'C:\Applications\Emby\transcoding-temp\910610700d0446d458755233956dc8f2126.ts' for writing
frame=28638 fps=697 q=-1.0 size=N/A time=00:19:54.55 bitrate=N/A speed=29.1x    
[segment @ 00000011f5fce840] Opening 'C:\Applications\Emby\transcoding-temp\910610700d0446d458755233956dc8f2.m3u8.tmp' for writing
[segment @ 00000011f5fce840] Opening 'C:\Applications\Emby\transcoding-temp\910610700d0446d458755233956dc8f2127.ts' for writing
[segment @ 00000011f5fce840] Opening 'C:\Applications\Emby\transcoding-temp\910610700d0446d458755233956dc8f2.m3u8.tmp' for writing
[segment @ 00000011f5fce840] Opening 'C:\Applications\Emby\transcoding-temp\910610700d0446d458755233956dc8f2128.ts' for writing
frame=29033 fps=698 q=-1.0 size=N/A time=00:20:11.06 bitrate=N/A speed=29.1x    
[segment @ 00000011f5fce840] Opening 'C:\Applications\Emby\transcoding-temp\910610700d0446d458755233956dc8f2.m3u8.tmp' for writing
[segment @ 00000011f5fce840] Opening 'C:\Applications\Emby\transcoding-temp\910610700d0446d458755233956dc8f2129.ts' for writing
frame=29297 fps=696 q=-1.0 size=N/A time=00:20:21.91 bitrate=N/A speed=  29x    
[segment @ 00000011f5fce840] Opening 'C:\Applications\Emby\transcoding-temp\910610700d0446d458755233956dc8f2.m3u8.tmp' for writing
[segment @ 00000011f5fce840] Opening 'C:\Applications\Emby\transcoding-temp\910610700d0446d458755233956dc8f2130.ts' for writing
frame=29683 fps=696 q=-1.0 size=N/A time=00:20:37.97 bitrate=N/A speed=  29x    
[segment @ 00000011f5fce840] Opening 'C:\Applications\Emby\transcoding-temp\910610700d0446d458755233956dc8f2.m3u8.tmp' for writing
[segment @ 00000011f5fce840] Opening 'C:\Applications\Emby\transcoding-temp\910610700d0446d458755233956dc8f2131.ts' for writing
[segment @ 00000011f5fce840] Opening 'C:\Applications\Emby\transcoding-temp\910610700d0446d458755233956dc8f2.m3u8.tmp' for writing
[segment @ 00000011f5fce840] Opening 'C:\Applications\Emby\transcoding-temp\910610700d0446d458755233956dc8f2132.ts' for writing
frame=30067 fps=697 q=-1.0 size=N/A time=00:20:54.07 bitrate=N/A speed=29.1x    
[segment @ 00000011f5fce840] Opening 'C:\Applications\Emby\transcoding-temp\910610700d0446d458755233956dc8f2.m3u8.tmp' for writing
[segment @ 00000011f5fce840] Opening 'C:\Applications\Emby\transcoding-temp\910610700d0446d458755233956dc8f2133.ts' for writing
frame=30348 fps=696 q=-1.0 size=N/A time=00:21:05.81 bitrate=N/A speed=  29x    
[segment @ 00000011f5fce840] Opening 'C:\Applications\Emby\transcoding-temp\910610700d0446d458755233956dc8f2.m3u8.tmp' for writing
[segment @ 00000011f5fce840] Opening 'C:\Applications\Emby\transcoding-temp\910610700d0446d458755233956dc8f2134.ts' for writing
frame=30732 fps=696 q=-1.0 size=N/A time=00:21:21.91 bitrate=N/A speed=  29x    
[segment @ 00000011f5fce840] Opening 'C:\Applications\Emby\transcoding-temp\910610700d0446d458755233956dc8f2.m3u8.tmp' for writing
[segment @ 00000011f5fce840] Opening 'C:\Applications\Emby\transcoding-temp\910610700d0446d458755233956dc8f2135.ts' for writing
[segment @ 00000011f5fce840] Opening 'C:\Applications\Emby\transcoding-temp\910610700d0446d458755233956dc8f2.m3u8.tmp' for writing
[segment @ 00000011f5fce840] Opening 'C:\Applications\Emby\transcoding-temp\910610700d0446d458755233956dc8f2136.ts' for writing
frame=30999 fps=694 q=-1.0 size=N/A time=00:21:32.85 bitrate=N/A speed=28.9x    
[segment @ 00000011f5fce840] Opening 'C:\Applications\Emby\transcoding-temp\910610700d0446d458755233956dc8f2.m3u8.tmp' for writing
[segment @ 00000011f5fce840] Opening 'C:\Applications\Emby\transcoding-temp\910610700d0446d458755233956dc8f2137.ts' for writing
frame=31248 fps=692 q=-1.0 size=N/A time=00:21:43.25 bitrate=N/A speed=28.9x    
[segment @ 00000011f5fce840] Opening 'C:\Applications\Emby\transcoding-temp\910610700d0446d458755233956dc8f2.m3u8.tmp' for writing
[segment @ 00000011f5fce840] Opening 'C:\Applications\Emby\transcoding-temp\910610700d0446d458755233956dc8f2138.ts' for writing
frame=31533 fps=690 q=-1.0 size=N/A time=00:21:55.29 bitrate=N/A speed=28.8x    
[segment @ 00000011f5fce840] Opening 'C:\Applications\Emby\transcoding-temp\910610700d0446d458755233956dc8f2.m3u8.tmp' for writing
[segment @ 00000011f5fce840] Opening 'C:\Applications\Emby\transcoding-temp\910610700d0446d458755233956dc8f2139.ts' for writing
frame=31818 fps=689 q=-1.0 size=N/A time=00:22:07.16 bitrate=N/A speed=28.7x    
[segment @ 00000011f5fce840] Opening 'C:\Applications\Emby\transcoding-temp\910610700d0446d458755233956dc8f2.m3u8.tmp' for writing
[segment @ 00000011f5fce840] Opening 'C:\Applications\Emby\transcoding-temp\910610700d0446d458755233956dc8f2140.ts' for writing
frame=32223 fps=690 q=-1.0 size=N/A time=00:22:23.99 bitrate=N/A speed=28.8x    
[segment @ 00000011f5fce840] Opening 'C:\Applications\Emby\transcoding-temp\910610700d0446d458755233956dc8f2.m3u8.tmp' for writing
[segment @ 00000011f5fce840] Opening 'C:\Applications\Emby\transcoding-temp\910610700d0446d458755233956dc8f2141.ts' for writing
[segment @ 00000011f5fce840] Opening 'C:\Applications\Emby\transcoding-temp\910610700d0446d458755233956dc8f2.m3u8.tmp' for writing
[segment @ 00000011f5fce840] Opening 'C:\Applications\Emby\transcoding-temp\910610700d0446d458755233956dc8f2142.ts' for writing
frame=32738 fps=693 q=-1.0 size=N/A time=00:22:45.43 bitrate=N/A speed=28.9x    
[segment @ 00000011f5fce840] Opening 'C:\Applications\Emby\transcoding-temp\910610700d0446d458755233956dc8f2.m3u8.tmp' for writing
[segment @ 00000011f5fce840] Opening 'C:\Applications\Emby\transcoding-temp\910610700d0446d458755233956dc8f2143.ts' for writing
[segment @ 00000011f5fce840] Opening 'C:\Applications\Emby\transcoding-temp\910610700d0446d458755233956dc8f2.m3u8.tmp' for writing
[segment @ 00000011f5fce840] Opening 'C:\Applications\Emby\transcoding-temp\910610700d0446d458755233956dc8f2144.ts' for writing
[segment @ 00000011f5fce840] Opening 'C:\Applications\Emby\transcoding-temp\910610700d0446d458755233956dc8f2.m3u8.tmp' for writing
[segment @ 00000011f5fce840] Opening 'C:\Applications\Emby\transcoding-temp\910610700d0446d458755233956dc8f2145.ts' for writing

Share this post


Link to post
Share on other sites
Quiptix

Kipperdawn,

 

Have you tried disabling the 3 options.

If I enable videotranscoding and audiotranscoding it transcodes to a TS which some LG's (mine including) cannot always handle very well (seems 50/50 at this moment). If I disable transcoding and allow media to be streamed even when transcoding is needed (according to Emby) the LG plays it fine. I have watched a 4K, HDR movie with included sub's this way, without any problems. Bitrates around 40Mbps, but somehow when transcoded (into TS) it doesn't always work fine. It also depends on the media I discovered. There isn't a one-size-fits-all at this moment (with these versions of the server and app).

 

I'm convinced that they will get it right, for now I need to twiddle with settings

 

Vincent

Share this post


Link to post
Share on other sites
Kipperdawn

Thx Quiptix, i will give it a shot.... I am not at the tv at the moment, but assuming i can turn off /control transcoding as you suggested via the app settings.

Share this post


Link to post
Share on other sites
Quiptix

Thx Quiptix, i will give it a shot.... I am not at the tv at the moment, but assuming i can turn off /control transcoding as you suggested via the app settings.

 

No, not in the app. That is not (yet) implemented. You need to do this in the user management on the server.

Share this post


Link to post
Share on other sites
medric

Kipperdawn,

 

Have you tried disabling the 3 options.

If I enable videotranscoding and audiotranscoding it transcodes to a TS which some LG's (mine including) cannot always handle very well (seems 50/50 at this moment). If I disable transcoding and allow media to be streamed even when transcoding is needed (according to Emby) the LG plays it fine. I have watched a 4K, HDR movie with included sub's this way, without any problems. Bitrates around 40Mbps, but somehow when transcoded (into TS) it doesn't always work fine. It also depends on the media I discovered. There isn't a one-size-fits-all at this moment (with these versions of the server and app).

 

I'm convinced that they will get it right, for now I need to twiddle with settings

 

Vincent

 

 

I just got a new LG web0s 3.0 tv and would love to know how to disable transcoding? 

 

also i have a sound vizio soundbar connected through optical port so if its audio i pass it through to my sound bar. what can we do to fix this issue with the profile in allow more direct play?

Edited by medric

Share this post


Link to post
Share on other sites
medric

does anyone know how to edit the profile to not stream and do direct play cause this stream sucks and it just freezes and is useless and forces me to have to use my old windows media center app as my go too which i think we can do better than that

Share this post


Link to post
Share on other sites
Luke

does anyone know how to edit the profile to not stream and do direct play cause this stream sucks and it just freezes and is useless and forces me to have to use my old windows media center app as my go too which i think we can do better than that

 

hi there @@medric, have you explored user permissions? you can learn more in our wiki:

 

https://github.com/MediaBrowser/Wiki/wiki/Users

 

Let us know if this helps. Thanks !

Share this post


Link to post
Share on other sites
medric

hi there @@medric, have you explored user permissions? you can learn more in our wiki:

 

https://github.com/MediaBrowser/Wiki/wiki/Users

 

Let us know if this helps. Thanks !

 

hi yes i have and that does not work it still transcode the video all videos it does not matter what extensions i have given up until i get feedback about the state of directplay i am using the lg screenplay app it works better it has issue with collections not showing up and subtitles but it plays the video naively no issues. so please let me know when emby can directplay without transcoding 

Share this post


Link to post
Share on other sites
Luke

@@medric, you can force it to direct play by removing all permissions for transcoding and converting. Other users here have been doing that. have you tried that? Thanks !

Share this post


Link to post
Share on other sites
andyblac644

@@medric, you can force it to direct play by removing all permissions for transcoding and converting. Other users here have been doing that. have you tried that? Thanks !

 

i have does not work in my LG 55EF950V, thats why i had to buy a AppleTV.

Share this post


Link to post
Share on other sites
Luke

What does "does not work" mean exactly?

Share this post


Link to post
Share on other sites
andyblac644

What does "does not work" mean exactly?

 

4k does not play with transcoding disabled for user. i just get blank screen

Share this post


Link to post
Share on other sites
whyteknt

I was experiencing some stuttering on some movie files (not all, but most) when using the LG Emby ap.  I did find a comment on another forum about turning off the LG cookies setting on my LG OLED TV.  Found the setting, and bingo!  eliminated all my stuttering.   Thought I would share.  Originally found the clue on Toms Guide    http://www.tomsguide.com/forum/newresponse/3562695

 

So far I'm LOVING the LG Emby ap.  Great quality pic and sound.  I was previously running Emby through WMC to my TV.   Much slicker interface through the LG app.

 

very much appreciate Emby providing that app for the LG tvs.

 

Share this post


Link to post
Share on other sites

Create an account or sign in to comment

You need to be a member in order to leave a comment

Create an account

Sign up for a new account in our community. It's easy!

Register a new account

Sign in

Already have an account? Sign in here.

Sign In Now

×
×
  • Create New...