Jump to content

Search the Community

Showing results for tags '3.0.6400.0'.

  • Search By Tags

    Type tags separated by commas.
  • Search By Author

Content Type


Forums

  • General
    • Announcements
    • Emby Premiere Purchase/Subscription Support
    • Feature Requests
    • Tutorials and Guides
  • Emby Server
    • General/Windows
    • Android Server
    • Asustor
    • FreeBSD
    • Linux
    • NetGear ReadyNAS
    • MacOS
    • QNAP
    • Synology
    • TerraMaster NAS
    • Thecus
    • Western Digital
    • DLNA
    • Live TV
  • Emby Apps
    • Amazon Alexa
    • Android Mobile
    • Android TV / Fire TV
    • Emby Theater
    • iOS
    • Apple TV
    • Kodi
    • Raspberry Pi
    • Roku
    • Samsung Smart TV
    • Sony PlayStation
    • LG Smart TV
    • Web App
    • Windows Media Center
    • Plugins
  • Language-specific support
    • Arabic
    • Dutch
    • French
    • German
    • Italian
    • Portuguese
    • Russian
    • Spanish
    • Swedish
  • Community Contributions
    • Ember for Emby
    • Fan Art & Videos
    • Tools and Utilities
    • Web App CSS
  • Other
    • General Discussion
    • Developer API
    • Hardware
    • Media Clubs
    • Legacy Support

Blogs

  • Emby Blog

Find results in...

Find results that contain...


Date Created

  • Start

    End


Last Updated

  • Start

    End


Filter by number of...

Found 1 result

  1. I am on Emby Server 3.0.6400.0. Upgraded today and this problem existed before the upgrade. I upgraded thinking it might have been related, but I guess not. Essentially, during playback the video pauses itself every 10 - 20 seconds. It's not just a freeze. If I look at the video status it is truly paused. Then it plays itself again. I have tried wireless and over Ethernet. Same result. I don't notice any difference between playback client (AndroidTV via Nexus Player / Nvidia Shield, Android, or PC Browser) I have included the logs but i'm not seeing anything very telling. Please let me know if there is anything else I can pull to investigate. I have included several logs. The only error I'm identifying regularly is pasted below. Parse error, at least 3 arguments were expected, only -1 given in string ''frame= 1872 fps= 11 q=21.0 size= 76759kB time=01:19:00.97 bitrate= 132.6kbits/s speed=27.9x frame= 1872 fps=8.1 q=-1.0 Lsize= 77770kB time=01:19:01.01 bitrate= 134.4kbits/s speed=20.5x video:74608kB audio:3085kB subtitle:0kB other streams:0kB global headers:0kB muxing overhead: 0.099379%[libx264 @ 0x43d72e0] frame I:955 Avg QP:17.45 size: 62770[libx264 @ 0x43d72e0] frame P:372 Avg QP:14.28 size: 31913[libx264 @ 0x43d72e0] frame B:545 Avg QP:16.86 size: 8404[libx264 @ 0x43d72e0] consecutive B-frames: 54.0% 19.1% 7.7% 19.2%[libx264 @ 0x43d72e0] mb I I16..4: 48.7% 39.8% 11.5%[libx264 @ 0x43d72e0] mb P I16..4: 12.7% 9.8% 1.1% P16..4: 37.6% 0.0% 0.0% 0.0% 0.0% skip:38.9%[libx264 @ 0x43d72e0] mb B I16..4: 2.4% 1.2% 0.1% B16..8: 18.4% 0.0% 0.0% direct: 8.8% skip:69.2% L0:39.4% L1:50.8% BI: 9.8%[libx264 @ 0x43d72e0] 8x8 transform intra:39.8% inter:66.6%[libx264 @ 0x43d72e0] coded y,uvDC,uvAC intra: 51.7% 47.5% 24.5% inter: 7.4% 12.1% 0.3%[libx264 @ 0x43d72e0] i16 v,h,dc,p: 63% 15% 14% 8%[libx264 @ 0x43d72e0] i8 v,h,dc,ddl,ddr,vr,hd,vl,hu: 24% 18% 21% 6% 5% 7% 5% 7% 6%[libx264 @ 0x43d72e0] i4 v,h,dc,ddl,ddr,vr,hd,vl,hu: 30% 20% 9% 7% 6% 7% 6% 7% 6%[libx264 @ 0x43d72e0] i8c dc,h,v,p: 58% 18% 19% 5%[libx264 @ 0x43d72e0] Weighted P-Frames: Y:0.0% UV:0.0%[libx264 @ 0x43d72e0] kb/s:7827.81[aac @ 0x46ecc40] Qavg: 378.515 Parse error, at least 3 arguments were expected, only -1 given in string ''frame= 1872 fps= 11 q=21.0 size= 76759kB time=01:19:00.97 bitrate= 132.6kbits/s speed=27.9x frame= 1872 fps=8.1 q=-1.0 Lsize= 77770kB time=01:19:01.01 bitrate= 134.4kbits/s speed=20.5x video:74608kB audio:3085kB subtitle:0kB other streams:0kB global headers:0kB muxing overhead: 0.099379%[libx264 @ 0x43d72e0] frame I:955 Avg QP:17.45 size: 62770[libx264 @ 0x43d72e0] frame P:372 Avg QP:14.28 size: 31913[libx264 @ 0x43d72e0] frame B:545 Avg QP:16.86 size: 8404[libx264 @ 0x43d72e0] consecutive B-frames: 54.0% 19.1% 7.7% 19.2%[libx264 @ 0x43d72e0] mb I I16..4: 48.7% 39.8% 11.5%[libx264 @ 0x43d72e0] mb P I16..4: 12.7% 9.8% 1.1% P16..4: 37.6% 0.0% 0.0% 0.0% 0.0% skip:38.9%[libx264 @ 0x43d72e0] mb B I16..4: 2.4% 1.2% 0.1% B16..8: 18.4% 0.0% 0.0% direct: 8.8% skip:69.2% L0:39.4% L1:50.8% BI: 9.8%[libx264 @ 0x43d72e0] 8x8 transform intra:39.8% inter:66.6%[libx264 @ 0x43d72e0] coded y,uvDC,uvAC intra: 51.7% 47.5% 24.5% inter: 7.4% 12.1% 0.3%[libx264 @ 0x43d72e0] i16 v,h,dc,p: 63% 15% 14% 8%[libx264 @ 0x43d72e0] i8 v,h,dc,ddl,ddr,vr,hd,vl,hu: 24% 18% 21% 6% 5% 7% 5% 7% 6%[libx264 @ 0x43d72e0] i4 v,h,dc,ddl,ddr,vr,hd,vl,hu: 30% 20% 9% 7% 6% 7% 6% 7% 6%[libx264 @ 0x43d72e0] i8c dc,h,v,p: 58% 18% 19% 5%[libx264 @ 0x43d72e0] Weighted P-Frames: Y:0.0% UV:0.0%[libx264 @ 0x43d72e0] kb/s:7827.81[aac @ 0x46ecc40] Qavg: 378.515 Log-transcode.txt Log3.txt Log2.txt Log1.txt
×
×
  • Create New...