Jump to content

Chromecast Can't Play 5.1 DTS Audio (need help transcoding Q)


Nosferatu

Recommended Posts

CorpusColossus

I looked through the pre-release notes for betas 3.3.1.6+ and didn't see anything related to the DTS --> 5.1 conversion for the Chromecast. Is this fix still floating around now that we're in the 3.4.1.1+ betas?

  • Like 1
Link to post
Share on other sites

@@Luke, It would be nice if you could circle around a little faster. This relates to directly to playback, which should be right at the top of your "to do" list - instead of all the fancy stuff. After all the fancy stuff is pretty useless if playback doesn't work properly. It's very frustrating watching movies with DTS 5.1 soundtracks in plain old stereo.

 

thanks

  • Like 1
Link to post
Share on other sites
  • 3 weeks later...

@@Luke, any progress on converting DTS to AC3, i am a premium Emby User, and because this taken so long installed PLEX to be able to play the movies, as they do DTS to AC3.

Can this come a little faster that anything else, please

 

Thanks  

  • Like 1
Link to post
Share on other sites
Harbinger1080

@@Luke, any progress on converting DTS to AC3, i am a premium Emby User, and because this taken so long installed PLEX to be able to play the movies, as they do DTS to AC3.

Can this come a little faster that anything else, please

 

Thanks  

 

Agreed... I had to reinstall Plex for home use to work around this.  Really did not want to go back to it, but I really don't want to have both running either.  This is a critical issue in my opinion.

Link to post
Share on other sites
Floflobel

Hello I have the same problem with DTS 5.1, is the right topic ?

 

 

 

2018-06-24 18:09:44.548
Application version: 3.4.1.0

http://192.168.1.153:8096/emby/videos/edbfe5f33589fc80f450063d8f0b9dac/stream.mkv?DeviceId=Q2hyb21lQ2FzdCBGbG81&MediaSourceId=edbfe5f33589fc80f450063d8f0b9dac&VideoCodec=h264,vp8&AudioCodec=aac,mp3,opus,flac,vorbis&AudioStreamIndex=1&VideoBitrate=30000000&AudioBitrate=640000&PlaySessionId=04fed2826311408794fca5b5bd3a785a&api_key=e8c092acbe93438bb420ecdbbe0d3646&TranscodingMaxAudioChannels=2&CopyTimestamps=true&RequireAvc=true&Tag=bcd5084d0728f2af16057aaaa61051f6&h264-profile=high,main,baseline,constrainedbaseline&h264-level=42&h264-deinterlace=true&aac-audiochannels=2

{"Protocol":"File","Id":"edbfe5f33589fc80f450063d8f0b9dac","Path":"/media/storage1/films/downloaded/CHiPS (2017)/[ Torrent9.info ] Chips.2017.FRENCH.720p.BluRay.x264-VENUE.mkv","Type":"Default","Container":"mkv,webm","Name":"[ Torrent9.info ] Chips.2017.FRENCH.720p.BluRay.x264-VENUE","IsRemote":false,"ETag":"bcd5084d0728f2af16057aaaa61051f6","RunTimeTicks":60519677952,"ReadAtNativeFramerate":false,"IgnoreDts":false,"IgnoreIndex":false,"GenPtsInput":false,"SupportsTranscoding":true,"SupportsDirectStream":true,"SupportsDirectPlay":true,"IsInfiniteStream":false,"RequiresOpening":false,"RequiresClosing":false,"RequiresLooping":false,"SupportsProbing":true,"VideoType":"VideoFile","MediaStreams":[{"Codec":"h264","Language":"eng","TimeBase":"1/1000","CodecTimeBase":"583/27956","VideoRange":"SDR","DisplayTitle":"720P H264","NalLengthSize":"4","IsInterlaced":false,"IsAVC":true,"BitRate":6201776,"BitDepth":8,"RefFrames":1,"IsDefault":true,"IsForced":false,"Height":720,"Width":1280,"AverageFrameRate":23.9759865,"RealFrameRate":23.9759865,"Profile":"High","Type":"Video","AspectRatio":"16:9","Index":0,"IsExternal":false,"IsTextSubtitleStream":false,"SupportsExternalStream":false,"PixelFormat":"yuv420p","Level":41,"IsAnamorphic":false},{"Codec":"ac3","Language":"fre","TimeBase":"1/1000","CodecTimeBase":"1/48000","DisplayTitle":"Fre Dolby Digital 5.1 Default","IsInterlaced":false,"ChannelLayout":"5.1","BitRate":640000,"Channels":6,"SampleRate":48000,"IsDefault":true,"IsForced":false,"Type":"Audio","Index":1,"IsExternal":false,"IsTextSubtitleStream":false,"SupportsExternalStream":false,"Level":0,"IsAnamorphic":false},{"Codec":"subrip","Language":"fre","TimeBase":"1/1000","CodecTimeBase":"0/1","DisplayTitle":"Fre","IsInterlaced":false,"IsDefault":false,"IsForced":false,"Type":"Subtitle","Index":2,"IsExternal":false,"IsTextSubtitleStream":true,"SupportsExternalStream":true,"Level":0,"IsAnamorphic":false},{"Codec":"subrip","Language":"fre","TimeBase":"1/1000","CodecTimeBase":"0/1","Title":"Forced","DisplayTitle":"Fre Default Forced","IsInterlaced":false,"IsDefault":true,"IsForced":true,"Type":"Subtitle","Index":3,"IsExternal":false,"IsTextSubtitleStream":true,"SupportsExternalStream":true,"Level":0,"IsAnamorphic":false}],"Formats":[],"Bitrate":6201776,"RequiredHttpHeaders":{}}

User policy for Floflobel: EnablePlaybackRemuxing: True EnableVideoPlaybackTranscoding: True EnableAudioPlaybackTranscoding: True

/opt/emby-server/bin/ffmpeg -f matroska,webm -i file:"/media/storage1/films/downloaded/CHiPS (2017)/[ Torrent9.info ] Chips.2017.FRENCH.720p.BluRay.x264-VENUE.mkv" -map 0:0 -map 0:1 -map -0:s -codec:v:0 copy -copyts -avoid_negative_ts disabled -start_at_zero -vsync -1 -map_metadata -1 -map_chapters -1 -threads 0 -codec:a:0 aac -strict experimental -ac 2 -ab 384000 -af "volume=2" -y "/var/lib/emby/transcoding-temp/015aa1c745cb900262d9eff8d6a6a781.mkv"

ffmpeg version 3.4.2 Copyright (c) 2000-2018 the FFmpeg developers
  built with gcc 6.3.0 (crosstool-NG crosstool-ng-1.23.0)
  configuration: --enable-cross-compile --cross-prefix=x86_64-pc-linux-gnu- --cc=x86_64-pc-linux-gnu-gcc --cxx=x86_64-pc-linux-gnu-gcc --arch=x86_64 --prefix=/srv/buildbot/x64/ffmpeg-x64/staging --pkg-config=pkg-config --disable-doc --disable-ffplay --disable-ffserver --disable-xlib --enable-fontconfig --enable-gpl --enable-iconv --enable-libass --enable-libfreetype --enable-libfribidi --enable-libmp3lame --enable-libopus --enable-libtheora --enable-libvorbis --enable-libwebp --enable-libx264 --enable-libzvbi --enable-version3 --extra-libs='-ldl -lexpat -lfreetype -lfribidi -lfontconfig -liconv -lpng -luuid -lgmp -lhogweed -lnettle -laddns-samba4 -lasn1util-samba4 -lauthkrb5-samba4 -lCHARSET3-samba4 -lcliauth-samba4 -lcli-cldap-samba4 -lcli-ldap-common-samba4 -lcli-nbt-samba4 -lcli-smb-common-samba4 -lcom_err -lcommon-auth-samba4 -ldbwrap-samba4 -ldcerpc-binding -ldcerpc-samba-samba4 -lflag-mapping-samba4 -lgenrand-samba4 -lgensec-samba4 -lgse-samba4 -lgssapi_krb5 -llibcli-lsa3-samba4 -llibsmb-samba4 -linterfaces-samba4 -liov-buf-samba4 -lk5crypto -lkrb5 -lkrb5samba-samba4 -lkrb5support -lldb -lldbsamba-samba4 -lmessages-dgm-samba4 -lmessages-util-samba4 -lmsghdr-samba4 -lmsrpc3-samba4 -lndr -lndr-krb5pac -lndr-nbt -lndr-samba-samba4 -lndr-standard -lreplace-samba4 -lsamba-cluster-support-samba4 -lsamba-credentials -lsamba-debug-samba4 -lsamba-errors -lsamba-hostconfig -lsamba-modules-samba4 -lsamba-security-samba4 -lsamba-sockets-samba4 -lsamba-util -lsamba3-util-samba4 -lsamdb -lsamdb-common-samba4 -lsecrets3-samba4 -lserver-id-db-samba4 -lserver-role-samba4 -lsmbconf -lsmbd-shim-samba4 -lsmb-transport-samba4 -lsocket-blocking-samba4 -lsys-rw-samba4 -ltalloc -ltalloc-report-samba4 -ltdb -ltdb-wrap-samba4 -ltevent -ltevent-util -ltime-basic-samba4 -lutil-cmdline-samba4 -lutil-reg-samba4 -lutil-setid-samba4 -lutil-tdb-samba4 -lwbclient -lwinbind-client-samba4 -ldrm' --target-os=linux --enable-shared --disable-static --enable-gnutls --enable-libsmbclient --enable-cuda --enable-cuvid --enable-nvenc --enable-vaapi
  libavutil      55. 78.100 / 55. 78.100
  libavcodec     57.107.100 / 57.107.100
  libavformat    57. 83.100 / 57. 83.100
  libavdevice    57. 10.100 / 57. 10.100
  libavfilter     6.107.100 /  6.107.100
  libswscale      4.  8.100 /  4.  8.100
  libswresample   2.  9.100 /  2.  9.100
  libpostproc    54.  7.100 / 54.  7.100
Input #0, matroska,webm, from 'file:/media/storage1/films/downloaded/CHiPS (2017)/[ Torrent9.info ] Chips.2017.FRENCH.720p.BluRay.x264-VENUE.mkv':
  Metadata:
    encoder         : libebml v1.3.1 + libmatroska v1.4.2
    creation_time   : 2017-06-12T23:11:35.000000Z
  Duration: 01:40:51.97, start: 0.000000, bitrate: 6201 kb/s
    Chapter #0:0: start 0.000000, end 648.356000
    Metadata:
      title           : 00:00:00.000
    Chapter #0:1: start 648.356000, end 1168.959000
    Metadata:
      title           : 00:10:48.356
    Chapter #0:2: start 1168.959000, end 1798.005000
    Metadata:
      title           : 00:19:28.959
    Chapter #0:3: start 1798.005000, end 2393.600000
    Metadata:
      title           : 00:29:58.005
    Chapter #0:4: start 2393.600000, end 3045.668000
    Metadata:
      title           : 00:39:53.600
    Chapter #0:5: start 3045.668000, end 3758.421000
    Metadata:
      title           : 00:50:45.668
    Chapter #0:6: start 3758.421000, end 4420.249000
    Metadata:
      title           : 01:02:38.421
    Chapter #0:7: start 4420.249000, end 5141.386000
    Metadata:
      title           : 01:13:40.249
    Chapter #0:8: start 5141.386000, end 5861.939000
    Metadata:
      title           : 01:25:41.386
    Chapter #0:9: start 5861.939000, end 6051.968000
    Metadata:
      title           : 01:37:41.939
    Stream #0:0(eng): Video: h264 (High), yuv420p(progressive), 1280x720 [SAR 1:1 DAR 16:9], 23.98 fps, 23.98 tbr, 1k tbn, 47.95 tbc (default)
    Metadata:
      BPS             : 5559758
      BPS-eng         : 5559758
      DURATION        : 01:40:51.931000000
      DURATION-eng    : 01:40:51.931000000
      NUMBER_OF_FRAMES: 145101
      NUMBER_OF_FRAMES-eng: 145101
      NUMBER_OF_BYTES : 4205909335
      NUMBER_OF_BYTES-eng: 4205909335
      _STATISTICS_WRITING_APP: mkvmerge v8.3.0 ('Over the Horizon') 64bit
      _STATISTICS_WRITING_APP-eng: mkvmerge v8.3.0 ('Over the Horizon') 64bit
      _STATISTICS_WRITING_DATE_UTC: 2017-06-12 23:11:35
      _STATISTICS_WRITING_DATE_UTC-eng: 2017-06-12 23:11:35
      _STATISTICS_TAGS: BPS DURATION NUMBER_OF_FRAMES NUMBER_OF_BYTES
      _STATISTICS_TAGS-eng: BPS DURATION NUMBER_OF_FRAMES NUMBER_OF_BYTES
    Stream #0:1(fre): Audio: ac3, 48000 Hz, 5.1(side), fltp, 640 kb/s (default)
    Metadata:
      BPS             : 640000
      BPS-eng         : 640000
      DURATION        : 01:40:51.968000000
      DURATION-eng    : 01:40:51.968000000
      NUMBER_OF_FRAMES: 189124
      NUMBER_OF_FRAMES-eng: 189124
      NUMBER_OF_BYTES : 484157440
      NUMBER_OF_BYTES-eng: 484157440
      _STATISTICS_WRITING_APP: mkvmerge v8.3.0 ('Over the Horizon') 64bit
      _STATISTICS_WRITING_APP-eng: mkvmerge v8.3.0 ('Over the Horizon') 64bit
      _STATISTICS_WRITING_DATE_UTC: 2017-06-12 23:11:35
      _STATISTICS_WRITING_DATE_UTC-eng: 2017-06-12 23:11:35
      _STATISTICS_TAGS: BPS DURATION NUMBER_OF_FRAMES NUMBER_OF_BYTES
      _STATISTICS_TAGS-eng: BPS DURATION NUMBER_OF_FRAMES NUMBER_OF_BYTES
    Stream #0:2(fre): Subtitle: subrip
    Metadata:
      BPS             : 84
      BPS-eng         : 84
      DURATION        : 01:40:19.097000000
      DURATION-eng    : 01:40:19.097000000
      NUMBER_OF_FRAMES: 1857
      NUMBER_OF_FRAMES-eng: 1857
      NUMBER_OF_BYTES : 63550
      NUMBER_OF_BYTES-eng: 63550
      _STATISTICS_WRITING_APP: mkvmerge v8.3.0 ('Over the Horizon') 64bit
      _STATISTICS_WRITING_APP-eng: mkvmerge v8.3.0 ('Over the Horizon') 64bit
      _STATISTICS_WRITING_DATE_UTC: 2017-06-12 23:11:35
      _STATISTICS_WRITING_DATE_UTC-eng: 2017-06-12 23:11:35
      _STATISTICS_TAGS: BPS DURATION NUMBER_OF_FRAMES NUMBER_OF_BYTES
      _STATISTICS_TAGS-eng: BPS DURATION NUMBER_OF_FRAMES NUMBER_OF_BYTES
    Stream #0:3(fre): Subtitle: subrip (default) (forced)
    Metadata:
      title           : Forced
      BPS             : 1
      BPS-eng         : 1
      DURATION        : 01:40:19.097000000
      DURATION-eng    : 01:40:19.097000000
      NUMBER_OF_FRAMES: 26
      NUMBER_OF_FRAMES-eng: 26
      NUMBER_OF_BYTES : 775
      NUMBER_OF_BYTES-eng: 775
      _STATISTICS_WRITING_APP: mkvmerge v8.3.0 ('Over the Horizon') 64bit
      _STATISTICS_WRITING_APP-eng: mkvmerge v8.3.0 ('Over the Horizon') 64bit
      _STATISTICS_WRITING_DATE_UTC: 2017-06-12 23:11:35
      _STATISTICS_WRITING_DATE_UTC-eng: 2017-06-12 23:11:35
      _STATISTICS_TAGS: BPS DURATION NUMBER_OF_FRAMES NUMBER_OF_BYTES
      _STATISTICS_TAGS-eng: BPS DURATION NUMBER_OF_FRAMES NUMBER_OF_BYTES
Stream mapping:
  Stream #0:0 -> #0:0 (copy)
  Stream #0:1 -> #0:1 (ac3 (native) -> aac (native))
Press [q] to stop, [?] for help
Output #0, matroska, to '/var/lib/emby/transcoding-temp/015aa1c745cb900262d9eff8d6a6a781.mkv':
  Metadata:
    encoder         : Lavf57.83.100
    Stream #0:0: Video: h264 (High) (H264 / 0x34363248), yuv420p(progressive), 1280x720 [SAR 1:1 DAR 16:9], q=2-31, 23.98 fps, 23.98 tbr, 1k tbn, 1k tbc (default)
    Stream #0:1: Audio: aac (LC) ([255][0][0][0] / 0x00FF), 48000 Hz, stereo, fltp, 384 kb/s (default)
    Metadata:
      encoder         : Lavc57.107.100 aac
frame=   56 fps=0.0 q=-1.0 size=       1kB time=00:00:02.39 bitrate=   2.9kbits/s speed=4.73x    
frame=  121 fps=120 q=-1.0 size=     206kB time=00:00:05.09 bitrate= 331.1kbits/s speed=5.05x    
frame=  245 fps=162 q=-1.0 size=    5500kB time=00:00:10.21 bitrate=4409.2kbits/s speed=6.76x    
frame=  377 fps=187 q=-1.0 size=    8787kB time=00:00:15.78 bitrate=4559.7kbits/s speed=7.82x    
frame=  438 fps=174 q=-1.0 size=   10014kB time=00:00:18.51 bitrate=4429.8kbits/s speed=7.35x    
frame=  506 fps=167 q=-1.0 size=   10740kB time=00:00:21.29 bitrate=4132.6kbits/s speed=7.05x    
frame=  668 fps=190 q=-1.0 size=   11492kB time=00:00:28.05 bitrate=3355.9kbits/s speed=7.97x    
frame=  724 fps=180 q=-1.0 size=   12640kB time=00:00:30.29 bitrate=3418.0kbits/s speed=7.53x    
frame=  787 fps=174 q=-1.0 size=   12880kB time=00:00:33.06 bitrate=3191.1kbits/s speed= 7.3x    
frame=  859 fps=171 q=-1.0 size=   13084kB time=00:00:36.05 bitrate=2972.9kbits/s speed=7.17x    
frame=  931 fps=168 q=-1.0 size=   13215kB time=00:00:38.99 bitrate=2775.9kbits/s speed=7.05x    
frame= 1094 fps=181 q=-1.0 size=   17477kB time=00:00:45.80 bitrate=3126.0kbits/s speed=7.59x    
frame= 1309 fps=200 q=-1.0 size=   22594kB time=00:00:54.80 bitrate=3377.3kbits/s speed=8.39x    
frame= 1517 fps=216 q=-1.0 size=   30247kB time=00:01:03.59 bitrate=3896.3kbits/s speed=9.04x    
frame= 1736 fps=230 q=-1.0 size=   34716kB time=00:01:12.59 bitrate=3917.4kbits/s speed=9.63x    
frame= 1944 fps=242 q=-1.0 size=   47759kB time=00:01:21.23 bitrate=4816.0kbits/s speed=10.1x    
frame= 2139 fps=251 q=-1.0 size=   54280kB time=00:01:29.25 bitrate=4981.8kbits/s speed=10.5x    
frame= 2325 fps=257 q=-1.0 size=   59714kB time=00:01:37.17 bitrate=5034.0kbits/s speed=10.8x    
frame= 2501 fps=262 q=-1.0 size=   66062kB time=00:01:44.42 bitrate=5182.4kbits/s speed=10.9x    
frame= 2718 fps=271 q=-1.0 size=   72542kB time=00:01:53.64 bitrate=5229.3kbits/s speed=11.3x    
frame= 2950 fps=280 q=-1.0 size=   78396kB time=00:02:03.15 bitrate=5214.6kbits/s speed=11.7x    
frame= 3127 fps=283 q=-1.0 size=   85227kB time=00:02:10.60 bitrate=5345.9kbits/s speed=11.8x    
frame= 3273 fps=283 q=-1.0 size=   92116kB time=00:02:16.53 bitrate=5526.9kbits/s speed=11.8x    
frame= 3466 fps=288 q=-1.0 size=   97886kB time=00:02:24.53 bitrate=5548.1kbits/s speed=  12x    
frame= 3715 fps=296 q=-1.0 size=  107469kB time=00:02:35.05 bitrate=5678.1kbits/s speed=12.4x    
frame= 3839 fps=294 q=-1.0 size=  112171kB time=00:02:40.10 bitrate=5739.4kbits/s speed=12.3x    
frame= 3911 fps=289 q=-1.0 size=  115029kB time=00:02:43.37 bitrate=5768.0kbits/s speed=12.1x    
frame= 3992 fps=284 q=-1.0 size=  116872kB time=00:02:46.63 bitrate=5745.6kbits/s speed=11.9x    
frame= 4085 fps=281 q=-1.0 size=  120021kB time=00:02:50.60 bitrate=5763.2kbits/s speed=11.7x    
frame= 4163 fps=276 q=-1.0 size=  122266kB time=00:02:53.91 bitrate=5759.3kbits/s speed=11.5x    
frame= 4255 fps=273 q=-1.0 size=  124654kB time=00:02:57.57 bitrate=5750.5kbits/s speed=11.4x    
frame= 4488 fps=279 q=-1.0 size=  131811kB time=00:03:07.35 bitrate=5763.5kbits/s speed=11.7x    
frame= 4726 fps=285 q=-1.0 size=  140433kB time=00:03:17.27 bitrate=5831.7kbits/s speed=11.9x    
frame= 4887 fps=286 q=-1.0 size=  147858kB time=00:03:23.88 bitrate=5941.0kbits/s speed=11.9x    
frame= 4971 fps=283 q=-1.0 size=  153416kB time=00:03:27.46 bitrate=6057.8kbits/s speed=11.8x    
frame= 5060 fps=280 q=-1.0 size=  157086kB time=00:03:31.05 bitrate=6097.4kbits/s speed=11.7x    
frame= 5117 fps=276 q=-1.0 size=  160090kB time=00:03:33.48 bitrate=6143.2kbits/s speed=11.5x    
frame= 5186 fps=272 q=-1.0 size=  164660kB time=00:03:36.49 bitrate=6230.8kbits/s speed=11.4x    
frame= 5239 fps=268 q=-1.0 size=  167104kB time=00:03:38.66 bitrate=6260.3kbits/s speed=11.2x    
frame= 5293 fps=264 q=-1.0 size=  169251kB time=00:03:41.01 bitrate=6273.4kbits/s speed=  11x    
frame= 5354 fps=222 q=-1.0 size=  170756kB time=00:03:43.25 bitrate=6265.7kbits/s speed=9.27x    
frame= 5379 fps=219 q=-1.0 size=  172198kB time=00:03:44.36 bitrate=6287.4kbits/s speed=9.12x    
frame= 5579 fps=222 q=-1.0 size=  181952kB time=00:03:52.87 bitrate=6400.7kbits/s speed=9.28x    
frame= 5826 fps=228 q=-1.0 size=  192769kB time=00:04:02.98 bitrate=6499.0kbits/s speed=9.49x    
frame= 5937 fps=227 q=-1.0 size=  196481kB time=00:04:07.76 bitrate=6496.4kbits/s speed=9.49x    
frame= 6124 fps=230 q=-1.0 size=  204757kB time=00:04:15.44 bitrate=6566.4kbits/s speed= 9.6x    
frame= 6279 fps=232 q=-1.0 size=  210968kB time=00:04:21.91 bitrate=6598.6kbits/s speed=9.66x    
frame= 6491 fps=235 q=-1.0 size=  218702kB time=00:04:30.89 bitrate=6613.8kbits/s speed=9.81x    
frame= 6774 fps=241 q=-1.0 size=  228199kB time=00:04:42.53 bitrate=6616.5kbits/s speed=10.1x    
frame= 7023 fps=246 q=-1.0 size=  241251kB time=00:04:53.20 bitrate=6740.4kbits/s speed=10.2x    
frame= 7151 fps=246 q=-1.0 size=  245080kB time=00:04:58.34 bitrate=6729.4kbits/s speed=10.2x    
frame= 7242 fps=245 q=-1.0 size=  250149kB time=00:05:02.31 bitrate=6778.5kbits/s speed=10.2x    
frame= 7351 fps=244 q=-1.0 size=  252169kB time=00:05:06.71 bitrate=6735.2kbits/s speed=10.2x    
frame= 7486 fps=244 q=-1.0 size=  257070kB time=00:05:12.47 bitrate=6739.6kbits/s speed=10.2x    
frame= 7600 fps=244 q=-1.0 size=  260492kB time=00:05:17.03 bitrate=6731.0kbits/s speed=10.2x    
frame= 7695 fps=243 q=-1.0 size=  261627kB time=00:05:20.93 bitrate=6678.1kbits/s speed=10.1x    
frame= 7788 fps=242 q=-1.0 size=  263331kB time=00:05:24.97 bitrate=6638.2kbits/s speed=10.1x    
frame= 7927 fps=243 q=-1.0 size=  269013kB time=00:05:30.85 bitrate=6660.7kbits/s speed=10.1x    
frame= 7999 fps=241 q=-1.0 size=  270993kB time=00:05:33.67 bitrate=6653.1kbits/s speed=10.1x    
frame= 8072 fps=240 q=-1.0 size=  270993kB time=00:05:36.91 bitrate=6589.1kbits/s speed=  10x    
frame= 8147 fps=239 q=-1.0 size=  272991kB time=00:05:39.88 bitrate=6579.8kbits/s speed=9.95x    
frame= 8206 fps=237 q=-1.0 size=  274827kB time=00:05:42.48 bitrate=6573.6kbits/s speed=9.88x    
frame= 8278 fps=235 q=-1.0 size=  274827kB time=00:05:45.43 bitrate=6517.6kbits/s speed=9.83x    
frame= 8354 fps=234 q=-1.0 size=  277828kB time=00:05:48.43 bitrate=6531.9kbits/s speed=9.77x    
frame= 8537 fps=236 q=-1.0 size=  283951kB time=00:05:56.20 bitrate=6530.4kbits/s speed=9.85x    
frame= 8616 fps=235 q=-1.0 size=  285809kB time=00:05:59.57 bitrate=6511.4kbits/s speed=9.81x    
frame= 8693 fps=234 q=-1.0 size=  287301kB time=00:06:02.60 bitrate=6490.8kbits/s speed=9.76x    
frame= 8784 fps=233 q=-1.0 size=  288492kB time=00:06:06.50 bitrate=6448.3kbits/s speed=9.73x    
frame= 8898 fps=233 q=-1.0 size=  289499kB time=00:06:11.41 bitrate=6385.3kbits/s speed=9.73x    
frame= 9003 fps=233 q=-1.0 size=  293112kB time=00:06:15.65 bitrate=6391.9kbits/s speed=9.71x    
frame= 9100 fps=232 q=-1.0 size=  296011kB time=00:06:19.67 bitrate=6386.9kbits/s speed=9.69x    
frame= 9197 fps=232 q=-1.0 size=  299168kB time=00:06:23.63 bitrate=6388.3kbits/s speed=9.67x    
frame= 9348 fps=233 q=-1.0 size=  304096kB time=00:06:29.93 bitrate=6388.7kbits/s speed= 9.7x    
frame= 9441 fps=232 q=-1.0 size=  309184kB time=00:06:33.94 bitrate=6429.5kbits/s speed=9.68x    
frame= 9528 fps=231 q=-1.0 size=  309184kB time=00:06:37.54 bitrate=6371.2kbits/s speed=9.65x    
frame= 9644 fps=231 q=-1.0 size=  314167kB time=00:06:42.28 bitrate=6397.6kbits/s speed=9.65x    
frame= 9739 fps=231 q=-1.0 size=  316440kB time=00:06:46.44 bitrate=6378.0kbits/s speed=9.63x    
frame= 9835 fps=230 q=-1.0 size=  321767kB time=00:06:50.34 bitrate=6423.6kbits/s speed=9.61x    
frame=10035 fps=232 q=-1.0 size=  327994kB time=00:06:58.71 bitrate=6417.2kbits/s speed=9.69x    
frame=10276 fps=235 q=-1.0 size=  343345kB time=00:07:08.71 bitrate=6560.8kbits/s speed=9.81x    
frame=10428 fps=236 q=-1.0 size=  346766kB time=00:07:15.03 bitrate=6529.9kbits/s speed=9.84x    
frame=10596 fps=237 q=-1.0 size=  351758kB time=00:07:22.09 bitrate=6518.1kbits/s speed=9.89x    
frame=10769 fps=238 q=-1.0 size=  356582kB time=00:07:29.19 bitrate=6503.0kbits/s speed=9.94x    
frame=10922 fps=239 q=-1.0 size=  362170kB time=00:07:35.76 bitrate=6509.7kbits/s speed=9.97x    
frame=11010 fps=238 q=-1.0 size=  363701kB time=00:07:39.41 bitrate=6485.3kbits/s speed=9.94x    
frame=11086 fps=237 q=-1.0 size=  366316kB time=00:07:42.61 bitrate=6486.8kbits/s speed= 9.9x    
frame=11164 fps=236 q=-1.0 size=  370229kB time=00:07:45.64 bitrate=6513.4kbits/s speed=9.86x    
frame=11235 fps=235 q=-1.0 size=  372341kB time=00:07:48.71 bitrate=6507.6kbits/s speed=9.82x    
frame=11314 fps=235 q=-1.0 size=  374512kB time=00:07:52.04 bitrate=6499.4kbits/s speed=9.79x    
frame=11404 fps=234 q=-1.0 size=  377259kB time=00:07:55.73 bitrate=6496.3kbits/s speed=9.76x    
frame=11681 fps=237 q=-1.0 size=  388295kB time=00:08:07.33 bitrate=6527.1kbits/s speed= 9.9x    
frame=11930 fps=240 q=-1.0 size=  397857kB time=00:08:17.62 bitrate=6549.6kbits/s speed=  10x    
frame=11990 fps=239 q=-1.0 size=  397857kB time=00:08:20.31 bitrate=6514.4kbits/s speed=9.96x    
frame=12070 fps=238 q=-1.0 size=  401243kB time=00:08:23.53 bitrate=6527.9kbits/s speed=9.92x    
frame=12146 fps=237 q=-1.0 size=  402727kB time=00:08:26.64 bitrate=6511.7kbits/s speed=9.89x    
frame=12216 fps=236 q=-1.0 size=  405365kB time=00:08:29.73 bitrate=6514.6kbits/s speed=9.85x    
frame=12293 fps=235 q=-1.0 size=  406651kB time=00:08:32.87 bitrate=6495.3kbits/s speed=9.81x    
frame=12369 fps=234 q=-1.0 size=  406651kB time=00:08:36.07 bitrate=6455.1kbits/s speed=9.78x    
frame=12445 fps=234 q=-1.0 size=  410481kB time=00:08:39.21 bitrate=6476.5kbits/s speed=9.75x    
frame=12526 fps=233 q=-1.0 size=  411798kB time=00:08:42.53 bitrate=6455.9kbits/s speed=9.72x    
frame=12599 fps=232 q=-1.0 size=  414032kB time=00:08:45.48 bitrate=6454.6kbits/s speed=9.68x    
frame=12667 fps=231 q=-1.0 size=  414032kB time=00:08:48.49 bitrate=6417.8kbits/s speed=9.65x    
frame=12737 fps=230 q=-1.0 size=  416558kB time=00:08:51.47 bitrate=6420.7kbits/s speed=9.61x    
frame=12812 fps=230 q=-1.0 size=  417788kB time=00:08:54.50 bitrate=6403.1kbits/s speed=9.58x    
frame=12880 fps=229 q=-1.0 size=  418814kB time=00:08:57.32 bitrate=6385.2kbits/s speed=9.55x    
frame=12949 fps=228 q=-1.0 size=  421715kB time=00:09:00.31 bitrate=6393.9kbits/s speed=9.52x    
frame=13025 fps=227 q=-1.0 size=  421715kB time=00:09:03.25 bitrate=6359.2kbits/s speed=9.48x    
frame=13096 fps=227 q=-1.0 size=  425636kB time=00:09:06.28 bitrate=6382.8kbits/s speed=9.45x    
frame=13156 fps=226 q=-1.0 size=  425636kB time=00:09:08.97 bitrate=6351.6kbits/s speed=9.42x    
frame=13223 fps=225 q=-1.0 size=  428343kB time=00:09:11.59 bitrate=6361.5kbits/s speed=9.38x    
frame=13291 fps=224 q=-1.0 size=  429713kB time=00:09:14.51 bitrate=6348.2kbits/s speed=9.35x    
frame=13362 fps=223 q=-1.0 size=  431940kB time=00:09:17.59 bitrate=6346.0kbits/s speed=9.32x    
frame=13439 fps=223 q=-1.0 size=  431940kB time=00:09:20.66 bitrate=6311.2kbits/s speed= 9.3x    
frame=13513 fps=222 q=-1.0 size=  435855kB time=00:09:23.75 bitrate=6333.5kbits/s speed=9.27x    
frame=13592 fps=222 q=-1.0 size=  435855kB time=00:09:26.93 bitrate=6298.0kbits/s speed=9.25x    
frame=13663 fps=221 q=-1.0 size=  439894kB time=00:09:29.87 bitrate=6323.5kbits/s speed=9.22x    
frame=13730 fps=220 q=-1.0 size=  441550kB time=00:09:32.77 bitrate=6315.1kbits/s speed=9.19x    
frame=13807 fps=220 q=-1.0 size=  442932kB time=00:09:35.97 bitrate=6299.7kbits/s speed=9.17x    
frame=13877 fps=219 q=-1.0 size=  445178kB time=00:09:38.96 bitrate=6299.0kbits/s speed=9.14x    
frame=13957 fps=219 q=-1.0 size=  445178kB time=00:09:42.18 bitrate=6264.2kbits/s speed=9.12x    
frame=14030 fps=218 q=-1.0 size=  448885kB time=00:09:45.19 bitrate=6283.8kbits/s speed= 9.1x    
frame=14106 fps=218 q=-1.0 size=  450187kB time=00:09:48.52 bitrate=6266.4kbits/s speed=9.08x    
frame=14178 fps=217 q=-1.0 size=  452516kB time=00:09:51.57 bitrate=6266.3kbits/s speed=9.05x    
frame=14252 fps=216 q=-1.0 size=  453230kB time=00:09:54.53 bitrate=6245.0kbits/s speed=9.03x    
frame=14322 fps=216 q=-1.0 size=  454394kB time=00:09:57.52 bitrate=6229.7kbits/s speed=9.01x    
frame=14397 fps=215 q=-1.0 size=  457828kB time=00:10:00.61 bitrate=6244.4kbits/s speed=8.99x    
frame=14465 fps=215 q=-1.0 size=  460529kB time=00:10:03.49 bitrate=6251.3kbits/s speed=8.96x    
frame=14541 fps=214 q=-1.0 size=  460529kB time=00:10:06.69 bitrate=6218.3kbits/s speed=8.94x    
frame=14611 fps=214 q=-1.0 size=  462964kB time=00:10:09.62 bitrate=6221.2kbits/s speed=8.92x    
frame=14692 fps=213 q=-1.0 size=  468455kB time=00:10:12.84 bitrate=6261.9kbits/s speed= 8.9x    
frame=14763 fps=213 q=-1.0 size=  471103kB time=00:10:15.78 bitrate=6267.2kbits/s speed=8.88x    
frame=14831 fps=212 q=-1.0 size=  472269kB time=00:10:18.85 bitrate=6251.6kbits/s speed=8.86x    
frame=14907 fps=212 q=-1.0 size=  474173kB time=00:10:21.86 bitrate=6246.4kbits/s speed=8.84x    
frame=14973 fps=211 q=-1.0 size=  475727kB time=00:10:24.61 bitrate=6239.3kbits/s speed=8.81x    
frame=15032 fps=211 q=-1.0 size=  477479kB time=00:10:27.15 bitrate=6236.9kbits/s speed=8.78x    
frame=15097 fps=210 q=-1.0 size=  478333kB time=00:10:29.80 bitrate=6221.8kbits/s speed=8.76x    
frame=15170 fps=210 q=-1.0 size=  479823kB time=00:10:32.91 bitrate=6210.5kbits/s speed=8.74x    
frame=15253 fps=209 q=-1.0 size=  482318kB time=00:10:36.26 bitrate=6209.9kbits/s speed=8.73x    
frame=15317 fps=209 q=-1.0 size=  482318kB time=00:10:39.08 bitrate=6182.5kbits/s speed=8.71x    
frame=15383 fps=208 q=-1.0 size=  485122kB time=00:10:41.62 bitrate=6193.9kbits/s speed=8.68x    
frame=15446 fps=208 q=-1.0 size=  486678kB time=00:10:44.33 bitrate=6187.6kbits/s speed=8.66x    
frame=15506 fps=207 q=-1.0 size=  488389kB time=00:10:46.99 bitrate=6183.8kbits/s speed=8.64x    
frame=15658 fps=208 q=-1.0 size=  494338kB time=00:10:53.29 bitrate=6198.8kbits/s speed=8.66x    
frame=15887 fps=209 q=-1.0 size=  505063kB time=00:11:02.76 bitrate=6242.8kbits/s speed=8.73x    
frame=16052 fps=202 q=-1.0 size=  513610kB time=00:11:09.52 bitrate=6284.3kbits/s speed=8.44x    
frame=16095 fps=202 q=-1.0 size=  518397kB time=00:11:11.40 bitrate=6325.1kbits/s speed=8.41x    
frame=16276 fps=203 q=-1.0 size=  522325kB time=00:11:18.95 bitrate=6302.2kbits/s speed=8.46x    
frame=16413 fps=203 q=-1.0 size=  526785kB time=00:11:24.82 bitrate=6301.5kbits/s speed=8.48x    
frame=16506 fps=203 q=-1.0 size=  531073kB time=00:11:28.40 bitrate=6319.7kbits/s speed=8.47x    
frame=16569 fps=203 q=-1.0 size=  533561kB time=00:11:31.15 bitrate=6324.1kbits/s speed=8.45x    
frame=16618 fps=202 q=-1.0 size=  535409kB time=00:11:33.07 bitrate=6328.4kbits/s speed=8.42x    
frame=16665 fps=201 q=-1.0 size=  537018kB time=00:11:35.08 bitrate=6329.1kbits/s speed=8.36x    
frame=16724 fps=200 q=-1.0 size=  540021kB time=00:11:37.64 bitrate=6341.1kbits/s speed=8.34x    
frame=16778 fps=199 q=-1.0 size=  540714kB time=00:11:40.01 bitrate=6327.8kbits/s speed=8.32x    
frame=16857 fps=199 q=-1.0 size=  542066kB time=00:11:43.19 bitrate=6314.9kbits/s speed=8.31x    
frame=16898 fps=199 q=-1.0 size=  542066kB time=00:11:44.85 bitrate=6300.0kbits/s speed=8.28x    
frame=16974 fps=198 q=-1.0 size=  548039kB time=00:11:48.18 bitrate=6339.5kbits/s speed=8.27x    
frame=17056 fps=198 q=-1.0 size=  550298kB time=00:11:51.57 bitrate=6335.3kbits/s speed=8.26x    
frame=17106 fps=197 q=-1.0 size=  550298kB time=00:11:53.57 bitrate=6317.5kbits/s speed=8.24x    
frame=17139 fps=197 q=-1.0 size=  554417kB time=00:11:54.98 bitrate=6352.3kbits/s speed=8.21x    
frame=17186 fps=196 q=-1.0 size=  556140kB time=00:11:56.84 bitrate=6355.5kbits/s speed=8.18x    
frame=17273 fps=196 q=-1.0 size=  559260kB time=00:12:00.49 bitrate=6358.8kbits/s speed=8.17x    
frame=17311 fps=195 q=-1.0 size=  561573kB time=00:12:02.09 bitrate=6371.0kbits/s speed=8.14x    
frame=17397 fps=187 q=-1.0 size=  565127kB time=00:12:05.61 bitrate=6380.2kbits/s speed=7.81x    
frame=17419 fps=187 q=-1.0 size=  565127kB time=00:12:06.63 bitrate=6371.2kbits/s speed=7.78x    
frame=17436 fps=186 q=-1.0 size=  569555kB time=00:12:07.31 bitrate=6415.1kbits/s speed=7.75x    
frame=17454 fps=185 q=-1.0 size=  569555kB time=00:12:07.97 bitrate=6409.3kbits/s speed=7.71x    
frame=17482 fps=184 q=-1.0 size=  569555kB time=00:12:09.06 bitrate=6399.7kbits/s speed=7.68x    
frame=17511 fps=183 q=-1.0 size=  574965kB time=00:12:10.39 bitrate=6448.8kbits/s speed=7.64x    
frame=17547 fps=183 q=-1.0 size=  574965kB time=00:12:11.86 bitrate=6435.8kbits/s speed=7.62x    
frame=17573 fps=182 q=-1.0 size=  574965kB time=00:12:13.03 bitrate=6425.5kbits/s speed=7.59x    
frame=17618 fps=181 q=-1.0 size=  580311kB time=00:12:14.82 bitrate=6469.4kbits/s speed=7.57x    
frame=17654 fps=181 q=-1.0 size=  580311kB time=00:12:16.36 bitrate=6455.9kbits/s speed=7.54x    
frame=17732 fps=181 q=-1.0 size=  584526kB time=00:12:19.54 bitrate=6474.9kbits/s speed=7.54x    
frame=17782 fps=180 q=-1.0 size=  584526kB time=00:12:21.67 bitrate=6456.3kbits/s speed=7.51x    
frame=17918 fps=181 q=-1.0 size=  591212kB time=00:12:27.56 bitrate=6478.7kbits/s speed=7.53x    
frame=18155 fps=182 q=-1.0 size=  604393kB time=00:12:37.22 bitrate=6538.6kbits/s speed=7.59x    
frame=18219 fps=182 q=-1.0 size=  604393kB time=00:12:39.95 bitrate=6515.1kbits/s speed=7.58x    
frame=18311 fps=182 q=-1.0 size=  608179kB time=00:12:43.69 bitrate=6523.9kbits/s speed=7.58x    
frame=18391 fps=182 q=-1.0 size=  613802kB time=00:12:47.01 bitrate=6555.6kbits/s speed=7.57x    
frame=18459 fps=181 q=-1.0 size=  615946kB time=00:12:50.00 bitrate=6553.0kbits/s speed=7.56x    
frame=18515 fps=181 q=-1.0 size=  618655kB time=00:12:52.31 bitrate=6562.2kbits/s speed=7.54x    
frame=18575 fps=174 q=-1.0 size=  618655kB time=00:12:54.69 bitrate=6541.9kbits/s speed=7.28x    
frame=18628 fps=174 q=-1.0 size=  621194kB time=00:12:57.00 bitrate=6549.3kbits/s speed=7.26x    
frame=18697 fps=174 q=-1.0 size=  624785kB time=00:12:59.81 bitrate=6563.4kbits/s speed=7.26x    
frame=18740 fps=174 q=-1.0 size=  624785kB time=00:13:01.67 bitrate=6547.8kbits/s speed=7.24x    
frame=18752 fps=173 q=-1.0 size=  628594kB time=00:13:02.23 bitrate=6583.0kbits/s speed= 7.2x    

 

 

  • Like 1
Link to post
Share on other sites
Harbinger1080

Please try again with the next release of Emby Server, thanks.

 

Great to hear-- I'll definitely give this a try as soon as the build is available.

Link to post
Share on other sites
Harbinger1080

Please try again with the next release of Emby Server, thanks.

I installed 8.4.1.23-beta tonight, but still see conversation to 2.0 audio when playing DTS audio via my Chromecast. Was this change included in this build? I did not see it in the change log.

Link to post
Share on other sites
Harbinger1080

Tested with a web player casting media with DTS audio, and it was converted to DD5.1.

 

Once this works with the mobile apps, it will be perfect again.

Link to post
Share on other sites
Harbinger1080

Got a beta update for the Android app today (2.9.94), and it is properly converting DTS 5.1 and 7.1 audio to DD 5.1.

Link to post
Share on other sites
Floflobel

Got a beta update for the Android app today (2.9.94), and it is properly converting DTS 5.1 and 7.1 audio to DD 5.1.

 

There is a need for the server to be in beta, or the application is enough?

Link to post
Share on other sites

Create an account or sign in to comment

You need to be a member in order to leave a comment

Create an account

Sign up for a new account in our community. It's easy!

Register a new account

Sign in

Already have an account? Sign in here.

Sign In Now
×
×
  • Create New...