Jump to content

Chromecast Can't Play 5.1 DTS Audio (need help transcoding Q)


Nosferatu
 Share

Recommended Posts

Nosferatu

As the title states.  I bought a Chromecast for an extra room to play content.  

 

It plays all content fine video-wise.

Dolby Digital 5.1 is sent and played correctly as 5.1.

DTS 5.1 is sent and played as a 2 channel stereo track.

 

How do I get the Chromecast to play DTS 5.1 in 5.1.  From what I've gathered it's a limitation of the Chromecast unit so it needs a transcoded audio file to a format it can read on 5.1. 

 

I run a Core i7 24/7/365 which is what Emby Server sits on so I don't care if it's something that is processor intensive to get it working.  However what I do care about is having the 5.1 (or 7.1) streams of these files to not be transcoded on other devices (that aren't Chromecast).  I have dedicated HTPCs in house running Kodi (with Emby as the back end) and I don't want them being transcoded for those rooms given the much better audio equipment.  Those machines require the direct stream as some of the 5.1/7.1 are DTS-MA or TrueHD and I don't want to lose the loseless audio.

 

I did some searching and some of the threads were old.  Thanks!

Edited by Nosferatu
  • Like 1
Link to comment
Share on other sites

We used to transcode 5.1 DTS to 5.1 AAC but in a recent firmware update Google dropped support for 5.1 AAC claiming that it was a proprietary codec that would require them to license.

 

I then tried to transcode to 5.1 AC3 but recent Chromecast firmware updates are having trouble with this. That is why it currently converts to stereo. There have been numerous firmware updates in recent weeks. I will re-evaluate again in the near future when all the changes have settled down and try 5.1 AC3 again. Thanks !

  • Like 1
Link to comment
Share on other sites

Nosferatu

We used to transcode 5.1 DTS to 5.1 AAC but in a recent firmware update Google dropped support for 5.1 AAC claiming that it was a proprietary codec that would require them to license.

 

I then tried to transcode to 5.1 AC3 but recent Chromecast firmware updates are having trouble with this. That is why it currently converts to stereo. There have been numerous firmware updates in recent weeks. I will re-evaluate again in the near future when all the changes have settled down and try 5.1 AC3 again. Thanks !

 

Interesting.  Also thank you for the very fast reply!

 

Is there a work around to get it to transcode correctly?  My living room has a Sony TV (XBR75X940E) with Android TV built in.  I noticed it plays all my 5.1 files in 5.1 however it appears my DTS files are being passed to my receiver thru the TV as Dolby Digital 5.1.  Is this Emby or the TV doing the format change?  If it's Emby then couldn't the server just send a 5.1 stream in a different format that the Chromecast is happy with?

Edited by Nosferatu
  • Like 1
Link to comment
Share on other sites

Now I think you're just asking the same question in a different way :) so let's circle back to my previous response. Thanks !

Link to comment
Share on other sites

Nosferatu

Now I think you're just asking the same question in a different way :) so let's circle back to my previous response. Thanks !

 

Haha fair enough.  Thanks for the prompt reply regardless!   B)

Link to comment
Share on other sites

  • 2 weeks later...
Guest asrequested

I think this is the same issue, correct me if I'm wrong. I've been experimenting with casting from my phone to my tv, which has the Vizio Smartcast feature. I've raised settings to 4k 120Mb/s, the TV has a very strong wireless connection (high bandwidth), etc. But almost everything I play, transcodes. If I play something that has an AAC stereo track, it direct plays. Everything else does a full transcode.

Link to comment
Share on other sites

That is transcoding due to video level 50 not being supported. To find out on your own why something is transcoding, you can always use the emby server dashboard. Thanks !

Link to comment
Share on other sites

  • 1 month later...
McGregorMX

So, long story short, I switched from Plex to emby because emby does 99% of what I want and Plex barely does 90% of what I want (and it seems like they want to add unnecessary features instead of fix issues).

 

As I'm reading through the forum posts for Android and Chromecast stuff, this is the closest I've seen to the issue I'm having.

 

If I'm reading this correctly, does this mean that emby won't pass dts audio through the chromecast and instead transcodes it? If emby doesn't pass dts audio to the chromecast, is it something that can be done in a future release? Is this a feature of the purchased version (I'm debating between buying emby or buying plex, but I'm heavily leaning emby)? If this is simply a setting, pointing me in the right direction should be enough, although I haven't been able to find anything on my own yet. I did see a post that suggested restarting the chromecast (I can do that when I get home), but I'm not sure it's related to the issue I'm seeing.

 

I can give the only scenario I've tried (just installed last night). I bring up a video on my android device (google pixel), cast to my basement TV, which is connected to a receiver, and watch glorious streaming tv...and then I realize it's only playing a pro-logic type audio (seems like it's 2.1). I try a few other videos and discover it's only happening on content that is using a dts audio track. The next thing I did was dig through settings to see if I can pass it through. Could it also be a setting with the encoder (like ffmpeg) that I can change?

 

I haven't tried this from my web browser, yet, but I intend to test it out when I get home today.

 

Emby server is running on a windows 10 desktop, with a core-i5, to test out if I want to move it to a production linux server or not.

Edited by McGregorMX
Link to comment
Share on other sites

@@McGregorMX, yes because Chromecast does not support DTS, so it has to be converted or you won't get any audio at all.
 

Please let us know if this helps. Thanks.

Link to comment
Share on other sites

McGregorMX

@@Luke Ahh, I see. I loaded it on Plex because I thought it was playing DTS, but it's just being converted from DCA to AC3. For whatever it's worth, it runs quite well on my chromecast ultra. I noticed that you mentioned earlier that it was having a few issues a while back.

Edited by McGregorMX
Link to comment
Share on other sites

Ok we might be able to go back to converting dts to ac3 but that will require a server update so it will take a little time. thanks.

Link to comment
Share on other sites

  • 1 month later...
HaraldBluetooth

Hi, I thought, that this problem already was solved, but Emby Server (3.3.1.2) is still transcoding DTS 5.1 audio in mkv files to stereo to my Chromecast Ultra placed in my Denon AVR-1611 surround receiver.

 

Why isn't it transcoded to AC3 5.1?

 

Here is mediainfo data:

 

Audio
ID                                       : 2
Format                                   : DTS
Format/Info                              : Digital Theater Systems
Codec ID                                 : A_DTS
Duration                                 : 1 h 29 min
Bit rate mode                            : Constant
Bit rate                                 : 1 509 kb/s
Channel(s)                               : 6 channels
Channel positions                        : Front: L C R, Side: L R, LFE
Sampling rate                            : 48.0 kHz
Frame rate                               : 93.750 FPS (512 SPF)
Bit depth                                : 24 bits
Compression mode                         : Lossy
Stream size                              : 963 MiB (22%)
Title                                    : Original
Language                                 : English
Default                                  : Yes
Forced                                   : No
 
Log:
 
2018-03-08 22:18:17.581
Application version: 3.3.1.2
 
 
{"Protocol":"File","Id":"73cf676c249a92214a188a89eb8435bb","Path":"I:\\Film\\Gambit (2012)\\Gambit.2012.720p.BluRay.x264.DTS-WiKi.mkv","Type":"Default","Container":"mkv,webm","Name":"Gambit.2012.720p.BluRay.x264.DTS-WiKi","IsRemote":false,"ETag":"3ea92f178044681c23cf0f8f6654e9e0","RunTimeTicks":53509791744,"ReadAtNativeFramerate":false,"IgnoreDts":false,"IgnoreIndex":false,"GenPtsInput":false,"SupportsTranscoding":true,"SupportsDirectStream":true,"SupportsDirectPlay":true,"IsInfiniteStream":false,"RequiresOpening":false,"RequiresClosing":false,"RequiresLooping":false,"SupportsProbing":true,"VideoType":"VideoFile","MediaStreams":[{"Codec":"h264","Language":"eng","TimeBase":"1/1000","CodecTimeBase":"583/27956","VideoRange":"SDR","DisplayTitle":"720P H264","NalLengthSize":"4","IsInterlaced":false,"IsAVC":true,"BitRate":7012892,"BitDepth":8,"RefFrames":1,"IsDefault":true,"IsForced":false,"Height":544,"Width":1280,"AverageFrameRate":23.9759865,"RealFrameRate":23.9759865,"Profile":"High","Type":"Video","AspectRatio":"2.35:1","Index":0,"IsExternal":false,"IsTextSubtitleStream":false,"SupportsExternalStream":false,"PixelFormat":"yuv420p","Level":41,"IsAnamorphic":false},{"Codec":"dts","Language":"eng","TimeBase":"1/1000","CodecTimeBase":"1/48000","Title":"英语","DisplayTitle":"Eng DTS 5.1 Default","IsInterlaced":false,"ChannelLayout":"5.1","BitRate":1536000,"Channels":6,"SampleRate":48000,"IsDefault":true,"IsForced":false,"Profile":"DTS","Type":"Audio","Index":1,"IsExternal":false,"IsTextSubtitleStream":false,"SupportsExternalStream":false,"Level":0,"IsAnamorphic":false},{"Codec":"srt","Language":"dan","DisplayTitle":"Dan","IsInterlaced":false,"IsDefault":false,"IsForced":false,"Type":"Subtitle","Index":2,"IsExternal":true,"IsTextSubtitleStream":true,"SupportsExternalStream":true,"Path":"I:\\Film\\Gambit (2012)\\Gambit.2012.720p.BluRay.x264.DTS-WiKi.DAN.srt","IsAnamorphic":true}],"Formats":[],"Bitrate":7012892,"RequiredHttpHeaders":{}}
 
User policy for Per: EnablePlaybackRemuxing: True EnableVideoPlaybackTranscoding: False EnableAudioPlaybackTranscoding: True
 
C:\Users\Per\AppData\Roaming\Emby-Server\system\ffmpeg.exe -ss 01:28:55.996 -f matroska,webm -i file:"I:\Film\Gambit (2012)\Gambit.2012.720p.BluRay.x264.DTS-WiKi.mkv" -map 0:0 -map 0:1 -map -0:s -codec:v:0 copy -copyts -avoid_negative_ts disabled -start_at_zero -vsync -1 -map_metadata -1 -map_chapters -1 -threads 0 -codec:a:0 aac -strict experimental -ac 2 -ab 384000  -y "C:\Users\Per\AppData\Roaming\Emby-Server\transcoding-temp\4ed7a3ed594d7b95922c68813ea281c9.mkv"
 
ffmpeg version 3.4.2 Copyright © 2000-2018 the FFmpeg developers
  built with gcc 7.3.0 (GCC)
  configuration: --enable-gpl --enable-version3 --enable-sdl2 --enable-bzlib --enable-fontconfig --enable-gnutls --enable-iconv --enable-libass --enable-libbluray --enable-libfreetype --enable-libmp3lame --enable-libopencore-amrnb --enable-libopencore-amrwb --enable-libopenjpeg --enable-libopus --enable-libshine --enable-libsnappy --enable-libsoxr --enable-libtheora --enable-libtwolame --enable-libvpx --enable-libwavpack --enable-libwebp --enable-libx264 --enable-libx265 --enable-libxml2 --enable-libzimg --enable-lzma --enable-zlib --enable-gmp --enable-libvidstab --enable-libvorbis --enable-libvo-amrwbenc --enable-libmysofa --enable-libspeex --enable-libxvid --enable-libmfx --enable-cuda --enable-cuvid --enable-d3d11va --enable-nvenc --enable-dxva2 --enable-avisynth
  libavutil      55. 78.100 / 55. 78.100
  libavcodec     57.107.100 / 57.107.100
  libavformat    57. 83.100 / 57. 83.100
  libavdevice    57. 10.100 / 57. 10.100
  libavfilter     6.107.100 /  6.107.100
  libswscale      4.  8.100 /  4.  8.100
  libswresample   2.  9.100 /  2.  9.100
  libpostproc    54.  7.100 / 54.  7.100
Input #0, matroska,webm, from 'file:I:\Film\Gambit (2012)\Gambit.2012.720p.BluRay.x264.DTS-WiKi.mkv':
  Metadata:
    encoder         : libebml v0.7.7 + libmatroska v0.8.1
    creation_time   : 2013-03-06T11:52:12.000000Z
  Duration: 01:29:10.98, start: 0.000000, bitrate: 7012 kb/s
    Stream #0:0(eng): Video: h264 (High), yuv420p(progressive), 1280x544, SAR 1:1 DAR 40:17, 23.98 fps, 23.98 tbr, 1k tbn, 47.95 tbc (default)
    Stream #0:1(eng): Audio: dts (DTS), 48000 Hz, 5.1(side), fltp, 1536 kb/s (default)
    Metadata:
      title           : 英语
Stream mapping:
  Stream #0:0 -> #0:0 (copy)
  Stream #0:1 -> #0:1 (dts (dca) -> aac (native))
Press [q] to stop, [?] for help
Output #0, matroska, to 'C:\Users\Per\AppData\Roaming\Emby-Server\transcoding-temp\4ed7a3ed594d7b95922c68813ea281c9.mkv':
  Metadata:
    encoder         : Lavf57.83.100
    Stream #0:0: Video: h264 (High) (H264 / 0x34363248), yuv420p(progressive), 1280x544 [sAR 1:1 DAR 40:17], q=2-31, 23.98 fps, 23.98 tbr, 1k tbn, 1k tbc (default)
    Stream #0:1: Audio: aac (LC) ([255][0][0][0] / 0x00FF), 48000 Hz, stereo, fltp, 384 kb/s (default)
    Metadata:
      encoder         : Lavc57.107.100 aac
frame=  165 fps=0.0 q=-1.0 size=     693kB time=01:28:57.74 bitrate=   1.1kbits/s speed=1.06e+004x    
frame=  211 fps=210 q=-1.0 size=     693kB time=01:28:59.64 bitrate=   1.1kbits/s speed=5.3e+003x    
frame=  253 fps=167 q=-1.0 size=    1442kB time=01:29:01.39 bitrate=   2.2kbits/s speed=3.53e+003x    
frame=  294 fps=146 q=-1.0 size=    1442kB time=01:29:03.12 bitrate=   2.2kbits/s speed=2.65e+003x    
frame=  335 fps=133 q=-1.0 size=    1442kB time=01:29:04.82 bitrate=   2.2kbits/s speed=2.12e+003x    
frame=  372 fps=123 q=-1.0 size=    1828kB time=01:29:06.57 bitrate=   2.8kbits/s speed=1.77e+003x    
frame=  421 fps=120 q=-1.0 size=    1828kB time=01:29:08.41 bitrate=   2.8kbits/s speed=1.52e+003x    
frame=  483 fps=129 q=-1.0 Lsize=    1939kB time=01:29:10.85 bitrate=   3.0kbits/s speed=1.43e+003x    
video:1488kB audio:442kB subtitle:0kB other streams:0kB global headers:0kB muxing overhead: 0.452832%
[aac @ 000001fc58b00860] Qavg: 64949.723
Edited by HaraldBluetooth
Link to comment
Share on other sites

McGregorMX

Is DTS to AAC supposed to be working for chromecast now? I loaded the latest beta version, but it still seems to be converting it to 2.0. I'm probably doing something wrong.

Link to comment
Share on other sites

Is DTS to AAC supposed to be working for chromecast now? I loaded the latest beta version, but it still seems to be converting it to 2.0. I'm probably doing something wrong.

 

Please attach an ffmpeg log, thanks.

Link to comment
Share on other sites

McGregorMX

I hope this is the log you are wanting (don't judge me on the movie...I needed to test it while my daughter was watching), as some additional info, my receiver is showing, "Format = PCM, Channel = 2/0/---, Sampling = 48kHz, Bitrate = ---, Input = HDMI 1080p, Output = HDMI 1080p"

 

2018-03-18 14:44:07.111
Application version: 3.3.1.5

http://192.168.1.18:8096/emby/videos/c1bb4f7c3db3e4d6740bc6c040a05cff/stream.mkv?DeviceId=QmFzZW1lbnQgVFY=&MediaSourceId=c1bb4f7c3db3e4d6740bc6c040a05cff&VideoCodec=h264,h265,hevc,vp8,vp9&AudioCodec=aac,ac3,eac3,mp3,opus,flac,vorbis&AudioStreamIndex=1&VideoBitrate=139616000&AudioBitrate=384000&PlaySessionId=4e1b677f82c94d889639b2e150ef853b&api_key=95cc31d9ba2448a9ba00010ec013ab11&TranscodingMaxAudioChannels=6&CopyTimestamps=true&RequireAvc=true&Tag=813f0500008a570bc0c112d172cbf605&h264-profile=high,main,baseline,constrainedbaseline&h264-level=42&h264-deinterlace=true&aac-audiochannels=2

{"Protocol":"File","Id":"c1bb4f7c3db3e4d6740bc6c040a05cff","Path":"/media/yoda/files/media/flicks/My Little Pony (2017) [1080p]/My Little Pony (2017) [1080p].mkv","Type":"Default","Container":"mkv,webm","Name":"My Little Pony (2017) [1080p]","IsRemote":false,"ETag":"813f0500008a570bc0c112d172cbf605","RunTimeTicks":59549900800,"ReadAtNativeFramerate":false,"IgnoreDts":false,"IgnoreIndex":false,"GenPtsInput":false,"SupportsTranscoding":true,"SupportsDirectStream":true,"SupportsDirectPlay":true,"IsInfiniteStream":false,"RequiresOpening":false,"RequiresClosing":false,"RequiresLooping":false,"SupportsProbing":true,"VideoType":"VideoFile","MediaStreams":[{"Codec":"h264","Language":"eng","TimeBase":"1/1000","CodecTimeBase":"1001/48000","VideoRange":"SDR","DisplayTitle":"1080P H264","NalLengthSize":"4","IsInterlaced":false,"IsAVC":true,"BitRate":38548735,"BitDepth":8,"RefFrames":1,"IsDefault":false,"IsForced":false,"Height":1080,"Width":1920,"AverageFrameRate":23.9760246,"RealFrameRate":23.9760246,"Profile":"High","Type":"Video","AspectRatio":"16:9","Index":0,"IsExternal":false,"IsTextSubtitleStream":false,"SupportsExternalStream":false,"PixelFormat":"yuv420p","Level":41,"IsAnamorphic":false},{"Codec":"dts","Language":"eng","TimeBase":"1/1000","CodecTimeBase":"1/48000","Title":"Surround 5.1","DisplayTitle":"Eng DTS 5.1 Default","IsInterlaced":false,"ChannelLayout":"5.1","BitDepth":24,"Channels":6,"SampleRate":48000,"IsDefault":true,"IsForced":false,"Profile":"DTS-HD MA","Type":"Audio","Index":1,"IsExternal":false,"IsTextSubtitleStream":false,"SupportsExternalStream":false,"Level":0,"IsAnamorphic":false}],"Formats":[],"Bitrate":38548735,"RequiredHttpHeaders":{}}

User policy for mcgregormx: EnablePlaybackRemuxing: True EnableVideoPlaybackTranscoding: True EnableAudioPlaybackTranscoding: True

/opt/emby-server/bin/ffmpeg -f matroska,webm -i file:"/media/yoda/files/media/flicks/My Little Pony (2017) [1080p]/My Little Pony (2017) [1080p].mkv" -map 0:0 -map 0:1 -map -0:s -codec:v:0 copy -copyts -avoid_negative_ts disabled -start_at_zero -vsync -1 -map_metadata -1 -map_chapters -1 -threads 0 -codec:a:0 aac -strict experimental -ac 2 -ab 384000 -af "volume=2" -y "/var/lib/emby/transcoding-temp/80cec5a0be1c2598e593216318b3cdf5.mkv"

ffmpeg version 3.4.2 Copyright © 2000-2018 the FFmpeg developers
built with gcc 6.3.0 (crosstool-NG crosstool-ng-1.23.0)
configuration: --enable-cross-compile --cross-prefix=x86_64-pc-linux-gnu- --cc=x86_64-pc-linux-gnu-gcc --cxx=x86_64-pc-linux-gnu-gcc --arch=x86_64 --prefix=/srv/buildbot/x64/ffmpeg-x64/staging --pkg-config=pkg-config --disable-cuda --disable-cuvid --disable-nvenc --disable-doc --disable-ffplay --disable-ffserver --disable-xlib --enable-fontconfig --enable-gpl --enable-iconv --enable-libass --enable-libfreetype --enable-libfribidi --enable-libmp3lame --enable-libopus --enable-libtheora --enable-libvorbis --enable-libwebp --enable-libx264 --enable-libzvbi --enable-version3 --extra-libs='-ldl -lexpat -lfreetype -lfribidi -lfontconfig -liconv -lpng -lgmp -lhogweed -lnettle -laddns-samba4 -lasn1util-samba4 -lauthkrb5-samba4 -lCHARSET3-samba4 -lcliauth-samba4 -lcli-cldap-samba4 -lcli-ldap-common-samba4 -lcli-nbt-samba4 -lcli-smb-common-samba4 -lcom_err -lcommon-auth-samba4 -ldbwrap-samba4 -ldcerpc-binding -ldcerpc-samba-samba4 -lflag-mapping-samba4 -lgenrand-samba4 -lgensec-samba4 -lgse-samba4 -lgssapi_krb5 -llibcli-lsa3-samba4 -llibsmb-samba4 -linterfaces-samba4 -liov-buf-samba4 -lk5crypto -lkrb5 -lkrb5samba-samba4 -lkrb5support -lldb -lldbsamba-samba4 -lmessages-dgm-samba4 -lmessages-util-samba4 -lmsghdr-samba4 -lmsrpc3-samba4 -lndr -lndr-krb5pac -lndr-nbt -lndr-samba-samba4 -lndr-standard -lreplace-samba4 -lsamba-cluster-support-samba4 -lsamba-credentials -lsamba-debug-samba4 -lsamba-errors -lsamba-hostconfig -lsamba-modules-samba4 -lsamba-security-samba4 -lsamba-sockets-samba4 -lsamba-util -lsamba3-util-samba4 -lsamdb -lsamdb-common-samba4 -lsecrets3-samba4 -lserver-id-db-samba4 -lserver-role-samba4 -lsmbconf -lsmbd-shim-samba4 -lsmb-transport-samba4 -lsocket-blocking-samba4 -lsys-rw-samba4 -ltalloc -ltalloc-report-samba4 -ltdb -ltdb-wrap-samba4 -ltevent -ltevent-util -ltime-basic-samba4 -lutil-cmdline-samba4 -lutil-reg-samba4 -lutil-setid-samba4 -lutil-tdb-samba4 -lwbclient -lwinbind-client-samba4 -ldrm' --target-os=linux --enable-shared --disable-static --enable-gnutls --enable-libsmbclient --enable-vaapi
libavutil 55. 78.100 / 55. 78.100
libavcodec 57.107.100 / 57.107.100
libavformat 57. 83.100 / 57. 83.100
libavdevice 57. 10.100 / 57. 10.100
libavfilter 6.107.100 / 6.107.100
libswscale 4. 8.100 / 4. 8.100
libswresample 2. 9.100 / 2. 9.100
libpostproc 54. 7.100 / 54. 7.100
Input #0, matroska,webm, from 'file:/media/yoda/files/media/flicks/My Little Pony (2017) [1080p]/My Little Pony (2017) [1080p].mkv':
Metadata:
title : My Little Pony (2017) [1080p]
encoder : libmakemkv v1.10.8 (1.3.5/1.4.7) win(x64-release)
creation_time : 2018-01-10T00:31:50.000000Z
Duration: 01:39:14.99, start: 0.000000, bitrate: 38548 kb/s
Chapter #0:0: start 0.000000, end 323.072750
Metadata:
title : Chapter 01
Chapter #0:1: start 323.072750, end 723.139083
Metadata:
title : Chapter 02
Chapter #0:2: start 723.139083, end 1075.532792
Metadata:
title : Chapter 03
Chapter #0:3: start 1075.532792, end 1379.044333
Metadata:
title : Chapter 04
Chapter #0:4: start 1379.044333, end 1824.864708
Metadata:
title : Chapter 05
Chapter #0:5: start 1824.864708, end 2130.336542
Metadata:
title : Chapter 06
Chapter #0:6: start 2130.336542, end 2493.866375
Metadata:
title : Chapter 07
Chapter #0:7: start 2493.866375, end 2783.822708
Metadata:
title : Chapter 08
Chapter #0:8: start 2783.822708, end 3010.841167
Metadata:
title : Chapter 09
Chapter #0:9: start 3010.841167, end 3671.542875
Metadata:
title : Chapter 10
Chapter #0:10: start 3671.542875, end 3863.276083
Metadata:
title : Chapter 11
Chapter #0:11: start 3863.276083, end 4140.886750
Metadata:
title : Chapter 12
Chapter #0:12: start 4140.886750, end 4548.210333
Metadata:
title : Chapter 13
Chapter #0:13: start 4548.210333, end 4824.486333
Metadata:
title : Chapter 14
Chapter #0:14: start 4824.486333, end 5244.072167
Metadata:
title : Chapter 15
Chapter #0:15: start 5244.072167, end 5954.990708
Metadata:
title : Chapter 16
Stream #0:0(eng): Video: h264 (High), yuv420p(progressive), 1920x1080 [sAR 1:1 DAR 16:9], 23.98 fps, 23.98 tbr, 1k tbn, 47.95 tbc
Metadata:
BPS-eng : 34801448
DURATION-eng : 01:39:14.990708333
NUMBER_OF_FRAMES-eng: 142777
NUMBER_OF_BYTES-eng: 25905285037
SOURCE_ID-eng : 001011
_STATISTICS_WRITING_APP-eng: MakeMKV v1.10.8 win(x64-release)
_STATISTICS_WRITING_DATE_UTC-eng: 2018-01-10 00:31:50
_STATISTICS_TAGS-eng: BPS DURATION NUMBER_OF_FRAMES NUMBER_OF_BYTES SOURCE_ID
Stream #0:1(eng): Audio: dts (DTS-HD MA), 48000 Hz, 5.1(side), s32p (24 bit) (default)
Metadata:
title : Surround 5.1
BPS-eng : 3743766
DURATION-eng : 01:39:15.008000000
NUMBER_OF_FRAMES-eng: 558282
NUMBER_OF_BYTES-eng: 2786770044
SOURCE_ID-eng : 001100
_STATISTICS_WRITING_APP-eng: MakeMKV v1.10.8 win(x64-release)
_STATISTICS_WRITING_DATE_UTC-eng: 2018-01-10 00:31:50
_STATISTICS_TAGS-eng: BPS DURATION NUMBER_OF_FRAMES NUMBER_OF_BYTES SOURCE_ID
Stream mapping:
Stream #0:0 -> #0:0 (copy)
Stream #0:1 -> #0:1 (dts (dca) -> aac (native))
Press [q] to stop, [?] for help
Output #0, matroska, to '/var/lib/emby/transcoding-temp/80cec5a0be1c2598e593216318b3cdf5.mkv':
Metadata:
encoder : Lavf57.83.100
Stream #0:0: Video: h264 (High) (H264 / 0x34363248), yuv420p(progressive), 1920x1080 [sAR 1:1 DAR 16:9], q=2-31, 23.98 fps, 23.98 tbr, 1k tbn, 1k tbc
Stream #0:1: Audio: aac (LC) ([255][0][0][0] / 0x00FF), 48000 Hz, stereo, fltp (24 bit), 384 kb/s (default)
Metadata:
encoder : Lavc57.107.100 aac
frame= 53 fps=0.0 q=-1.0 size= 579kB time=00:00:02.21 bitrate=2140.2kbits/s speed= 4.4x
frame= 92 fps= 91 q=-1.0 size= 4143kB time=00:00:03.79 bitrate=8938.5kbits/s speed=3.78x
frame= 127 fps= 84 q=-1.0 size= 12861kB time=00:00:05.24 bitrate=20075.2kbits/s speed=3.49x
frame= 162 fps= 81 q=-1.0 size= 17337kB time=00:00:06.72 bitrate=21134.8kbits/s speed=3.34x
frame= 163 fps= 44 q=-1.0 size= 17337kB time=00:00:06.76 bitrate=21003.5kbits/s speed=1.84x
frame= 173 fps= 41 q=-1.0 size= 21835kB time=00:00:07.16 bitrate=24957.7kbits/s speed=1.72x
frame= 198 fps= 42 q=-1.0 size= 26096kB time=00:00:08.19 bitrate=26099.6kbits/s speed=1.75x
frame= 232 fps= 45 q=-1.0 size= 30466kB time=00:00:09.62 bitrate=25938.5kbits/s speed=1.86x
frame= 261 fps= 46 q=-1.0 size= 34972kB time=00:00:10.90 bitrate=26280.8kbits/s speed=1.92x
frame= 310 fps= 50 q=-1.0 size= 43860kB time=00:00:12.88 bitrate=27882.8kbits/s speed=2.08x
frame= 312 fps= 46 q=-1.0 size= 43860kB time=00:00:12.99 bitrate=27657.4kbits/s speed=1.93x
frame= 346 fps= 48 q=-1.0 size= 52783kB time=00:00:14.35 bitrate=30117.6kbits/s speed=1.98x
frame= 382 fps= 49 q=-1.0 size= 57227kB time=00:00:15.87 bitrate=29538.5kbits/s speed=2.05x
frame= 449 fps= 54 q=-1.0 size= 70619kB time=00:00:18.73 bitrate=30886.9kbits/s speed=2.27x
frame= 558 fps= 64 q=-1.0 size= 82521kB time=00:00:23.25 bitrate=29071.9kbits/s speed=2.66x
frame= 606 fps= 66 q=-1.0 size= 88325kB time=00:00:25.32 bitrate=28574.2kbits/s speed=2.74x
frame= 720 fps= 74 q=-1.0 size= 97632kB time=00:00:29.99 bitrate=26665.4kbits/s speed=3.08x
frame= 733 fps= 68 q=-1.0 size= 97632kB time=00:00:30.50 bitrate=26218.7kbits/s speed=2.84x
frame= 838 fps= 74 q=-1.0 size= 98594kB time=00:00:34.94 bitrate=23114.2kbits/s speed= 3.1x
frame= 924 fps= 76 q=-1.0 size= 101722kB time=00:00:38.44 bitrate=21677.0kbits/s speed=3.16x
frame= 994 fps= 78 q=-1.0 size= 102652kB time=00:00:41.40 bitrate=20308.8kbits/s speed=3.26x
frame= 1058 fps= 80 q=-1.0 size= 105755kB time=00:00:44.07 bitrate=19656.5kbits/s speed=3.34x
frame= 1163 fps= 85 q=-1.0 size= 121493kB time=00:00:48.51 bitrate=20516.5kbits/s speed=3.54x
frame= 1249 fps= 85 q=-1.0 size= 138738kB time=00:00:52.05 bitrate=21834.4kbits/s speed=3.55x
frame= 1307 fps= 86 q=-1.0 size= 147258kB time=00:00:54.46 bitrate=22149.7kbits/s speed=3.59x
frame= 1391 fps= 89 q=-1.0 size= 160675kB time=00:00:58.00 bitrate=22692.0kbits/s speed=3.71x
frame= 1484 fps= 92 q=-1.0 size= 176850kB time=00:01:01.88 bitrate=23410.1kbits/s speed=3.83x
frame= 1578 fps= 91 q=-1.0 size= 194784kB time=00:01:05.76 bitrate=24261.8kbits/s speed=3.81x
frame= 1636 fps= 92 q=-1.0 size= 208280kB time=00:01:08.15 bitrate=25033.1kbits/s speed=3.84x
frame= 1715 fps= 94 q=-1.0 size= 221569kB time=00:01:11.48 bitrate=25390.5kbits/s speed=3.91x
frame= 1773 fps= 94 q=-1.0 size= 227686kB time=00:01:13.85 bitrate=25254.9kbits/s speed=3.93x
frame= 1775 fps= 92 q=-1.0 size= 227686kB time=00:01:14.00 bitrate=25203.4kbits/s speed=3.83x
frame= 1817 fps= 92 q=-1.0 size= 235918kB time=00:01:15.66 bitrate=25540.7kbits/s speed=3.82x
frame= 1854 fps= 91 q=-1.0 size= 244800kB time=00:01:17.29 bitrate=25946.5kbits/s speed= 3.8x
frame= 1916 fps= 92 q=-1.0 size= 253804kB time=00:01:19.89 bitrate=26024.3kbits/s speed=3.83x
frame= 1977 fps= 93 q=-1.0 size= 267292kB time=00:01:22.38 bitrate=26577.0kbits/s speed=3.86x
frame= 2024 fps= 93 q=-1.0 size= 276271kB time=00:01:24.45 bitrate=26796.9kbits/s speed=3.87x
frame= 2087 fps= 93 q=-1.0 size= 284737kB time=00:01:27.06 bitrate=26792.3kbits/s speed= 3.9x
frame= 2159 fps= 94 q=-1.0 size= 298150kB time=00:01:30.02 bitrate=27130.4kbits/s speed=3.94x
frame= 2186 fps= 93 q=-1.0 size= 307075kB time=00:01:31.11 bitrate=27609.0kbits/s speed=3.86x
frame= 2266 fps= 94 q=-1.0 size= 320019kB time=00:01:34.42 bitrate=27764.9kbits/s speed=3.92x
frame= 2351 fps= 95 q=-1.0 size= 333035kB time=00:01:37.98 bitrate=27843.9kbits/s speed=3.98x
frame= 2378 fps= 94 q=-1.0 size= 342039kB time=00:01:39.13 bitrate=28264.3kbits/s speed=3.93x
frame= 2416 fps= 94 q=-1.0 size= 346553kB time=00:01:40.77 bitrate=28170.5kbits/s speed=3.91x
frame= 2473 fps= 94 q=-1.0 size= 360054kB time=00:01:43.10 bitrate=28607.9kbits/s speed=3.92x
frame= 2521 fps= 94 q=-1.0 size= 369080kB time=00:01:45.10 bitrate=28765.4kbits/s speed=3.92x
frame= 2593 fps= 95 q=-1.0 size= 382589kB time=00:01:48.11 bitrate=28988.7kbits/s speed=3.96x
frame= 2642 fps= 95 q=-1.0 size= 391590kB time=00:01:50.14 bitrate=29124.9kbits/s speed=3.95x
frame= 2690 fps= 95 q=-1.0 size= 400591kB time=00:01:52.17 bitrate=29256.0kbits/s speed=3.95x
frame= 2737 fps= 95 q=-1.0 size= 409599kB time=00:01:54.11 bitrate=29405.0kbits/s speed=3.95x
frame= 2810 fps= 96 q=-1.0 size= 423098kB time=00:01:57.18 bitrate=29577.5kbits/s speed=3.98x
frame= 2851 fps= 95 q=-1.0 size= 427600kB time=00:01:58.89 bitrate=29463.4kbits/s speed=3.97x
frame= 2891 fps= 95 q=-1.0 size= 436604kB time=00:02:00.51 bitrate=29678.8kbits/s speed=3.96x
frame= 2936 fps= 95 q=-1.0 size= 445580kB time=00:02:02.49 bitrate=29798.7kbits/s speed=3.96x
frame= 3013 fps= 96 q=-1.0 size= 458130kB time=00:02:05.61 bitrate=29878.2kbits/s speed=3.99x
frame= 3057 fps= 96 q=-1.0 size= 467109kB time=00:02:07.42 bitrate=30030.3kbits/s speed=3.99x
frame= 3114 fps= 96 q=-1.0 size= 476122kB time=00:02:09.85 bitrate=30036.3kbits/s speed= 4x
frame= 3190 fps= 97 q=-1.0 size= 493364kB time=00:02:12.99 bitrate=30390.3kbits/s speed=4.03x
frame= 3258 fps= 97 q=-1.0 size= 506087kB time=00:02:15.85 bitrate=30518.0kbits/s speed=4.06x
frame= 3276 fps= 96 q=-1.0 size= 510613kB time=00:02:16.59 bitrate=30622.5kbits/s speed=4.02x
frame= 3349 fps= 97 q=-1.0 size= 523974kB time=00:02:19.64 bitrate=30737.5kbits/s speed=4.04x
frame= 3397 fps= 97 q=-1.0 size= 532962kB time=00:02:21.67 bitrate=30817.4kbits/s speed=4.04x
frame= 3493 fps= 98 q=-1.0 size= 550927kB time=00:02:25.62 bitrate=30992.7kbits/s speed=4.09x
frame= 3565 fps= 99 q=-1.0 size= 564423kB time=00:02:28.63 bitrate=31109.2kbits/s speed=4.12x
frame= 3603 fps= 98 q=-1.0 size= 568359kB time=00:02:30.25 bitrate=30988.3kbits/s speed=4.11x
frame= 3646 fps= 98 q=-1.0 size= 575822kB time=00:02:32.04 bitrate=31025.2kbits/s speed= 4.1x
frame= 3673 fps= 95 q=-1.0 size= 579593kB time=00:02:33.12 bitrate=31006.7kbits/s speed=3.98x
frame= 3706 fps= 95 q=-1.0 size= 583358kB time=00:02:34.49 bitrate=30932.2kbits/s speed=3.96x
frame= 3746 fps= 95 q=-1.0 size= 593391kB time=00:02:36.22 bitrate=31116.0kbits/s speed=3.96x
frame= 3783 fps= 95 q=-1.0 size= 597871kB time=00:02:37.71 bitrate=31053.9kbits/s speed=3.94x
frame= 3822 fps= 94 q=-1.0 size= 605721kB time=00:02:39.33 bitrate=31142.0kbits/s speed=3.93x
frame= 3831 fps= 92 q=-1.0 size= 609266kB time=00:02:39.72 bitrate=31248.9kbits/s speed=3.85x
frame= 3867 fps= 92 q=-1.0 size= 613728kB time=00:02:41.25 bitrate=31177.8kbits/s speed=3.84x
frame= 3884 fps= 91 q=-1.0 size= 618197kB time=00:02:41.98 bitrate=31264.0kbits/s speed=3.81x
frame= 3923 fps= 91 q=-1.0 size= 622660kB time=00:02:43.56 bitrate=31185.9kbits/s speed=3.81x
frame= 3960 fps= 91 q=-1.0 size= 632346kB time=00:02:45.14 bitrate=31368.2kbits/s speed= 3.8x
frame= 3999 fps= 91 q=-1.0 size= 636825kB time=00:02:46.78 bitrate=31279.6kbits/s speed=3.79x
frame= 4028 fps= 89 q=-1.0 size= 645821kB time=00:02:47.95 bitrate=31499.5kbits/s speed=3.71x
frame= 4058 fps= 89 q=-1.0 size= 650295kB time=00:02:49.21 bitrate=31481.8kbits/s speed= 3.7x
frame= 4100 fps= 89 q=-1.0 size= 655136kB time=00:02:50.94 bitrate=31395.7kbits/s speed=3.69x
frame= 4129 fps= 88 q=-1.0 size= 663574kB time=00:02:52.15 bitrate=31575.4kbits/s speed=3.68x
frame= 4164 fps= 88 q=-1.0 size= 668041kB time=00:02:53.67 bitrate=31510.7kbits/s speed=3.67x
frame= 4203 fps= 88 q=-1.0 size= 674186kB time=00:02:55.29 bitrate=31506.5kbits/s speed=3.67x
frame= 4213 fps= 87 q=-1.0 size= 678577kB time=00:02:55.61 bitrate=31653.9kbits/s speed=3.62x
frame= 4237 fps= 86 q=-1.0 size= 682999kB time=00:02:56.70 bitrate=31664.0kbits/s speed= 3.6x
frame= 4271 fps= 86 q=-1.0 size= 689556kB time=00:02:58.09 bitrate=31719.0kbits/s speed=3.59x
frame= 4291 fps= 86 q=-1.0 size= 693971kB time=00:02:58.96 bitrate=31766.1kbits/s speed=3.57x
frame= 4333 fps= 86 q=-1.0 size= 699366kB time=00:03:00.62 bitrate=31718.1kbits/s speed=3.57x
frame= 4339 fps= 85 q=-1.0 size= 699366kB time=00:03:00.99 bitrate=31654.7kbits/s speed=3.54x
frame= 4366 fps= 85 q=-1.0 size= 707720kB time=00:03:02.07 bitrate=31841.3kbits/s speed=3.53x 

Edited by McGregorMX
Link to comment
Share on other sites

  • 1 month later...
Harbinger1080

Are there any plans to address this soon?

 

3.3.1.6+. The latest beta is 3.3.1.7. Thanks.

Link to comment
Share on other sites

I haven't had a chance to respond to your other topic yet but i will just delete that now since we can use this one. Thanks.

  • Like 1
Link to comment
Share on other sites

Create an account or sign in to comment

You need to be a member in order to leave a comment

Create an account

Sign up for a new account in our community. It's easy!

Register a new account

Sign in

Already have an account? Sign in here.

Sign In Now
 Share

×
×
  • Create New...