Jump to content
rafinha

there was an error playing the video

Recommended Posts

rafinha

Hi guys,

 

Recently I'm getting some issues with some mkv and also with some avi files.

http://www.lalala.com:8096/emby/videos/cc2c06a5a89684b65b2bb537830d8281/hls1/main/0.ts?DeviceId=04e623de3cccde817a76b811b2e7c1cec7d245c8&MediaSourceId=cc2c06a5a89684b65b2bb537830d8281&VideoCodec=h264&AudioCodec=aac&AudioStreamIndex=1&VideoBitrate=9776000&AudioBitrate=224000&Level=51&Profile=high&PlaySessionId=25b4a9cc19c74163918288ccfbebaf1b&api_key=5b2368b0e14841a089204cf3617b61a0&CopyTimestamps=false&TranscodingMaxAudioChannels=6&EnableSubtitlesInManifest=false&Tag=54a77eae154a2423713fef8d9fd3d2f3&RequireAvc=true

{"Protocol":"File","Id":"cc2c06a5a89684b65b2bb537830d8281","Path":"/var/lib/emby-server/encfs/Movies/The Accountant (2016).mkv","Type":"Default","Container":"mkv","Name":"1080P/H264/AC3","ETag":"54a77eae154a2423713fef8d9fd3d2f3","RunTimeTicks":76742623232,"ReadAtNativeFramerate":false,"SupportsTranscoding":true,"SupportsDirectStream":true,"SupportsDirectPlay":true,"IsInfiniteStream":false,"RequiresOpening":false,"RequiresClosing":false,"SupportsProbing":true,"VideoType":"VideoFile","MediaStreams":[{"Codec":"h264","TimeBase":"1/1000","CodecTimeBase":"583/27956","NalLengthSize":"4","IsInterlaced":false,"IsAVC":true,"BitRate":2399974,"BitDepth":8,"RefFrames":4,"IsDefault":true,"IsForced":false,"Height":800,"Width":1904,"AverageFrameRate":23.97599,"RealFrameRate":23.97599,"Profile":"High","Type":"Video","AspectRatio":"2.40:1","Index":0,"IsExternal":false,"IsTextSubtitleStream":false,"SupportsExternalStream":false,"PixelFormat":"yuv420p","Level":41,"IsAnamorphic":false},{"Codec":"ac3","Language":"por","TimeBase":"1/1000","CodecTimeBase":"1/48000","Title":"AC3 - 5.1 By: lalala","DisplayTitle":"Por AC3 - 5.1 By: lalala","IsInterlaced":false,"ChannelLayout":"5.1","BitRate":224000,"Channels":6,"SampleRate":48000,"IsDefault":true,"IsForced":true,"Type":"Audio","Index":1,"IsExternal":false,"IsTextSubtitleStream":false,"SupportsExternalStream":false,"Level":0,"IsAnamorphic":false},{"Codec":"aac","Language":"eng","TimeBase":"1/1000","CodecTimeBase":"1/48000","Title":"AAC - 2.0 By: lalala","DisplayTitle":"Eng AAC - 2.0 By: lalala","IsInterlaced":false,"ChannelLayout":"stereo","Channels":2,"SampleRate":48000,"IsDefault":false,"IsForced":false,"Profile":"LC","Type":"Audio","Index":2,"IsExternal":false,"IsTextSubtitleStream":false,"SupportsExternalStream":false,"Level":0,"IsAnamorphic":false},{"Codec":"srt","DisplayTitle":"","IsInterlaced":false,"IsDefault":false,"IsForced":false,"Type":"Subtitle","Index":3,"IsExternal":true,"IsTextSubtitleStream":true,"SupportsExternalStream":true,"Path":"/var/lib/emby-server/encfs/Movies/The Accountant (2016).srt","IsAnamorphic":true}],"PlayableStreamFileNames":[],"Formats":[],"Bitrate":2623974,"RequiredHttpHeaders":{}}

/usr/bin/ffmpeg -i file:"/var/lib/emby-server/encfs/Movies/The Accountant (2016).mkv" -map_metadata -1 -map_chapters -1 -threads 0 -map 0:0 -map 0:1 -map -0:s -codec:v:0 copy -bsf:v h264_mp4toannexb -flags -global_header -copyts -codec:a:0 aac -strict experimental -ac 6 -ab 224000 -af "adelay=1,aresample=async=1" -max_delay 5000000 -avoid_negative_ts disabled -start_at_zero -hls_time 6 -start_number 0 -hls_list_size 0 -y "/var/lib/emby-server/transcoding-temp/22308946ced9c9595115b55989744116.m3u8"


ffmpeg version 2.8.10-0ubuntu0.16.04.1 Copyright (c) 2000-2016 the FFmpeg developers
  built with gcc 5.4.0 (Ubuntu 5.4.0-6ubuntu1~16.04.4) 20160609
  configuration: --prefix=/usr --extra-version=0ubuntu0.16.04.1 --build-suffix=-ffmpeg --toolchain=hardened --libdir=/usr/lib/x86_64-linux-gnu --incdir=/usr/include/x86_64-linux-gnu --cc=cc --cxx=g++ --enable-gpl --enable-shared --disable-stripping --disable-decoder=libopenjpeg --disable-decoder=libschroedinger --enable-avresample --enable-avisynth --enable-gnutls --enable-ladspa --enable-libass --enable-libbluray --enable-libbs2b --enable-libcaca --enable-libcdio --enable-libflite --enable-libfontconfig --enable-libfreetype --enable-libfribidi --enable-libgme --enable-libgsm --enable-libmodplug --enable-libmp3lame --enable-libopenjpeg --enable-libopus --enable-libpulse --enable-librtmp --enable-libschroedinger --enable-libshine --enable-libsnappy --enable-libsoxr --enable-libspeex --enable-libssh --enable-libtheora --enable-libtwolame --enable-libvorbis --enable-libvpx --enable-libwavpack --enable-libwebp --enable-libx265 --enable-libxvid --enable-libzvbi --enable-openal --enable-opengl --enable-x11grab --enable-libdc1394 --enable-libiec61883 --enable-libzmq --enable-frei0r --enable-libx264 --enable-libopencv
  WARNING: library configuration mismatch
  avcodec     configuration: --prefix=/usr --extra-version=0ubuntu0.16.04.1 --build-suffix=-ffmpeg --toolchain=hardened --libdir=/usr/lib/x86_64-linux-gnu --incdir=/usr/include/x86_64-linux-gnu --cc=cc --cxx=g++ --enable-gpl --enable-shared --disable-stripping --disable-decoder=libopenjpeg --disable-decoder=libschroedinger --enable-avresample --enable-avisynth --enable-gnutls --enable-ladspa --enable-libass --enable-libbluray --enable-libbs2b --enable-libcaca --enable-libcdio --enable-libflite --enable-libfontconfig --enable-libfreetype --enable-libfribidi --enable-libgme --enable-libgsm --enable-libmodplug --enable-libmp3lame --enable-libopenjpeg --enable-libopus --enable-libpulse --enable-librtmp --enable-libschroedinger --enable-libshine --enable-libsnappy --enable-libsoxr --enable-libspeex --enable-libssh --enable-libtheora --enable-libtwolame --enable-libvorbis --enable-libvpx --enable-libwavpack --enable-libwebp --enable-libx265 --enable-libxvid --enable-libzvbi --enable-openal --enable-opengl --enable-x11grab --enable-libdc1394 --enable-libiec61883 --enable-libzmq --enable-frei0r --enable-libx264 --enable-libopencv --enable-version3 --disable-doc --disable-programs --disable-avdevice --disable-avfilter --disable-avformat --disable-avresample --disable-postproc --disable-swscale --enable-libopencore_amrnb --enable-libopencore_amrwb --enable-libvo_aacenc --enable-libvo_amrwbenc
  libavutil      54. 31.100 / 54. 31.100
  libavcodec     56. 60.100 / 56. 60.100
  libavformat    56. 40.101 / 56. 40.101
  libavdevice    56.  4.100 / 56.  4.100
  libavfilter     5. 40.101 /  5. 40.101
  libavresample   2.  1.  0 /  2.  1.  0
  libswscale      3.  1.101 /  3.  1.101
  libswresample   1.  2.101 /  1.  2.101
  libpostproc    53.  3.100 / 53.  3.100
Input #0, matroska,webm, from 'file:/var/lib/emby-server/encfs/Movies/The Accountant (2016).mkv':
  Metadata:
    title           : By: lalala
    encoder         : libebml v1.2.3 + libmatroska v1.3.0
    creation_time   : 2016-12-25 00:00:54
  Duration: 02:07:54.26, start: 0.000000, bitrate: 2399 kb/s
    Stream #0:0: Video: h264 (High), yuv420p, 1904x800 [SAR 1:1 DAR 119:50], 23.98 fps, 23.98 tbr, 1k tbn, 47.95 tbc (default)
    Stream #0:1(por): Audio: ac3, 48000 Hz, 5.1(side), fltp, 224 kb/s (default) (forced)
    Metadata:
      title           : AC3 - 5.1 By: lalala
    Stream #0:2(eng): Audio: aac (LC), 48000 Hz, stereo, fltp
    Metadata:
      title           : AAC - 2.0 By: lalala
Output #0, hls, to '/var/lib/emby-server/transcoding-temp/22308946ced9c9595115b55989744116.m3u8':
  Metadata:
    encoder         : Lavf56.40.101
    Stream #0:0: Video: h264, yuv420p, 1904x800 [SAR 1:1 DAR 119:50], q=2-31, 23.98 fps, 23.98 tbr, 90k tbn, 23.98 tbc (default)
    Stream #0:1: Audio: aac, 48000 Hz, 5.1, fltp, 224 kb/s (default) (forced)
    Metadata:
      encoder         : Lavc56.60.100 aac
Stream mapping:
  Stream #0:0 -> #0:0 (copy)
  Stream #0:1 -> #0:1 (ac3 (native) -> aac (native))
Press [q] to stop, [?] for help
frame=  207 fps=0.0 q=-1.0 size=N/A time=00:00:08.74 bitrate=N/A    
frame=  469 fps=468 q=-1.0 size=N/A time=00:00:19.75 bitrate=N/A    
frame=  772 fps=513 q=-1.0 size=N/A time=00:00:32.34 bitrate=N/A    
frame= 1064 fps=530 q=-1.0 size=N/A time=00:00:44.58 bitrate=N/A    
frame= 1318 fps=526 q=-1.0 size=N/A time=00:00:55.12 bitrate=N/A    
frame= 1573 fps=523 q=-1.0 size=N/A time=00:01:05.68 bitrate=N/A    
frame= 1852 fps=528 q=-1.0 size=N/A time=00:01:17.41 bitrate=N/A    
frame= 2082 fps=519 q=-1.0 size=N/A time=00:01:26.89 bitrate=N/A    
frame= 2280 fps=505 q=-1.0 size=N/A time=00:01:35.14 bitrate=N/A    
frame= 2545 fps=508 q=-1.0 size=N/A time=00:01:46.21 bitrate=N/A    
frame= 2831 fps=514 q=-1.0 size=N/A time=00:01:58.10 bitrate=N/A    
frame= 3100 fps=516 q=-1.0 size=N/A time=00:02:09.30 bitrate=N/A    

Here is my log, not sure what is the problem.

 

Anybody can help me?

 

 

Thanks

 

;)

Share this post


Link to post
Share on other sites
Luke

Hi, the log looks OK. What app are you trying to play from?

Share this post


Link to post
Share on other sites
rafinha

I'm getting the pop up message:

 

"there was an error playing the video"

 

The funny thing is, if I go to my Ipad and play, this videos works.

Share this post


Link to post
Share on other sites
frankw

I am also getting this occasionally, happens when using Chrome with the web client. I will post a log next time it happens. Does not happen with NVIDIA Shield/Kodi, so is a web client thing.

 

Edit: sometimes the audio starts playing, with the error displayed on the screen (and no video).

Edited by frankw
  • Like 1

Share this post


Link to post
Share on other sites
rafinha

Yes same here, sometimes the audio starts, but pop the error and doesn't show the video.

 

 

I did the test with the same video using "Microsoft Edge" and works, looks like is a chrome problem.

Edited by rafinha

Share this post


Link to post
Share on other sites
blastbass

Hello,

 

I have the same problem. Problem with some videos only on chrome. No problem on Edge or on android app/LG app.

 

I've see this error on the logs:

 

 

 

2017-01-09 09:16:26.4304 Error HttpServer: Error processing request
    *** Error Report ***
    Version: 3.1.2.0
    Command line: /usr/lib/emby-server/bin/MediaBrowser.Server.Mono.exe -programdata /config -ffmpeg /bin/ffmpeg -ffprobe /bin/ffprobe -restartpath /usr/lib/emby-server/restart.sh
    Operating system: Unix 3.14.32.6
    64-Bit OS: True
    64-Bit Process: True
    Mono: 4.6.2 (Stable 4.6.2.7/08fd525 Mon Nov 21 15:56:40 UTC 2016)
    Processor count: 4
    Program data path: /config
    Application directory: /usr/lib/emby-server/bin
    System.IO.IOException: Unable to write data to the transport connection: Connection reset by peer. ---> System.Net.Sockets.SocketException: Connection reset by peer
     at System.Net.Sockets.Socket.EndSend (System.IAsyncResult result) [0x00033] in <bd46d4d4f7964dfa9beea098499ab597>:0
     at System.Net.Sockets.NetworkStream.EndWrite (System.IAsyncResult asyncResult) [0x0005f] in <bd46d4d4f7964dfa9beea098499ab597>:0
     --- End of inner exception stack trace ---
     at System.Net.Sockets.NetworkStream.EndWrite (System.IAsyncResult asyncResult) [0x000af] in <bd46d4d4f7964dfa9beea098499ab597>:0
     at System.IO.Stream.<BeginEndWriteAsync>m__8 (System.IO.Stream stream, System.IAsyncResult asyncResult) [0x00000] in <8f2c484307284b51944a1a13a14c0266>:0
     at (wrapper delegate-invoke) System.Func`3[system.IO.Stream,System.IAsyncResult,System.Threading.Tasks.VoidTaskResult]:invoke_TResult_T1_T2 (System.IO.Stream,System.IAsyncResult)
     at System.Threading.Tasks.TaskFactory`1+FromAsyncTrimPromise`1[TResult,TInstance].Complete (TInstance thisRef, System.Func`3[T1,T2,TResult] endMethod, System.IAsyncResult asyncResult, System.Boolean requiresSynchronization) [0x00002] in <8f2c484307284b51944a1a13a14c0266>:0
    --- End of stack trace from previous location where exception was thrown ---
     at System.Runtime.ExceptionServices.ExceptionDispatchInfo.Throw () [0x0000c] in <8f2c484307284b51944a1a13a14c0266>:0
     at System.Runtime.CompilerServices.TaskAwaiter.ThrowForNonSuccess (System.Threading.Tasks.Task task) [0x0004e] in <8f2c484307284b51944a1a13a14c0266>:0
     at System.Runtime.CompilerServices.TaskAwaiter.HandleNonSuccessAndDebuggerNotification (System.Threading.Tasks.Task task) [0x0002e] in <8f2c484307284b51944a1a13a14c0266>:0
     at System.Runtime.CompilerServices.TaskAwaiter.ValidateEnd (System.Threading.Tasks.Task task) [0x0000b] in <8f2c484307284b51944a1a13a14c0266>:0
     at System.Runtime.CompilerServices.ConfiguredTaskAwaitable+ConfiguredTaskAwaiter.GetResult () [0x00000] in <8f2c484307284b51944a1a13a14c0266>:0
     at SocketHttpListener.Net.ResponseStream+<WriteAsync>c__async0.MoveNext () [0x0020c] in <b95bb480f67e4723bc930e5ac02dc79f>:0
    --- End of stack trace from previous location where exception was thrown ---
     at System.Runtime.ExceptionServices.ExceptionDispatchInfo.Throw () [0x0000c] in <8f2c484307284b51944a1a13a14c0266>:0
     at System.Runtime.CompilerServices.TaskAwaiter.ThrowForNonSuccess (System.Threading.Tasks.Task task) [0x0004e] in <8f2c484307284b51944a1a13a14c0266>:0
     at System.Runtime.CompilerServices.TaskAwaiter.HandleNonSuccessAndDebuggerNotification (System.Threading.Tasks.Task task) [0x0002e] in <8f2c484307284b51944a1a13a14c0266>:0
     at System.Runtime.CompilerServices.TaskAwaiter.ValidateEnd (System.Threading.Tasks.Task task) [0x0000b] in <8f2c484307284b51944a1a13a14c0266>:0
     at System.Runtime.CompilerServices.ConfiguredTaskAwaitable+ConfiguredTaskAwaiter.GetResult () [0x00000] in <8f2c484307284b51944a1a13a14c0266>:0
     at System.IO.Stream+<CopyToAsyncInternal>c__async0.MoveNext () [0x0009b] in <8f2c484307284b51944a1a13a14c0266>:0
    --- End of stack trace from previous location where exception was thrown ---
     at System.Runtime.ExceptionServices.ExceptionDispatchInfo.Throw () [0x0000c] in <8f2c484307284b51944a1a13a14c0266>:0
     at System.Runtime.CompilerServices.TaskAwaiter.ThrowForNonSuccess (System.Threading.Tasks.Task task) [0x0004e] in <8f2c484307284b51944a1a13a14c0266>:0
     at System.Runtime.CompilerServices.TaskAwaiter.HandleNonSuccessAndDebuggerNotification (System.Threading.Tasks.Task task) [0x0002e] in <8f2c484307284b51944a1a13a14c0266>:0
     at System.Runtime.CompilerServices.TaskAwaiter.ValidateEnd (System.Threading.Tasks.Task task) [0x0000b] in <8f2c484307284b51944a1a13a14c0266>:0
     at System.Runtime.CompilerServices.ConfiguredTaskAwaitable+ConfiguredTaskAwaiter.GetResult () [0x00000] in <8f2c484307284b51944a1a13a14c0266>:0
     at Emby.Server.Implementations.HttpServer.RangeRequestWriter+<WriteToAsync>c__async0.MoveNext () [0x000eb] in <94cb9849d4534920b1b6cc233e9f2dbd>:0
    --- End of stack trace from previous location where exception was thrown ---
     at System.Runtime.ExceptionServices.ExceptionDispatchInfo.Throw () [0x0000c] in <8f2c484307284b51944a1a13a14c0266>:0
     at System.Runtime.CompilerServices.TaskAwaiter.ThrowForNonSuccess (System.Threading.Tasks.Task task) [0x0004e] in <8f2c484307284b51944a1a13a14c0266>:0
     at System.Runtime.CompilerServices.TaskAwaiter.HandleNonSuccessAndDebuggerNotification (System.Threading.Tasks.Task task) [0x0002e] in <8f2c484307284b51944a1a13a14c0266>:0
     at System.Runtime.CompilerServices.TaskAwaiter.ValidateEnd (System.Threading.Tasks.Task task) [0x0000b] in <8f2c484307284b51944a1a13a14c0266>:0
     at System.Runtime.CompilerServices.ConfiguredTaskAwaitable+ConfiguredTaskAwaiter.GetResult () [0x00000] in <8f2c484307284b51944a1a13a14c0266>:0
     at ServiceStack.HttpResponseExtensionsInternal+<WriteToOutputStream>c__async0.MoveNext () [0x000a6] in <eaf6c545840d4e8a8d2971c7a6b76dd0>:0
    --- End of stack trace from previous location where exception was thrown ---
     at System.Runtime.ExceptionServices.ExceptionDispatchInfo.Throw () [0x0000c] in <8f2c484307284b51944a1a13a14c0266>:0
     at System.Runtime.CompilerServices.TaskAwaiter.ThrowForNonSuccess (System.Threading.Tasks.Task task) [0x0004e] in <8f2c484307284b51944a1a13a14c0266>:0
     at System.Runtime.CompilerServices.TaskAwaiter.HandleNonSuccessAndDebuggerNotification (System.Threading.Tasks.Task task) [0x0002e] in <8f2c484307284b51944a1a13a14c0266>:0
     at System.Runtime.CompilerServices.TaskAwaiter.ValidateEnd (System.Threading.Tasks.Task task) [0x0000b] in <8f2c484307284b51944a1a13a14c0266>:0
     at System.Runtime.CompilerServices.ConfiguredTaskAwaitable`1+ConfiguredTaskAwaiter[TResult].GetResult () [0x00000] in <8f2c484307284b51944a1a13a14c0266>:0
     at ServiceStack.HttpResponseExtensionsInternal+<WriteToResponseInternal>c__async1.MoveNext () [0x002d1] in <eaf6c545840d4e8a8d2971c7a6b76dd0>:0
    --- End of stack trace from previous location where exception was thrown ---
     at System.Runtime.ExceptionServices.ExceptionDispatchInfo.Throw () [0x0000c] in <8f2c484307284b51944a1a13a14c0266>:0
     at System.Runtime.CompilerServices.TaskAwaiter.ThrowForNonSuccess (System.Threading.Tasks.Task task) [0x0004e] in <8f2c484307284b51944a1a13a14c0266>:0
     at System.Runtime.CompilerServices.TaskAwaiter.HandleNonSuccessAndDebuggerNotification (System.Threading.Tasks.Task task) [0x0002e] in <8f2c484307284b51944a1a13a14c0266>:0
     at System.Runtime.CompilerServices.TaskAwaiter.ValidateEnd (System.Threading.Tasks.Task task) [0x0000b] in <8f2c484307284b51944a1a13a14c0266>:0
     at System.Runtime.CompilerServices.ConfiguredTaskAwaitable+ConfiguredTaskAwaiter.GetResult () [0x00000] in <8f2c484307284b51944a1a13a14c0266>:0
     at ServiceStack.Host.RestHandler+<ProcessRequestAsync>c__async1.MoveNext () [0x00253] in <eaf6c545840d4e8a8d2971c7a6b76dd0>:0
    --- End of stack trace from previous location where exception was thrown ---
     at System.Runtime.ExceptionServices.ExceptionDispatchInfo.Throw () [0x0000c] in <8f2c484307284b51944a1a13a14c0266>:0
     at System.Runtime.CompilerServices.TaskAwaiter.ThrowForNonSuccess (System.Threading.Tasks.Task task) [0x0004e] in <8f2c484307284b51944a1a13a14c0266>:0
     at System.Runtime.CompilerServices.TaskAwaiter.HandleNonSuccessAndDebuggerNotification (System.Threading.Tasks.Task task) [0x0002e] in <8f2c484307284b51944a1a13a14c0266>:0
     at System.Runtime.CompilerServices.TaskAwaiter.ValidateEnd (System.Threading.Tasks.Task task) [0x0000b] in <8f2c484307284b51944a1a13a14c0266>:0
     at System.Runtime.CompilerServices.ConfiguredTaskAwaitable+ConfiguredTaskAwaiter.GetResult () [0x00000] in <8f2c484307284b51944a1a13a14c0266>:0
     at Emby.Server.Implementations.HttpServer.HttpListenerHost+<RequestHandler>c__async0.MoveNext () [0x00668] in <94cb9849d4534920b1b6cc233e9f2dbd>:0
    System.IO.IOException
     at System.Net.Sockets.NetworkStream.EndWrite (System.IAsyncResult asyncResult) [0x000af] in <bd46d4d4f7964dfa9beea098499ab597>:0
     at System.IO.Stream.<BeginEndWriteAsync>m__8 (System.IO.Stream stream, System.IAsyncResult asyncResult) [0x00000] in <8f2c484307284b51944a1a13a14c0266>:0
     at (wrapper delegate-invoke) System.Func`3[system.IO.Stream,System.IAsyncResult,System.Threading.Tasks.VoidTaskResult]:invoke_TResult_T1_T2 (System.IO.Stream,System.IAsyncResult)
     at System.Threading.Tasks.TaskFactory`1+FromAsyncTrimPromise`1[TResult,TInstance].Complete (TInstance thisRef, System.Func`3[T1,T2,TResult] endMethod, System.IAsyncResult asyncResult, System.Boolean requiresSynchronization) [0x00002] in <8f2c484307284b51944a1a13a14c0266>:0
    --- End of stack trace from previous location where exception was thrown ---
     at System.Runtime.ExceptionServices.ExceptionDispatchInfo.Throw () [0x0000c] in <8f2c484307284b51944a1a13a14c0266>:0
     at System.Runtime.CompilerServices.TaskAwaiter.ThrowForNonSuccess (System.Threading.Tasks.Task task) [0x0004e] in <8f2c484307284b51944a1a13a14c0266>:0
     at System.Runtime.CompilerServices.TaskAwaiter.HandleNonSuccessAndDebuggerNotification (System.Threading.Tasks.Task task) [0x0002e] in <8f2c484307284b51944a1a13a14c0266>:0
     at System.Runtime.CompilerServices.TaskAwaiter.ValidateEnd (System.Threading.Tasks.Task task) [0x0000b] in <8f2c484307284b51944a1a13a14c0266>:0
     at System.Runtime.CompilerServices.ConfiguredTaskAwaitable+ConfiguredTaskAwaiter.GetResult () [0x00000] in <8f2c484307284b51944a1a13a14c0266>:0
     at SocketHttpListener.Net.ResponseStream+<WriteAsync>c__async0.MoveNext () [0x0020c] in <b95bb480f67e4723bc930e5ac02dc79f>:0
    --- End of stack trace from previous location where exception was thrown ---
     at System.Runtime.ExceptionServices.ExceptionDispatchInfo.Throw () [0x0000c] in <8f2c484307284b51944a1a13a14c0266>:0
     at System.Runtime.CompilerServices.TaskAwaiter.ThrowForNonSuccess (System.Threading.Tasks.Task task) [0x0004e] in <8f2c484307284b51944a1a13a14c0266>:0
     at System.Runtime.CompilerServices.TaskAwaiter.HandleNonSuccessAndDebuggerNotification (System.Threading.Tasks.Task task) [0x0002e] in <8f2c484307284b51944a1a13a14c0266>:0
     at System.Runtime.CompilerServices.TaskAwaiter.ValidateEnd (System.Threading.Tasks.Task task) [0x0000b] in <8f2c484307284b51944a1a13a14c0266>:0
     at System.Runtime.CompilerServices.ConfiguredTaskAwaitable+ConfiguredTaskAwaiter.GetResult () [0x00000] in <8f2c484307284b51944a1a13a14c0266>:0
     at System.IO.Stream+<CopyToAsyncInternal>c__async0.MoveNext () [0x0009b] in <8f2c484307284b51944a1a13a14c0266>:0
    --- End of stack trace from previous location where exception was thrown ---
     at System.Runtime.ExceptionServices.ExceptionDispatchInfo.Throw () [0x0000c] in <8f2c484307284b51944a1a13a14c0266>:0
     at System.Runtime.CompilerServices.TaskAwaiter.ThrowForNonSuccess (System.Threading.Tasks.Task task) [0x0004e] in <8f2c484307284b51944a1a13a14c0266>:0
     at System.Runtime.CompilerServices.TaskAwaiter.HandleNonSuccessAndDebuggerNotification (System.Threading.Tasks.Task task) [0x0002e] in <8f2c484307284b51944a1a13a14c0266>:0
     at System.Runtime.CompilerServices.TaskAwaiter.ValidateEnd (System.Threading.Tasks.Task task) [0x0000b] in <8f2c484307284b51944a1a13a14c0266>:0
     at System.Runtime.CompilerServices.ConfiguredTaskAwaitable+ConfiguredTaskAwaiter.GetResult () [0x00000] in <8f2c484307284b51944a1a13a14c0266>:0
     at Emby.Server.Implementations.HttpServer.RangeRequestWriter+<WriteToAsync>c__async0.MoveNext () [0x000eb] in <94cb9849d4534920b1b6cc233e9f2dbd>:0
    --- End of stack trace from previous location where exception was thrown ---
     at System.Runtime.ExceptionServices.ExceptionDispatchInfo.Throw () [0x0000c] in <8f2c484307284b51944a1a13a14c0266>:0
     at System.Runtime.CompilerServices.TaskAwaiter.ThrowForNonSuccess (System.Threading.Tasks.Task task) [0x0004e] in <8f2c484307284b51944a1a13a14c0266>:0
     at System.Runtime.CompilerServices.TaskAwaiter.HandleNonSuccessAndDebuggerNotification (System.Threading.Tasks.Task task) [0x0002e] in <8f2c484307284b51944a1a13a14c0266>:0
     at System.Runtime.CompilerServices.TaskAwaiter.ValidateEnd (System.Threading.Tasks.Task task) [0x0000b] in <8f2c484307284b51944a1a13a14c0266>:0
     at System.Runtime.CompilerServices.ConfiguredTaskAwaitable+ConfiguredTaskAwaiter.GetResult () [0x00000] in <8f2c484307284b51944a1a13a14c0266>:0
     at ServiceStack.HttpResponseExtensionsInternal+<WriteToOutputStream>c__async0.MoveNext () [0x000a6] in <eaf6c545840d4e8a8d2971c7a6b76dd0>:0
    --- End of stack trace from previous location where exception was thrown ---
     at System.Runtime.ExceptionServices.ExceptionDispatchInfo.Throw () [0x0000c] in <8f2c484307284b51944a1a13a14c0266>:0
     at System.Runtime.CompilerServices.TaskAwaiter.ThrowForNonSuccess (System.Threading.Tasks.Task task) [0x0004e] in <8f2c484307284b51944a1a13a14c0266>:0
     at System.Runtime.CompilerServices.TaskAwaiter.HandleNonSuccessAndDebuggerNotification (System.Threading.Tasks.Task task) [0x0002e] in <8f2c484307284b51944a1a13a14c0266>:0
     at System.Runtime.CompilerServices.TaskAwaiter.ValidateEnd (System.Threading.Tasks.Task task) [0x0000b] in <8f2c484307284b51944a1a13a14c0266>:0
     at System.Runtime.CompilerServices.ConfiguredTaskAwaitable`1+ConfiguredTaskAwaiter[TResult].GetResult () [0x00000] in <8f2c484307284b51944a1a13a14c0266>:0
     at ServiceStack.HttpResponseExtensionsInternal+<WriteToResponseInternal>c__async1.MoveNext () [0x002d1] in <eaf6c545840d4e8a8d2971c7a6b76dd0>:0
    --- End of stack trace from previous location where exception was thrown ---
     at System.Runtime.ExceptionServices.ExceptionDispatchInfo.Throw () [0x0000c] in <8f2c484307284b51944a1a13a14c0266>:0
     at System.Runtime.CompilerServices.TaskAwaiter.ThrowForNonSuccess (System.Threading.Tasks.Task task) [0x0004e] in <8f2c484307284b51944a1a13a14c0266>:0
     at System.Runtime.CompilerServices.TaskAwaiter.HandleNonSuccessAndDebuggerNotification (System.Threading.Tasks.Task task) [0x0002e] in <8f2c484307284b51944a1a13a14c0266>:0
     at System.Runtime.CompilerServices.TaskAwaiter.ValidateEnd (System.Threading.Tasks.Task task) [0x0000b] in <8f2c484307284b51944a1a13a14c0266>:0
     at System.Runtime.CompilerServices.ConfiguredTaskAwaitable+ConfiguredTaskAwaiter.GetResult () [0x00000] in <8f2c484307284b51944a1a13a14c0266>:0
     at ServiceStack.Host.RestHandler+<ProcessRequestAsync>c__async1.MoveNext () [0x00253] in <eaf6c545840d4e8a8d2971c7a6b76dd0>:0
    --- End of stack trace from previous location where exception was thrown ---
     at System.Runtime.ExceptionServices.ExceptionDispatchInfo.Throw () [0x0000c] in <8f2c484307284b51944a1a13a14c0266>:0
     at System.Runtime.CompilerServices.TaskAwaiter.ThrowForNonSuccess (System.Threading.Tasks.Task task) [0x0004e] in <8f2c484307284b51944a1a13a14c0266>:0
     at System.Runtime.CompilerServices.TaskAwaiter.HandleNonSuccessAndDebuggerNotification (System.Threading.Tasks.Task task) [0x0002e] in <8f2c484307284b51944a1a13a14c0266>:0
     at System.Runtime.CompilerServices.TaskAwaiter.ValidateEnd (System.Threading.Tasks.Task task) [0x0000b] in <8f2c484307284b51944a1a13a14c0266>:0
     at System.Runtime.CompilerServices.ConfiguredTaskAwaitable+ConfiguredTaskAwaiter.GetResult () [0x00000] in <8f2c484307284b51944a1a13a14c0266>:0
     at Emby.Server.Implementations.HttpServer.HttpListenerHost+<RequestHandler>c__async0.MoveNext () [0x00668] in <94cb9849d4534920b1b6cc233e9f2dbd>:0
    InnerException: System.Net.Sockets.SocketException
    System.Net.Sockets.SocketException (0x80004005): Connection reset by peer
     at System.Net.Sockets.Socket.EndSend (System.IAsyncResult result) [0x00033] in <bd46d4d4f7964dfa9beea098499ab597>:0
     at System.Net.Sockets.NetworkStream.EndWrite (System.IAsyncResult asyncResult) [0x0005f] in <bd46d4d4f7964dfa9beea098499ab597>:0
     at System.Net.Sockets.Socket.EndSend (System.IAsyncResult result) [0x00033] in <bd46d4d4f7964dfa9beea098499ab597>:0
     at System.Net.Sockets.NetworkStream.EndWrite (System.IAsyncResult asyncResult) [0x0005f] in <bd46d4d4f7964dfa9beea098499ab597>:0

Share this post


Link to post
Share on other sites
blastbass

Just a precision, un run Emby server on debian 8 via Docker.

 

No other bugs for the moment ....

Share this post


Link to post
Share on other sites
Luke

Hi @@blastbass, we're sorry to hear about this. In order for us to best help you, please attach the complete Emby server log as well as the associated ffmpeg log from the playback attempt. thanks !

Share this post


Link to post
Share on other sites
blastbass

Hi @@blastbass, we're sorry to hear about this. In order for us to best help you, please attach the complete Emby server log as well as the associated ffmpeg log from the playback attempt. thanks !

 

Hello, please find my log. You can see my test @9h35, BUT, if you see, i have no log from FFMPEG for this file: Miss.Peregrine's.Home.for.Peculiar.Children.2016.MULTi.TRUEFRENCH.720p.HDLight.x264-BSD.mkv

On the FFMPEG log, you can see only my previous test, positive, with the file Kickboxer.Vengeance.2016.FRENCH.BDRip.XviD-AM84.avi

 

FFFmpeg did not run ?

 

http://37.59.46.50:8080/owncloud/index.php/s/ANdHsDyTx4AmD8y

Share this post


Link to post
Share on other sites
Luke

Are you sure the 9:35 test was the same file? the url has .mkv in it. 

 

Can you provide a sample avi for testing? thanks !

Share this post


Link to post
Share on other sites
blastbass

Yes, sure.

 

You can find here 2 file with this problem:

 

http://37.59.46.50:8080/owncloud/index.php/s/WhzTxvOOGsd2zMX

 

and http://37.59.46.50:8080/owncloud/index.php/s/GtenpJC5hnNMDtN

 

I have check the file (with and without space, or special character) and no problem with files permissions. The problem is only on chrome (PC // Version 55.0.2883.87 m).

 

Just for comparison, please find my logs with the same file playing, but on EDGE : no problems and no problem with app embedded (android//Samsung//LG_ScreenShare//ChromeCast).

 

http://37.59.46.50:8080/owncloud/index.php/s/xmKMHSmHlcOM83q

Share this post


Link to post
Share on other sites
Luke

Hi @@blastbass, thanks, i've downloaded them. how do i reproduce the problem? right now i have them both playing in Chrome with no issues. Thanks !

Share this post


Link to post
Share on other sites
Luke

Having this same error. Can stream via IE11 fine, but can't on Chrome 55.0.2883.87 m (64-bit)

 

Logs:

https://drive.google.com/drive/folders/0B45WEAqGgUhUWUFCa2g5UnQxYmM?usp=sharing

 

@@talo897, there is a regression introduced in ffmpeg 3.2 that is affecting us. We have submitted a patch that will be included in the next ffmpeg version. For now, you need to use an earlier version, such as 3.1. If it helps here is a copy of 2.8:

 

https://github.com/MediaBrowser/Emby.Resources/tree/master/ffmpeg/linux

 

Our fix might also be included in the nightly build here but i have not personally verified:

 

https://www.johnvansickle.com/ffmpeg/

 

Let us know if this helps. thanks.

  • Like 1

Share this post


Link to post
Share on other sites
blastbass

Is the same issue ?

 

I use emby via docker, you will update in the next release ?

Share this post


Link to post
Share on other sites
Luke

Yes

Share this post


Link to post
Share on other sites
blastbass

Thanks you very much for your support :)

Share this post


Link to post
Share on other sites
rafinha

I update to the latest ffmpeg relase (01-13-2017), I still have the same problem with the same video. :(

Edited by rafinha

Share this post


Link to post
Share on other sites
talo897

@@talo897, there is a regression introduced in ffmpeg 3.2 that is affecting us. We have submitted a patch that will be included in the next ffmpeg version. For now, you need to use an earlier version, such as 3.1. If it helps here is a copy of 2.8:

 

https://github.com/MediaBrowser/Emby.Resources/tree/master/ffmpeg/linux

 

Our fix might also be included in the nightly build here but i have not personally verified:

 

https://www.johnvansickle.com/ffmpeg/

 

Let us know if this helps. thanks.

 

thanks for the response. i have just been using IE until the issue is resolved.

Share this post


Link to post
Share on other sites
Luke

Thanks for confirming.

Share this post


Link to post
Share on other sites
rafinha

Same issue happening with avi files:

http://www.teste.com:8096/emby/videos/8704790b9380659f00867466eabc511c/hls1/main/2.ts?DeviceId=04e623de3cccde817a76b811b2e7c1cec7d245c8&MediaSourceId=8704790b9380659f00867466eabc511c&VideoCodec=h264&AudioCodec=aac&AudioStreamIndex=1&VideoBitrate=9872000&AudioBitrate=128000&Level=51&Profile=high&PlaySessionId=6dfbdcd0f3244eaba4d176181ccad806&api_key=5b2368b0e14841a089204cf3617b61a0&CopyTimestamps=false&TranscodingMaxAudioChannels=6&EnableSubtitlesInManifest=false&Tag=4b664f80e17a23e58ea30021cc98d88e&RequireAvc=true

{"Protocol":"File","Id":"8704790b9380659f00867466eabc511c","Path":"/var/lib/emby-server/encfs/Cartoon/Futurama (1999)/01/Futurama S01E01.avi","Type":"Default","Container":"avi","Name":"SD/MPEG4/MP3","ETag":"4b664f80e17a23e58ea30021cc98d88e","RunTimeTicks":13506839552,"ReadAtNativeFramerate":false,"SupportsTranscoding":true,"SupportsDirectStream":true,"SupportsDirectPlay":true,"IsInfiniteStream":false,"RequiresOpening":false,"RequiresClosing":false,"SupportsProbing":true,"VideoType":"VideoFile","MediaStreams":[{"Codec":"mpeg4","CodecTag":"XVID","TimeBase":"125/2997","CodecTimeBase":"1001/24000","IsInterlaced":false,"BitRate":947318,"RefFrames":1,"IsDefault":false,"IsForced":false,"Height":416,"Width":624,"AverageFrameRate":23.976,"RealFrameRate":23.976,"Profile":"Advanced Simple Profile","Type":"Video","AspectRatio":"1.5:1","Index":0,"IsExternal":false,"IsTextSubtitleStream":false,"SupportsExternalStream":false,"PixelFormat":"yuv420p","Level":5,"IsAnamorphic":false},{"Codec":"mp3","TimeBase":"3/125","CodecTimeBase":"1/48000","DisplayTitle":"MP3 stereo","IsInterlaced":false,"ChannelLayout":"stereo","BitRate":128000,"Channels":2,"SampleRate":48000,"IsDefault":false,"IsForced":false,"Type":"Audio","Index":1,"IsExternal":false,"IsTextSubtitleStream":false,"SupportsExternalStream":false,"Level":0,"IsAnamorphic":false}],"PlayableStreamFileNames":[],"Formats":[],"Bitrate":1084653,"RequiredHttpHeaders":{}}

/usr/bin/ffmpeg -ss 00:00:06.000 -i file:"/var/lib/emby-server/encfs/Cartoon/Futurama (1999)/01/Futurama S01E01.avi" -map_metadata -1 -map_chapters -1 -threads 0 -map 0:0 -map 0:1 -map -0:s -codec:v:0 libx264 -pix_fmt yuv420p -preset veryfast -crf 23 -tune zerolatency -maxrate 947318 -bufsize 1894636 -vsync -1 -profile:v high -level 4.1 -force_key_frames "expr:gte(t,n_forced*3)" -vf "scale=trunc(min(max(iw\,ih*dar)\,720)/2)*2:trunc(ow/dar/2)*2" -flags -global_header -copyts -codec:a:0 aac -strict experimental -ac 2 -ab 128000 -af "adelay=1,aresample=async=1" -max_delay 5000000 -avoid_negative_ts disabled -start_at_zero -hls_time 3 -start_number 2 -hls_list_size 0 -y "/var/lib/emby-server/transcoding-temp/9a2740815b802b045067bc4a25541f58.m3u8"


ffmpeg version N-83096-g6596b34954-static http://johnvansickle.com/ffmpeg/  Copyright (c) 2000-2017 the FFmpeg developers
  built with gcc 5.4.1 (Debian 5.4.1-4) 20161202
  configuration: --enable-gpl --enable-version3 --enable-static --disable-debug --disable-ffplay --disable-indev=sndio --disable-outdev=sndio --cc=gcc-5 --enable-fontconfig --enable-frei0r --enable-gnutls --enable-gray --enable-libass --enable-libfreetype --enable-libfribidi --enable-libmp3lame --enable-libopencore-amrnb --enable-libopencore-amrwb --enable-libopenjpeg --enable-libopus --enable-librtmp --enable-libsoxr --enable-libspeex --enable-libtheora --enable-libvidstab --enable-libvo-amrwbenc --enable-libvorbis --enable-libvpx --enable-libwebp --enable-libx264 --enable-libx265 --enable-libxvid --enable-libzimg
  libavutil      55. 43.100 / 55. 43.100
  libavcodec     57. 72.100 / 57. 72.100
  libavformat    57. 62.100 / 57. 62.100
  libavdevice    57.  2.100 / 57.  2.100
  libavfilter     6. 69.100 /  6. 69.100
  libswscale      4.  3.101 /  4.  3.101
  libswresample   2.  4.100 /  2.  4.100
  libpostproc    54.  2.100 / 54.  2.100
Input #0, avi, from 'file:/var/lib/emby-server/encfs/Cartoon/Futurama (1999)/01/Futurama S01E01.avi':
  Metadata:
    encoder         : FairUse Wizard - http://fairusewizard.com
  Duration: 00:22:30.68, start: 0.000000, bitrate: 1084 kb/s
    Stream #0:0: Video: mpeg4 (Advanced Simple Profile) (XVID / 0x44495658), yuv420p, 624x416 [SAR 1:1 DAR 3:2], 947 kb/s, 23.98 fps, 23.98 tbr, 23.98 tbn, 23.98 tbc
    Stream #0:1: Audio: mp3 (U[0][0][0] / 0x0055), 48000 Hz, stereo, s16p, 128 kb/s
[libx264 @ 0x4149600] using SAR=1/1
[libx264 @ 0x4149600] using cpu capabilities: MMX2 SSE2Fast SSSE3 SSE4.2 AVX FMA3 AVX2 LZCNT BMI2
[libx264 @ 0x4149600] profile High, level 4.1
Output #0, hls, to '/var/lib/emby-server/transcoding-temp/9a2740815b802b045067bc4a25541f58.m3u8':
  Metadata:
    encoder         : Lavf57.62.100
    Stream #0:0: Video: h264 (libx264), yuv420p, 624x416 [SAR 1:1 DAR 3:2], q=-1--1, 23.98 fps, 90k tbn, 23.98 tbc
    Metadata:
      encoder         : Lavc57.72.100 libx264
    Side data:
      cpb: bitrate max/min/avg: 947000/0/0 buffer size: 1894000 vbv_delay: -1
    Stream #0:1: Audio: aac (LC), 48000 Hz, stereo, fltp, 128 kb/s
    Metadata:
      encoder         : Lavc57.72.100 aac
Stream mapping:
  Stream #0:0 -> #0:0 (mpeg4 (native) -> h264 (libx264))
  Stream #0:1 -> #0:1 (mp3 (native) -> aac (native))
Press [q] to stop, [?] for help
frame=    0 fps=0.0 q=0.0 size=N/A time=00:00:06.08 bitrate=N/A speed=7.31x    
[hls @ 0x4136dc0] hls->dpp = [0.041711]
frame=   62 fps= 46 q=19.0 size=N/A time=00:00:09.11 bitrate=N/A speed=6.83x    
frame=  138 fps= 75 q=19.0 size=N/A time=00:00:12.31 bitrate=N/A speed=6.71x    
frame=  253 fps=108 q=21.0 size=N/A time=00:00:17.09 bitrate=N/A speed=7.31x    
frame=  320 fps=113 q=23.0 size=N/A time=00:00:19.88 bitrate=N/A speed=7.01x    
frame=  380 fps=114 q=21.0 size=N/A time=00:00:22.40 bitrate=N/A speed=6.71x    
frame=  464 fps=121 q=20.0 size=N/A time=00:00:25.92 bitrate=N/A speed=6.76x    
frame=  489 fps=111 q=18.0 size=N/A time=00:00:26.92 bitrate=N/A speed=6.13x    
frame=  524 fps=107 q=18.0 size=N/A time=00:00:28.37 bitrate=N/A speed=5.78x    
frame=  571 fps=106 q=24.0 size=N/A time=00:00:30.36 bitrate=N/A speed=5.61x    
frame=  623 fps=104 q=18.0 size=N/A time=00:00:32.51 bitrate=N/A speed=5.45x    
frame=  691 fps=106 q=21.0 size=N/A time=00:00:35.35 bitrate=N/A speed=5.43x    
frame=  759 fps=108 q=23.0 size=N/A time=00:00:38.21 bitrate=N/A speed=5.45x    
frame=  795 fps=106 q=26.0 size=N/A time=00:00:39.68 bitrate=N/A speed=5.28x    
frame=  858 fps=107 q=19.0 size=N/A time=00:00:42.33 bitrate=N/A speed=5.28x    
frame=  921 fps=108 q=25.0 size=N/A time=00:00:44.95 bitrate=N/A speed=5.28x    
frame=  956 fps=106 q=19.0 size=N/A time=00:00:46.40 bitrate=N/A speed=5.14x    
frame= 1016 fps=106 q=25.0 size=N/A time=00:00:48.90 bitrate=N/A speed=5.12x    
frame= 1042 fps=104 q=26.0 size=N/A time=00:00:49.98 bitrate=N/A speed=4.97x    
frame= 1055 fps=100 q=29.0 size=N/A time=00:00:50.54 bitrate=N/A speed=4.78x    
frame= 1068 fps= 96 q=29.0 size=N/A time=00:00:51.07 bitrate=N/A speed= 4.6x    
frame= 1123 fps= 97 q=18.0 size=N/A time=00:00:53.38 bitrate=N/A speed= 4.6x    
frame= 1205 fps= 99 q=18.0 size=N/A time=00:00:56.79 bitrate=N/A speed=4.69x    
frame= 1271 fps=101 q=21.0 size=N/A time=00:00:59.54 bitrate=N/A speed=4.72x    
frame= 1311 fps=100 q=23.0 size=N/A time=00:01:01.25 bitrate=N/A speed=4.67x    
frame= 1369 fps=101 q=21.0 size=N/A time=00:01:03.64 bitrate=N/A speed=4.67x    
frame= 1443 fps=102 q=22.0 size=N/A time=00:01:06.71 bitrate=N/A speed=4.69x    
frame= 1503 fps=102 q=22.0 size=N/A time=00:01:09.23 bitrate=N/A speed=4.71x    
frame= 1533 fps=101 q=21.0 size=N/A time=00:01:10.49 bitrate=N/A speed=4.63x    
frame= 1585 fps=101 q=25.0 size=N/A time=00:01:12.64 bitrate=N/A speed=4.61x    
frame= 1643 fps=101 q=16.0 size=N/A time=00:01:15.09 bitrate=N/A speed=4.62x    
frame= 1736 fps=103 q=24.0 size=N/A time=00:01:18.93 bitrate=N/A speed= 4.7x    
frame= 1794 fps=103 q=17.0 size=N/A time=00:01:21.34 bitrate=N/A speed=4.69x    
frame= 1845 fps=103 q=18.0 size=N/A time=00:01:23.48 bitrate=N/A speed=4.67x    
frame= 1944 fps=106 q=24.0 size=N/A time=00:01:27.62 bitrate=N/A speed=4.77x    
frame= 2027 fps=107 q=16.0 size=N/A time=00:01:31.07 bitrate=N/A speed=4.83x    
frame= 2104 fps=109 q=20.0 size=N/A time=00:01:34.29 bitrate=N/A speed=4.87x    
frame= 2184 fps=110 q=17.0 size=N/A time=00:01:37.62 bitrate=N/A speed=4.91x    
frame= 2252 fps=111 q=23.0 size=N/A time=00:01:40.46 bitrate=N/A speed=4.93x    
frame= 2301 fps=110 q=21.0 size=N/A time=00:01:42.49 bitrate=N/A speed=4.88x    
frame= 2366 fps=110 q=17.0 size=N/A time=00:01:45.22 bitrate=N/A speed=4.89x    
frame= 2405 fps=109 q=22.0 size=N/A time=00:01:46.82 bitrate=N/A speed=4.85x    
frame= 2431 fps=108 q=22.0 size=N/A time=00:01:47.93 bitrate=N/A speed=4.79x    
frame= 2461 fps=106 q=21.0 size=N/A time=00:01:49.16 bitrate=N/A speed=4.72x    
frame= 2507 fps=106 q=17.0 size=N/A time=00:01:51.08 bitrate=N/A speed= 4.7x    
frame= 2573 fps=107 q=20.0 size=N/A time=00:01:53.86 bitrate=N/A speed=4.72x    
frame= 2627 fps=107 q=23.0 size=N/A time=00:01:56.08 bitrate=N/A speed=4.71x    
frame= 2669 fps=106 q=24.0 size=N/A time=00:01:57.85 bitrate=N/A speed=4.69x    
frame= 2714 fps=106 q=17.0 size=N/A time=00:01:59.72 bitrate=N/A speed=4.67x    
frame= 2800 fps=107 q=16.0 size=N/A time=00:02:03.31 bitrate=N/A speed=4.72x    
frame= 2860 fps=107 q=17.0 size=N/A time=00:02:05.82 bitrate=N/A speed=4.72x    
frame= 2928 fps=108 q=19.0 size=N/A time=00:02:08.68 bitrate=N/A speed=4.74x    
frame= 2997 fps=108 q=26.0 size=N/A time=00:02:11.54 bitrate=N/A speed=4.76x    
frame= 3058 fps=108 q=22.0 size=N/A time=00:02:14.08 bitrate=N/A speed=4.75x    
frame= 3079 fps=107 q=28.0 size=N/A time=00:02:14.93 bitrate=N/A speed=4.69x    
frame= 3091 fps=105 q=33.0 size=N/A time=00:02:15.45 bitrate=N/A speed=4.62x    
frame= 3117 fps=105 q=34.0 size=N/A time=00:02:16.53 bitrate=N/A speed=4.58x    
frame= 3205 fps=106 q=23.0 size=N/A time=00:02:20.20 bitrate=N/A speed=4.62x    
frame= 3282 fps=106 q=21.0 size=N/A time=00:02:23.42 bitrate=N/A speed=4.65x    
frame= 3356 fps=107 q=24.0 size=N/A time=00:02:26.50 bitrate=N/A speed=4.68x    
frame= 3410 fps=107 q=22.0 size=N/A time=00:02:28.76 bitrate=N/A speed=4.67x    
frame= 3498 fps=108 q=18.0 size=N/A time=00:02:32.41 bitrate=N/A speed=4.71x    
frame= 3594 fps=109 q=25.0 size=N/A time=00:02:36.42 bitrate=N/A speed=4.76x    
frame= 3679 fps=110 q=22.0 size=N/A time=00:02:39.98 bitrate=N/A speed= 4.8x    
frame= 3776 fps=112 q=19.0 size=N/A time=00:02:44.03 bitrate=N/A speed=4.85x    
frame= 3848 fps=112 q=22.0 size=N/A time=00:02:47.04 bitrate=N/A speed=4.86x    
frame= 3934 fps=113 q=24.0 size=N/A time=00:02:50.60 bitrate=N/A speed= 4.9x    
frame= 3984 fps=113 q=24.0 size=N/A time=00:02:52.69 bitrate=N/A speed=4.89x    
frame= 4037 fps=113 q=25.0 size=N/A time=00:02:54.91 bitrate=N/A speed=4.88x    
frame= 4091 fps=113 q=23.0 size=N/A time=00:02:57.15 bitrate=N/A speed=4.87x    
frame= 4147 fps=112 q=24.0 size=N/A time=00:02:59.48 bitrate=N/A speed=4.87x    
frame= 4207 fps=113 q=24.0 size=N/A time=00:03:02.02 bitrate=N/A speed=4.87x    
frame= 4277 fps=113 q=20.0 size=N/A time=00:03:04.92 bitrate=N/A speed=4.88x    
frame= 4365 fps=114 q=23.0 size=N/A time=00:03:08.59 bitrate=N/A dup=8 drop=0 speed=4.91x    
frame= 4416 fps=114 q=25.0 size=N/A time=00:03:10.72 bitrate=N/A dup=8 drop=0 speed=4.91x    
frame= 4471 fps=114 q=25.0 size=N/A time=00:03:13.00 bitrate=N/A dup=8 drop=0 speed= 4.9x    
frame= 4519 fps=113 q=31.0 size=N/A time=00:03:15.01 bitrate=N/A dup=8 drop=0 speed=4.89x    
frame= 4571 fps=113 q=33.0 size=N/A time=00:03:17.18 bitrate=N/A dup=8 drop=0 speed=4.88x    
frame= 4622 fps=113 q=35.0 size=N/A time=00:03:19.32 bitrate=N/A dup=8 drop=0 speed=4.87x    
frame= 4683 fps=113 q=31.0 size=N/A time=00:03:21.84 bitrate=N/A dup=8 drop=0 speed=4.88x    
frame= 4743 fps=113 q=28.0 size=N/A time=00:03:24.35 bitrate=N/A dup=8 drop=0 speed=4.88x    
frame= 4792 fps=113 q=34.0 size=N/A time=00:03:26.36 bitrate=N/A dup=8 drop=0 speed=4.87x    
frame= 4853 fps=113 q=32.0 size=N/A time=00:03:28.94 bitrate=N/A dup=8 drop=0 speed=4.87x    
frame= 4919 fps=113 q=29.0 size=N/A time=00:03:31.69 bitrate=N/A dup=8 drop=0 speed=4.88x    
frame= 4983 fps=113 q=29.0 size=N/A time=00:03:34.36 bitrate=N/A dup=8 drop=0 speed=4.88x    
frame= 5056 fps=114 q=21.0 size=N/A time=00:03:37.43 bitrate=N/A dup=8 drop=0 speed= 4.9x    
frame= 5145 fps=115 q=20.0 size=N/A time=00:03:41.12 bitrate=N/A dup=8 drop=0 speed=4.92x    
frame= 5230 fps=115 q=21.0 size=N/A time=00:03:44.66 bitrate=N/A dup=8 drop=0 speed=4.95x    
frame= 5319 fps=116 q=22.0 size=N/A time=00:03:48.35 bitrate=N/A dup=8 drop=0 speed=4.97x    
frame= 5410 fps=117 q=18.0 size=N/A time=00:03:52.15 bitrate=N/A dup=8 drop=0 speed=   5x    
frame= 5501 fps=117 q=25.0 size=N/A time=00:03:55.97 bitrate=N/A dup=8 drop=0 speed=5.03x    
frame= 5575 fps=118 q=21.0 size=N/A time=00:03:59.04 bitrate=N/A dup=8 drop=0 speed=5.04x    
frame= 5666 fps=118 q=17.0 size=N/A time=00:04:02.84 bitrate=N/A dup=8 drop=0 speed=5.07x    
frame= 5758 fps=119 q=21.0 size=N/A time=00:04:06.68 bitrate=N/A dup=8 drop=0 speed=5.09x    
frame= 5833 fps=119 q=20.0 size=N/A time=00:04:09.81 bitrate=N/A dup=8 drop=0 speed=5.11x    

Share this post


Link to post
Share on other sites
talo897

I can actually play MKV files (the ones I have right now) through Chrome with no issues.

Edited by talo897
  • Like 1

Share this post


Link to post
Share on other sites
Luke

Thanks for the info !

Share this post


Link to post
Share on other sites

Create an account or sign in to comment

You need to be a member in order to leave a comment

Create an account

Sign up for a new account in our community. It's easy!

Register a new account

Sign in

Already have an account? Sign in here.

Sign In Now

×
×
  • Create New...