Jump to content

Search the Community

Showing results for tags 'green'.

  • Search By Tags

    Type tags separated by commas.
  • Search By Author

Content Type


Forums

  • General
    • Announcements
    • Emby Premiere Purchase/Subscription Support
    • Feature Requests
    • Tutorials and Guides
  • Emby Server
    • General/Windows
    • Android Server
    • Asustor
    • FreeBSD
    • Linux
    • NetGear ReadyNAS
    • MacOS
    • QNAP
    • Synology
    • TerraMaster NAS
    • Thecus
    • Western Digital
    • DLNA
    • Live TV
  • Emby Apps
    • Amazon Alexa
    • Android Mobile
    • Android TV / Fire TV
    • Emby Theater
    • iOS
    • Apple TV
    • Kodi
    • Raspberry Pi
    • Roku
    • Samsung Smart TV
    • Sony PlayStation
    • LG Smart TV
    • Web App
    • Windows Media Center
    • Plugins
  • Language-specific support
    • Arabic
    • Dutch
    • French
    • German
    • Italian
    • Portuguese
    • Russian
    • Spanish
    • Swedish
  • Community Contributions
    • Ember for Emby
    • Fan Art & Videos
    • Tools and Utilities
    • Web App CSS
  • Other
    • General Discussion
    • Developer API
    • Hardware
    • Media Clubs
    • Legacy Support

Blogs

  • Emby Blog

Find results in...

Find results that contain...


Date Created

  • Start

    End


Last Updated

  • Start

    End


Filter by number of...

Found 2 results

  1. Kimballslice1890

    Nexus 9 Playback Issues

    I have a Nexus 9 32GB LTE (International Version [use it as wifi only though]). I like to use the tablet on road trips to watch my Emby content. I have the Emby app installed. Whenever trying to stream content on the Nexus 9, I regularly get a green and pink jumbled image or it is very choppy... like a low framerate and the video is way behind the audio. The only temporary solution I found for this is to force the quality to 720p -1mbps. Anything higher than that will cause it to be choppy or green... is anyone else having this issue that can recommend a solution? when setting the quality that low on a 9 inch screen it is definitely noticeable. Seems to be unique to Emby, Netflix and Plex work fine on any quality. Tethered internet bandwidth isnt an issue either, usually getting 10-50mbps
  2. android-808

    NowTV (Black) Playback Corruption.

    I'm experiencing playback corruption on a number of files, including some I have encoded myself using Handbrake on Windows 7 64bit. Each file has certain points where the display goes green, patterened, pixelated or combination of all of them. I have previously managed to watch episodes without any issues but unfortunately can't report on server/app versions for when it worked. All affected files contain the original audio tracks, in AC3, which is transcoded to MP3 during playback. The NowTV box is the black version, a year old in November. Tested running the 2.24 using the zip from git (https://github.com/MediaBrowser/Emby.Roku/commit/0532b60bcf527ee28514b2824216145d7e5650fc#diff-5675ec54b0bef0ab64130c1e50db42de) and tried against latest snapshot (https://github.com/MediaBrowser/Emby.Roku/commit/055226cec08e20aba5a1c5bab3ed329687ac7843) Server side, tested using 3.0.6070 and 3.1.127, using both ffmpeg 20160410 included in package and 20160827 from ffmpeg site. All files playback flawlessly in VLC (numerous versions up to current stable) and on 1st gen WD Elements Play 2TB. Using Emby via DLNA they work fine on both PS4 (Video copy, audio transcoded to aac) and Sony BDV-E780W bluray (Audio copy, h264 (native) > mpeg2video (native)). As such, I don't think its a problem with the file itself. One on file I have used ffmpeg to replace the audio with aac stereo as a test and it utilises DirectPlay and works fine. I'm going to do a little more digging before posting more logs, but here are the file details and transcode logs from ffmpeg 20160410 and 20160827 in case anyone can see something obvious. Will test first to see if reverting mp3 codec back to aac in capabilities.brs, causing it to reproduce output used for PS4, has a positive effect. Format : Matroska Format version : Version 2 File size : 339 MiB Duration : 23 min Overall bit rate : 2 012 kb/s Writing application : HandBrake 0.9.9 Writing library : libmkv 0.6.5 Video ID : 1 Format : AVC Format/Info : Advanced Video Codec Format profile : High@L4.1 Format settings, CABAC : Yes Format settings, ReFrames : 4 frames Codec ID : V_MPEG4/ISO/AVC Duration : 23 min Bit rate : 1 780 kb/s Width : 720 pixels Height : 404 pixels Display aspect ratio : 16:9 Frame rate mode : Constant Frame rate : 23.976 (24000/1001) FPS Color space : YUV Chroma subsampling : 4:2:0 Bit depth : 8 bits Scan type : Progressive Bits/(Pixel*Frame) : 0.255 Stream size : 300 MiB (88%) Writing library : x264 core 130 r2273 b3065e6 Encoding settings : cabac=1 / ref=2 / deblock=1:0:0 / analyse=0x3:0x113 / me=hex / subme=6 / psy=1 / psy_rd=1.00:0.00 / mixed_ref=1 / me_range=16 / chroma_me=1 / trellis=1 / 8x8dct=1 / cqm=0 / deadzone=21,11 / fast_pskip=1 / chroma_qp_offset=-2 / threads=6 / lookahead_threads=1 / sliced_threads=0 / nr=0 / decimate=1 / interlaced=0 / bluray_compat=0 / constrained_intra=0 / bframes=3 / b_pyramid=2 / b_adapt=1 / b_bias=0 / direct=1 / weightb=1 / open_gop=0 / weightp=1 / keyint=240 / keyint_min=24 / scenecut=40 / intra_refresh=0 / rc_lookahead=30 / rc=crf / mbtree=1 / crf=18.0 / qcomp=0.60 / qpmin=0 / qpmax=69 / qpstep=4 / vbv_maxrate=62500 / vbv_bufsize=78125 / crf_max=0.0 / nal_hrd=none / ip_ratio=1.40 / aq=1:1.00 Language : English Default : Yes Forced : No Color range : Limited Color primaries : BT.601 NTSC Transfer characteristics : BT.709 Matrix coefficients : BT.601 Audio ID : 2 Format : AC-3 Format/Info : Audio Coding 3 Mode extension : CM (complete main) Format settings, Endianness : Big Codec ID : A_AC3 Duration : 23 min Bit rate mode : Constant Bit rate : 192 kb/s Channel(s) : 2 channels Channel positions : Front: L R Sampling rate : 48.0 kHz Frame rate : 31.250 FPS (1536 spf) Compression mode : Lossy Stream size : 32.3 MiB (10%) Default : Yes Forced : No http://192.168.1.79:8096/emby/videos/4d10b23b52cd20a33f210d27f8551331/hls1/main/0.ts?DeviceId=32557H079136&MediaSourceId=4d10b23b52cd20a33f210d27f8551331&VideoCodec=h264&AudioCodec=mp3,aac&AudioStreamIndex=1&VideoBitrate=29872000&AudioBitrate=128000&MaxAudioChannels=2&MaxFramerate=30&MaxWidth=1920&MaxHeight=1080&Level=50&MaxRefFrames=15&MaxVideoBitDepth=8&Profile=high&PlaySessionId=0b7349659f324403858f82fb4a68ae72&api_key=687ceefc5aec4ab28102e619c840b72c&CopyTimestamps=false&ForceLiveStream=false&EnableSubtitlesInManifest=false&Tag=fe7550ef3a5fb8eb9632ff1b6fa2686c {"Protocol":"File","Id":"4d10b23b52cd20a33f210d27f8551331","Path":"G:\\Media Library\\TV\\Series Name\\Season 3\\2. Episode Name.mkv","Type":"Default","Container":"mkv","Name":"480P/H264/AC3","ETag":"fe7550ef3a5fb8eb9632ff1b6fa2686c","RunTimeTicks":14123280000,"ReadAtNativeFramerate":false,"SupportsTranscoding":true,"SupportsDirectStream":true,"SupportsDirectPlay":true,"RequiresOpening":false,"RequiresClosing":false,"VideoType":"VideoFile","MediaStreams":[{"Codec":"h264","Language":"eng","IsInterlaced":false,"BitRate":2011784,"BitDepth":8,"RefFrames":4,"IsDefault":true,"IsForced":false,"Height":404,"Width":720,"AverageFrameRate":23.97602,"RealFrameRate":23.97602,"Profile":"High","Type":"Video","AspectRatio":"16:9","Index":0,"IsExternal":false,"IsTextSubtitleStream":false,"SupportsExternalStream":false,"PixelFormat":"yuv420p","Level":41,"IsAnamorphic":false},{"Codec":"ac3","DisplayTitle":"Dolby Digital stereo Default","IsInterlaced":false,"ChannelLayout":"stereo","BitRate":192000,"Channels":2,"SampleRate":48000,"IsDefault":true,"IsForced":false,"Type":"Audio","Index":1,"IsExternal":false,"IsTextSubtitleStream":false,"SupportsExternalStream":false,"Level":0}],"PlayableStreamFileNames":[],"Formats":[],"Bitrate":2011784,"RequiredHttpHeaders":{}} C:\Users\Robert\AppData\Roaming\Emby-Server\ffmpeg\20160410\ffmpeg.exe -i file:"G:\Media Library\TV\Series Name\Season 3\2. Episode Name.mkv" -map_metadata -1 -threads 0 -map 0:0 -map 0:1 -map -0:s -codec:v:0 copy -bsf:v h264_mp4toannexb -flags -global_header -copyts -codec:a:0 libmp3lame -ac 2 -ab 128000 -af "adelay=1,aresample=async=1" -max_delay 5000000 -avoid_negative_ts disabled -start_at_zero -hls_time 6 -start_number 0 -hls_list_size 0 -y "F:\Media Library\Emby\Transcode-Temp\transcoding-temp\012b726225f26853411a7849e21fe780.m3u8" ffmpeg version N-79277-g0c90b2e Copyright (c) 2000-2016 the FFmpeg developers built with gcc 5.3.0 (GCC) configuration: --enable-gpl --enable-version3 --disable-w32threads --enable-avisynth --enable-bzlib --enable-fontconfig --enable-frei0r --enable-gnutls --enable-iconv --enable-libass --enable-libbluray --enable-libbs2b --enable-libcaca --enable-libfreetype --enable-libgme --enable-libgsm --enable-libilbc --enable-libmodplug --enable-libmfx --enable-libmp3lame --enable-libopencore-amrnb --enable-libopencore-amrwb --enable-libopenjpeg --enable-libopus --enable-librtmp --enable-libschroedinger --enable-libsnappy --enable-libsoxr --enable-libspeex --enable-libtheora --enable-libtwolame --enable-libvidstab --enable-libvo-amrwbenc --enable-libvorbis --enable-libvpx --enable-libwavpack --enable-libwebp --enable-libx264 --enable-libx265 --enable-libxavs --enable-libxvid --enable-libzimg --enable-lzma --enable-decklink --enable-zlib libavutil 55. 20.100 / 55. 20.100 libavcodec 57. 34.100 / 57. 34.100 libavformat 57. 32.100 / 57. 32.100 libavdevice 57. 0.101 / 57. 0.101 libavfilter 6. 41.100 / 6. 41.100 libswscale 4. 1.100 / 4. 1.100 libswresample 2. 0.101 / 2. 0.101 libpostproc 54. 0.100 / 54. 0.100 Input #0, matroska,webm, from 'file:G:\Media Library\TV\Series Name\Season 3\2. Episode Name.mkv': Metadata: encoder : libmkv 0.6.5 Duration: 00:23:32.33, start: 0.000000, bitrate: 2011 kb/s Stream #0:0(eng): Video: h264 (High), yuv420p(tv, smpte170m/smpte170m/bt709), 720x404, SAR 1:1 DAR 180:101, 23.98 fps, 23.98 tbr, 1k tbn, 47.95 tbc (default) Stream #0:1: Audio: ac3, 48000 Hz, stereo, fltp, 192 kb/s (default) Output #0, hls, to 'F:\Media Library\Emby\Transcode-Temp\transcoding-temp\012b726225f26853411a7849e21fe780.m3u8': Metadata: encoder : Lavf57.32.100 Stream #0:0: Video: h264, yuv420p, 720x404 [SAR 1:1 DAR 180:101], q=2-31, 23.98 fps, 23.98 tbr, 90k tbn, 23.98 tbc (default) Stream #0:1: Audio: mp3 (libmp3lame), 48000 Hz, stereo, fltp, 128 kb/s (default) Metadata: encoder : Lavc57.34.100 libmp3lame Stream mapping: Stream #0:0 -> #0:0 (copy) Stream #0:1 -> #0:1 (ac3 (native) -> mp3 (libmp3lame)) Press [q] to stop, [?] for help frame= 655 fps=0.0 q=-1.0 size=N/A time=00:00:27.23 bitrate=N/A speed= 54x frame= 1351 fps=1345 q=-1.0 size=N/A time=00:00:56.28 bitrate=N/A speed= 56x frame= 2024 fps=1342 q=-1.0 size=N/A time=00:01:24.38 bitrate=N/A speed=55.9x frame= 2670 fps=1319 q=-1.0 size=N/A time=00:01:51.28 bitrate=N/A speed= 55x frame= 3316 fps=1312 q=-1.0 size=N/A time=00:02:18.36 bitrate=N/A speed=54.7x frame= 3869 fps=1278 q=-1.0 size=N/A time=00:02:41.28 bitrate=N/A speed=53.3x frame= 4533 fps=1283 q=-1.0 size=N/A time=00:03:08.97 bitrate=N/A speed=53.5x frame= 5207 fps=1286 q=-1.0 size=N/A time=00:03:37.15 bitrate=N/A speed=53.6x frame= 5851 fps=1285 q=-1.0 size=N/A time=00:04:04.05 bitrate=N/A speed=53.6x frame= 6544 fps=1291 q=-1.0 size=N/A time=00:04:32.85 bitrate=N/A speed=53.8x frame= 7169 fps=1284 q=-1.0 size=N/A time=00:04:58.94 bitrate=N/A speed=53.5x frame= 7811 fps=1281 q=-1.0 size=N/A time=00:05:25.69 bitrate=N/A speed=53.4x frame= 8453 fps=1280 q=-1.0 size=N/A time=00:05:52.53 bitrate=N/A speed=53.4x frame= 9022 fps=1267 q=-1.0 size=N/A time=00:06:16.20 bitrate=N/A speed=52.8x frame= 9658 fps=1267 q=-1.0 size=N/A time=00:06:42.76 bitrate=N/A speed=52.8x frame=10270 fps=1257 q=-1.0 size=N/A time=00:07:08.26 bitrate=N/A speed=52.4x frame=10850 fps=1251 q=-1.0 size=N/A time=00:07:32.45 bitrate=N/A speed=52.2x frame=11509 fps=1252 q=-1.0 size=N/A time=00:08:00.02 bitrate=N/A speed=52.2x frame=11878 fps=1225 q=-1.0 size=N/A time=00:08:15.32 bitrate=N/A speed=51.1x frame=12463 fps=1221 q=-1.0 size=N/A time=00:08:39.76 bitrate=N/A speed=50.9x frame=13082 fps=1221 q=-1.0 size=N/A time=00:09:05.54 bitrate=N/A speed=50.9x frame=13316 fps=1166 q=-1.0 size=N/A time=00:09:15.30 bitrate=N/A speed=48.6x frame=13926 fps=1168 q=-1.0 size=N/A time=00:09:40.74 bitrate=N/A speed=48.7x frame=14353 fps=1154 q=-1.0 size=N/A time=00:09:58.56 bitrate=N/A speed=48.1x frame=14669 fps=1132 q=-1.0 size=N/A time=00:10:11.80 bitrate=N/A speed=47.2x frame=15314 fps=1138 q=-1.0 size=N/A time=00:10:38.63 bitrate=N/A speed=47.4x frame=15834 fps=1094 q=-1.0 size=N/A time=00:11:00.38 bitrate=N/A speed=45.6x frame=16486 fps=1100 q=-1.0 size=N/A time=00:11:27.55 bitrate=N/A speed=45.9x frame=17043 fps=1099 q=-1.0 size=N/A time=00:11:50.75 bitrate=N/A speed=45.8x frame=17650 fps=1102 q=-1.0 size=N/A time=00:12:16.06 bitrate=N/A speed= 46x frame=18266 fps=1105 q=-1.0 size=N/A time=00:12:41.78 bitrate=N/A speed=46.1x frame=18929 fps=1111 q=-1.0 size=N/A time=00:13:09.43 bitrate=N/A speed=46.3x frame=19587 fps=1116 q=-1.0 size=N/A time=00:13:36.86 bitrate=N/A speed=46.6x frame=20217 fps=1120 q=-1.0 size=N/A time=00:14:03.13 bitrate=N/A speed=46.7x frame=20878 fps=1124 q=-1.0 size=N/A time=00:14:30.74 bitrate=N/A speed=46.9x frame=21294 fps=1035 q=-1.0 size=N/A time=00:14:48.05 bitrate=N/A speed=43.2x frame=21593 fps=1022 q=-1.0 size=N/A time=00:15:00.52 bitrate=N/A speed=42.6x frame=21889 fps=996 q=-1.0 size=N/A time=00:15:12.86 bitrate=N/A speed=41.5x frame=22112 fps=983 q=-1.0 size=N/A time=00:15:22.17 bitrate=N/A speed= 41x frame=22294 fps=969 q=-1.0 size=N/A time=00:15:29.78 bitrate=N/A speed=40.4x frame=22321 fps=942 q=-1.0 size=N/A time=00:15:30.91 bitrate=N/A speed=39.3x frame=22490 fps=884 q=-1.0 size=N/A time=00:15:37.94 bitrate=N/A speed=36.9x frame=22767 fps=875 q=-1.0 size=N/A time=00:15:49.48 bitrate=N/A speed=36.5x frame=22901 fps=863 q=-1.0 size=N/A time=00:15:55.10 bitrate=N/A speed= 36x frame=23412 fps=866 q=-1.0 size=N/A time=00:16:16.41 bitrate=N/A speed=36.1x frame=24036 fps=871 q=-1.0 size=N/A time=00:16:42.41 bitrate=N/A speed=36.3x frame=24572 fps=824 q=-1.0 size=N/A time=00:17:04.77 bitrate=N/A speed=34.3x frame=25021 fps=825 q=-1.0 size=N/A time=00:17:23.50 bitrate=N/A speed=34.4x frame=25625 fps=830 q=-1.0 size=N/A time=00:17:48.69 bitrate=N/A speed=34.6x frame=25990 fps=829 q=-1.0 size=N/A time=00:18:03.93 bitrate=N/A speed=34.6x frame=26476 fps=831 q=-1.0 size=N/A time=00:18:24.19 bitrate=N/A speed=34.6x frame=26954 fps=830 q=-1.0 size=N/A time=00:18:44.18 bitrate=N/A speed=34.6x frame=27157 fps=824 q=-1.0 size=N/A time=00:18:52.60 bitrate=N/A speed=34.3x frame=27550 fps=823 q=-1.0 size=N/A time=00:19:08.98 bitrate=N/A speed=34.3x frame=27936 fps=816 q=-1.0 size=N/A time=00:19:25.07 bitrate=N/A speed= 34x frame=28072 fps=763 q=-1.0 size=N/A time=00:19:30.75 bitrate=N/A speed=31.8x frame=28409 fps=762 q=-1.0 size=N/A time=00:19:44.80 bitrate=N/A speed=31.8x frame=28902 fps=765 q=-1.0 size=N/A time=00:20:05.40 bitrate=N/A speed=31.9x frame=29442 fps=769 q=-1.0 size=N/A time=00:20:27.93 bitrate=N/A speed=32.1x frame=29499 fps=752 q=-1.0 size=N/A time=00:20:30.27 bitrate=N/A speed=31.4x frame=30023 fps=756 q=-1.0 size=N/A time=00:20:52.12 bitrate=N/A speed=31.5x frame=30630 fps=761 q=-1.0 size=N/A time=00:21:17.49 bitrate=N/A speed=31.7x frame=31269 fps=767 q=-1.0 size=N/A time=00:21:44.11 bitrate=N/A speed= 32x frame=31876 fps=772 q=-1.0 size=N/A time=00:22:09.43 bitrate=N/A speed=32.2x frame=32475 fps=777 q=-1.0 size=N/A time=00:22:34.39 bitrate=N/A speed=32.4x frame=32983 fps=780 q=-1.0 size=N/A time=00:22:55.58 bitrate=N/A speed=32.5x frame=33661 fps=787 q=-1.0 size=N/A time=00:23:23.86 bitrate=N/A speed=32.8x frame=33862 fps=788 q=-1.0 Lsize=N/A time=00:23:32.24 bitrate=N/A speed=32.9x http://192.168.1.79:8096/emby/videos/4d10b23b52cd20a33f210d27f8551331/hls1/main/0.ts?DeviceId=32557H079136&MediaSourceId=4d10b23b52cd20a33f210d27f8551331&VideoCodec=h264&AudioCodec=mp3,aac&AudioStreamIndex=1&VideoBitrate=11808000&AudioBitrate=192000&MaxAudioChannels=2&MaxFramerate=30&MaxWidth=1920&MaxHeight=1080&Level=50&MaxRefFrames=15&MaxVideoBitDepth=8&Profile=high&PlaySessionId=dcc8d20d8f354b9eb0ab17e0895424bc&api_key=687ceefc5aec4ab28102e619c840b72c&CopyTimestamps=false&EnableSubtitlesInManifest=false&Tag=fe7550ef3a5fb8eb9632ff1b6fa2686c {"Protocol":"File","Id":"4d10b23b52cd20a33f210d27f8551331","Path":"G:\\Media Library\\TV\\Series Name\\Season 3\\2. Episode Name.mkv","Type":"Default","Container":"mkv","Name":"480P/H264/AC3","ETag":"fe7550ef3a5fb8eb9632ff1b6fa2686c","RunTimeTicks":14123280000,"ReadAtNativeFramerate":false,"SupportsTranscoding":true,"SupportsDirectStream":true,"SupportsDirectPlay":true,"RequiresOpening":false,"RequiresClosing":false,"VideoType":"VideoFile","MediaStreams":[{"Codec":"h264","Language":"eng","IsInterlaced":false,"BitRate":2011784,"BitDepth":8,"RefFrames":4,"IsDefault":true,"IsForced":false,"Height":404,"Width":720,"AverageFrameRate":23.97602,"RealFrameRate":23.97602,"Profile":"High","Type":"Video","AspectRatio":"16:9","Index":0,"IsExternal":false,"IsTextSubtitleStream":false,"SupportsExternalStream":false,"PixelFormat":"yuv420p","Level":41,"IsAnamorphic":false},{"Codec":"ac3","DisplayTitle":"Dolby Digital stereo Default","IsInterlaced":false,"ChannelLayout":"stereo","BitRate":192000,"Channels":2,"SampleRate":48000,"IsDefault":true,"IsForced":false,"Type":"Audio","Index":1,"IsExternal":false,"IsTextSubtitleStream":false,"SupportsExternalStream":false,"Level":0}],"PlayableStreamFileNames":[],"Formats":[],"Bitrate":2011784,"RequiredHttpHeaders":{}} C:\Users\Robert\AppData\Roaming\Emby-Server\ffmpeg\20160827\ffmpeg.exe -i file:"G:\Media Library\TV\Series Name\Season 3\2. Episode Name.mkv" -map_metadata -1 -threads 0 -map 0:0 -map 0:1 -map -0:s -codec:v:0 copy -bsf:v h264_mp4toannexb -flags -global_header -copyts -codec:a:0 libmp3lame -ac 2 -ab 192000 -af "adelay=1,aresample=async=1" -max_delay 5000000 -avoid_negative_ts disabled -start_at_zero -hls_time 6 -start_number 0 -hls_list_size 0 -y "F:\Media Library\Emby\Transcode-Temp\transcoding-temp\2a7988ef675bee2bc3c6acf41adaf538.m3u8" ffmpeg version N-81475-gdc7e5ad Copyright (c) 2000-2016 the FFmpeg developers built with gcc 5.4.0 (GCC) configuration: --enable-gpl --enable-version3 --disable-w32threads --enable-dxva2 --enable-libmfx --enable-nvenc --enable-avisynth --enable-bzlib --enable-libebur128 --enable-fontconfig --enable-frei0r --enable-gnutls --enable-iconv --enable-libass --enable-libbluray --enable-libbs2b --enable-libcaca --enable-libfreetype --enable-libgme --enable-libgsm --enable-libilbc --enable-libmodplug --enable-libmp3lame --enable-libopencore-amrnb --enable-libopencore-amrwb --enable-libopenh264 --enable-libopenjpeg --enable-libopus --enable-librtmp --enable-libschroedinger --enable-libsnappy --enable-libsoxr --enable-libspeex --enable-libtheora --enable-libtwolame --enable-libvidstab --enable-libvo-amrwbenc --enable-libvorbis --enable-libvpx --enable-libwavpack --enable-libwebp --enable-libx264 --enable-libx265 --enable-libxavs --enable-libxvid --enable-libzimg --enable-lzma --enable-decklink --enable-zlib libavutil 55. 29.100 / 55. 29.100 libavcodec 57. 54.100 / 57. 54.100 libavformat 57. 48.100 / 57. 48.100 libavdevice 57. 0.102 / 57. 0.102 libavfilter 6. 57.100 / 6. 57.100 libswscale 4. 1.100 / 4. 1.100 libswresample 2. 1.100 / 2. 1.100 libpostproc 54. 0.100 / 54. 0.100 Input #0, matroska,webm, from 'file:G:\Media Library\TV\Series Name\Season 3\2. Episode Name.mkv': Metadata: encoder : libmkv 0.6.5 Duration: 00:23:32.33, start: 0.000000, bitrate: 2011 kb/s Stream #0:0(eng): Video: h264 (High), yuv420p(tv, smpte170m/smpte170m/bt709), 720x404, SAR 1:1 DAR 180:101, 23.98 fps, 23.98 tbr, 1k tbn, 47.95 tbc (default) Stream #0:1: Audio: ac3, 48000 Hz, stereo, fltp, 192 kb/s (default) [hls @ 00000000006e7740] Using AVStream.codec to pass codec parameters to muxers is deprecated, use AVStream.codecpar instead. Last message repeated 1 times Output #0, hls, to 'F:\Media Library\Emby\Transcode-Temp\transcoding-temp\2a7988ef675bee2bc3c6acf41adaf538.m3u8': Metadata: encoder : Lavf57.48.100 Stream #0:0: Video: h264 (High), yuv420p(tv, smpte170m/smpte170m/bt709), 720x404 [SAR 1:1 DAR 180:101], q=2-31, 23.98 fps, 23.98 tbr, 90k tbn, 47.95 tbc (default) Stream #0:1: Audio: mp3 (libmp3lame), 48000 Hz, stereo, fltp, delay 1105, padding 0, 192 kb/s (default) Metadata: encoder : Lavc57.54.100 libmp3lame Stream mapping: Stream #0:0 -> #0:0 (copy) Stream #0:1 -> #0:1 (ac3 (native) -> mp3 (libmp3lame)) Press [q] to stop, [?] for help frame= 632 fps=0.0 q=-1.0 size=N/A time=00:00:26.25 bitrate=N/A speed=52.5x frame= 1290 fps=1290 q=-1.0 size=N/A time=00:00:53.78 bitrate=N/A speed=53.8x frame= 1940 fps=1293 q=-1.0 size=N/A time=00:01:20.80 bitrate=N/A speed=53.8x frame= 2545 fps=1272 q=-1.0 size=N/A time=00:01:46.12 bitrate=N/A speed= 53x frame= 3193 fps=1277 q=-1.0 size=N/A time=00:02:13.10 bitrate=N/A speed=53.2x frame= 3835 fps=1278 q=-1.0 size=N/A time=00:02:39.88 bitrate=N/A speed=53.3x frame= 4476 fps=1278 q=-1.0 size=N/A time=00:03:06.64 bitrate=N/A speed=53.3x frame= 5143 fps=1285 q=-1.0 size=N/A time=00:03:34.48 bitrate=N/A speed=53.6x frame= 5795 fps=1287 q=-1.0 size=N/A time=00:04:01.68 bitrate=N/A speed=53.7x frame= 6430 fps=1285 q=-1.0 size=N/A time=00:04:28.10 bitrate=N/A speed=53.6x frame= 7069 fps=1284 q=-1.0 size=N/A time=00:04:54.74 bitrate=N/A speed=53.5x frame= 7251 fps=1208 q=-1.0 size=N/A time=00:05:02.35 bitrate=N/A speed=50.4x frame= 7872 fps=1210 q=-1.0 size=N/A time=00:05:28.27 bitrate=N/A speed=50.5x frame= 8514 fps=1215 q=-1.0 size=N/A time=00:05:55.03 bitrate=N/A speed=50.7x frame= 9145 fps=1218 q=-1.0 size=N/A time=00:06:21.36 bitrate=N/A speed=50.8x frame= 9784 fps=1222 q=-1.0 size=N/A time=00:06:48.02 bitrate=N/A speed= 51x frame=10419 fps=1225 q=-1.0 size=N/A time=00:07:14.54 bitrate=N/A speed=51.1x frame=11043 fps=1226 q=-1.0 size=N/A time=00:07:40.53 bitrate=N/A speed=51.1x frame=11682 fps=1229 q=-1.0 size=N/A time=00:08:07.17 bitrate=N/A speed=51.2x frame=12334 fps=1233 q=-1.0 size=N/A time=00:08:34.34 bitrate=N/A speed=51.4x frame=12977 fps=1235 q=-1.0 size=N/A time=00:09:01.17 bitrate=N/A speed=51.5x frame=13598 fps=1235 q=-1.0 size=N/A time=00:09:27.12 bitrate=N/A speed=51.5x frame=14251 fps=1238 q=-1.0 size=N/A time=00:09:54.38 bitrate=N/A speed=51.6x frame=14891 fps=1240 q=-1.0 size=N/A time=00:10:21.04 bitrate=N/A speed=51.7x frame=15534 fps=1242 q=-1.0 size=N/A time=00:10:47.92 bitrate=N/A speed=51.8x frame=16191 fps=1245 q=-1.0 size=N/A time=00:11:15.24 bitrate=N/A speed=51.9x frame=16387 fps=1188 q=-1.0 size=N/A time=00:11:23.35 bitrate=N/A speed=49.5x frame=17001 fps=1189 q=-1.0 size=N/A time=00:11:49.00 bitrate=N/A speed=49.6x frame=17637 fps=1191 q=-1.0 size=N/A time=00:12:15.60 bitrate=N/A speed=49.7x frame=18257 fps=1193 q=-1.0 size=N/A time=00:12:41.35 bitrate=N/A speed=49.8x frame=18901 fps=1196 q=-1.0 size=N/A time=00:13:08.23 bitrate=N/A speed=49.9x frame=19548 fps=1199 q=-1.0 size=N/A time=00:13:35.25 bitrate=N/A speed= 50x frame=20162 fps=1200 q=-1.0 size=N/A time=00:14:00.91 bitrate=N/A speed= 50x frame=20789 fps=1201 q=-1.0 size=N/A time=00:14:27.00 bitrate=N/A speed=50.1x frame=21431 fps=1204 q=-1.0 size=N/A time=00:14:53.80 bitrate=N/A speed=50.2x frame=22029 fps=1203 q=-1.0 size=N/A time=00:15:18.74 bitrate=N/A speed=50.2x frame=22654 fps=1205 q=-1.0 size=N/A time=00:15:44.78 bitrate=N/A speed=50.2x frame=23260 fps=1205 q=-1.0 size=N/A time=00:16:10.03 bitrate=N/A speed=50.2x frame=23471 fps=1156 q=-1.0 size=N/A time=00:16:18.88 bitrate=N/A speed=48.2x frame=24056 fps=1156 q=-1.0 size=N/A time=00:16:43.32 bitrate=N/A speed=48.2x frame=24699 fps=1159 q=-1.0 size=N/A time=00:17:10.10 bitrate=N/A speed=48.3x frame=25325 fps=1161 q=-1.0 size=N/A time=00:17:36.31 bitrate=N/A speed=48.4x frame=25910 fps=1161 q=-1.0 size=N/A time=00:18:00.64 bitrate=N/A speed=48.4x frame=26547 fps=1164 q=-1.0 size=N/A time=00:18:27.21 bitrate=N/A speed=48.5x frame=27169 fps=1165 q=-1.0 size=N/A time=00:18:53.04 bitrate=N/A speed=48.6x frame=27778 fps=1144 q=-1.0 size=N/A time=00:19:18.45 bitrate=N/A speed=47.7x frame=28333 fps=1143 q=-1.0 size=N/A time=00:19:41.68 bitrate=N/A speed=47.7x frame=28982 fps=1146 q=-1.0 size=N/A time=00:20:08.66 bitrate=N/A speed=47.8x frame=29297 fps=1136 q=-1.0 size=N/A time=00:20:21.84 bitrate=N/A speed=47.4x frame=29929 fps=1139 q=-1.0 size=N/A time=00:20:48.26 bitrate=N/A speed=47.5x frame=30583 fps=1142 q=-1.0 size=N/A time=00:21:15.50 bitrate=N/A speed=47.6x frame=31228 fps=1144 q=-1.0 size=N/A time=00:21:42.45 bitrate=N/A speed=47.7x frame=31855 fps=1146 q=-1.0 size=N/A time=00:22:08.56 bitrate=N/A speed=47.8x frame=32287 fps=1136 q=-1.0 size=N/A time=00:22:26.52 bitrate=N/A speed=47.4x frame=32806 fps=1132 q=-1.0 size=N/A time=00:22:48.15 bitrate=N/A speed=47.2x frame=33221 fps=1057 q=-1.0 size=N/A time=00:23:05.52 bitrate=N/A speed=44.1x frame=33663 fps=1054 q=-1.0 size=N/A time=00:23:23.97 bitrate=N/A speed= 44x
×
×
  • Create New...