Jump to content

Show audio track title


AWG97
 Share

Go to solution Solved by AWG97,

Recommended Posts

Currently Emby seems to show Audio track ID/channels for the title. Therefore, it doesn't show the title of the track (whether it's just commentary or surround). I would love to see both Track ID/channel info and Titles.

Audio track info of the media:

Audio #1
ID                                       : 2
Format                                   : AC-3
Format/Info                              : Audio Coding 3
Codec ID                                 : A_AC3
Duration                                 : 1 h 26 min
Bit rate mode                            : Constant
Bit rate                                 : 448 kb/s
Channel(s)                               : 6 channels
Channel positions                        : Front: L C R, Side: L R, LFE
Sampling rate                            : 48.0 kHz
Frame rate                               : 31.250 FPS (1536 SPF)
Bit depth                                : 16 bits
Compression mode                         : Lossy
Stream size                              : 279 MiB (14%)
Title                                    : Surround
Language                                 : English
Service kind                             : Complete Main
Default                                  : Yes
Forced                                   : No

Audio #2
ID                                       : 3
Format                                   : AC-3
Format/Info                              : Audio Coding 3
Codec ID                                 : A_AC3
Duration                                 : 1 h 26 min
Bit rate mode                            : Constant
Bit rate                                 : 192 kb/s
Channel(s)                               : 2 channels
Channel positions                        : Front: L R
Sampling rate                            : 48.0 kHz
Frame rate                               : 31.250 FPS (1536 SPF)
Bit depth                                : 16 bits
Compression mode                         : Lossy
Stream size                              : 119 MiB (6%)
Title                                    : Commentary
Language                                 : English
Service kind                             : Complete Main
Default                                  : No
Forced                                   : No

How Embys shows it:

image.png.af636a674bece4907d1957802951521e.png

image.png.01a6dfb8e738f78e883d1bef320dff34.png

  • Like 1
Link to comment
Share on other sites

  • Solution

Found out that I can change it to show track titles by going to;  Settings>Library>Advanced>Embedded track title display:Prefer embedded titles

image.png.b498bb5411114756935641d0f815e469.png

Link to comment
Share on other sites

Create an account or sign in to comment

You need to be a member in order to leave a comment

Create an account

Sign up for a new account in our community. It's easy!

Register a new account

Sign in

Already have an account? Sign in here.

Sign In Now
 Share

×
×
  • Create New...