Jump to content
Nuwanda

NullReferenceException on Ubuntu 20.04

Recommended Posts

Nuwanda
Posted (edited)

Log: embyserver.txt

Emby user has access to the file and folder:

nuwanda@nuwanda-desktop:~$ sudo su emby -s /bin/bash -c 'ls -l /data/Videos/VHS/1986-03-01\ Cumple\ Gaby\ 1\ año.mkv'
-rw-rw-rw- 2 nuwanda nuwanda 161845930 set 17  2018 '/data/Videos/VHS/1986-03-01 Cumple Gaby 1 año.mkv'

ffprobe output:

ffprobe version 4.2.4-1ubuntu0.1 Copyright (c) 2007-2020 the FFmpeg developers
  built with gcc 9 (Ubuntu 9.3.0-10ubuntu2)
  configuration: --prefix=/usr --extra-version=1ubuntu0.1 --toolchain=hardened --libdir=/usr/lib/x86_64-linux-gnu --incdir=/usr/include/x86_64-linux-gnu --arch=amd64 --enable-gpl --disable-stripping --enable-avresample --disable-filter=resample --enable-avisynth --enable-gnutls --enable-ladspa --enable-libaom --enable-libass --enable-libbluray --enable-libbs2b --enable-libcaca --enable-libcdio --enable-libcodec2 --enable-libflite --enable-libfontconfig --enable-libfreetype --enable-libfribidi --enable-libgme --enable-libgsm --enable-libjack --enable-libmp3lame --enable-libmysofa --enable-libopenjpeg --enable-libopenmpt --enable-libopus --enable-libpulse --enable-librsvg --enable-librubberband --enable-libshine --enable-libsnappy --enable-libsoxr --enable-libspeex --enable-libssh --enable-libtheora --enable-libtwolame --enable-libvidstab --enable-libvorbis --enable-libvpx --enable-libwavpack --enable-libwebp --enable-libx265 --enable-libxml2 --enable-libxvid --enable-libzmq --enable-libzvbi --enable-lv2 --enable-omx --enable-openal --enable-opencl --enable-opengl --enable-sdl2 --enable-libdc1394 --enable-libdrm --enable-libiec61883 --enable-nvenc --enable-chromaprint --enable-frei0r --enable-libx264 --enable-shared
  libavutil      56. 31.100 / 56. 31.100
  libavcodec     58. 54.100 / 58. 54.100
  libavformat    58. 29.100 / 58. 29.100
  libavdevice    58.  8.100 / 58.  8.100
  libavfilter     7. 57.100 /  7. 57.100
  libavresample   4.  0.  0 /  4.  0.  0
  libswscale      5.  5.100 /  5.  5.100
  libswresample   3.  5.100 /  3.  5.100
  libpostproc    55.  5.100 / 55.  5.100
Input #0, matroska,webm, from '1986-03-01 Cumple Gaby 1 año.mkv':
  Metadata:
    CREATION_TIME   : 2018-09-17T22:03:02Z
    ENCODER         : Lavf57.7.2
  Duration: 00:08:13.62, start: 0.000000, bitrate: 2623 kb/s
    Stream #0:0: Video: hevc (Main), yuv420p(tv, smpte170m/smpte170m/bt709), 720x480 [SAR 8:9 DAR 4:3], 59.94 fps, 59.94 tbr, 1k tbn, 59.94 tbc (default)
    Stream #0:1: Audio: aac (LC), 48000 Hz, stereo, fltp (default)
    Metadata:
      title           : Stereo

Help?

Thanks!

embyserver.txt

Edited by Nuwanda

Share this post


Link to post
Share on other sites
Luke

Hi, this is resolved for the next release. Thanks.

Share this post


Link to post
Share on other sites

Create an account or sign in to comment

You need to be a member in order to leave a comment

Create an account

Sign up for a new account in our community. It's easy!

Register a new account

Sign in

Already have an account? Sign in here.

Sign In Now

×
×
  • Create New...