Jump to content

fire tv stick async playback


maximus1
 Share

Recommended Posts

my server is the windows server with latest dev versions.

AFTVS is up to date 

Emby for AFTVS is up to date too.

videos are MKV with x264 encoding and AC3 or DTS sound

 

Problem:

our TV has only stereo, video files are multichannel. 

when i play a video with suround sound i hear only surround sounds but not center or L/R.

if i choose compatible mode inside emby app i hear everything, but there is a delay of 2,7 seconds.

if i set delay, the video starts to stutter every 5-30 seconds.

 

our AVR has no HDMI and the purchased HDMI 5.1 Audio Extractor will be delivered in 4-6 weeks.

 

is there anything i can do to fix that?

Link to comment
Share on other sites

my server is the windows server with latest dev versions.

AFTVS is up to date 

Emby for AFTVS is up to date too.

videos are MKV with x264 encoding and AC3 or DTS sound

 

Problem:

our TV has only stereo, video files are multichannel. 

when i play a video with suround sound i hear only surround sounds but not center or L/R.

if i choose compatible mode inside emby app i hear everything, but there is a delay of 2,7 seconds.

if i set delay, the video starts to stutter every 5-30 seconds.

 

our AVR has no HDMI and the purchased HDMI 5.1 Audio Extractor will be delivered in 4-6 weeks.

 

is there anything i can do to fix that?

 

Change audio under the Emby App to Compatible

  • Like 1
Link to comment
Share on other sites

 

if i choose compatible mode inside emby app i hear everything, but there is a delay of 2,7 seconds.

if i set delay, the video starts to stutter every 5-30 seconds.

 

 

i did this but then the video stutters

Link to comment
Share on other sites

i did this but then the video stutters

 

Can you post logs?

 

What is your network throughput in the app set to?

Link to comment
Share on other sites

server and stick are set to 40 M/bit.

 

when i looked for the logs i´ve seen the stuttering videos where AVI files. (didn´t thought i have these anymore )

anyway....

 

here is the transcoding log for the stuttering AVI: (displayed as Direct /V)

http://192.168.2.11:8096/emby/videos/6ff0676af274fdf784ad152569068c2f/stream.mkv?DeviceId=80953312b3b250f0&MediaSourceId=6ff0676af274fdf784ad152569068c2f&VideoCodec=h264&AudioCodec=aac&AudioStreamIndex=1&VideoBitrate=39680000&AudioBitrate=320000&PlaySessionId=617b70a04eb948d7b359a8fb0261c7f9&api_key=feea8a86b43349388629c6dec1608c08&CopyTimestamps=true&ForceLiveStream=false

{"Protocol":"File","Id":"6ff0676af274fdf784ad152569068c2f","Path":"D:\\Filme\\Sherlock Holmes (2009)\\Sherlock Holmes (2009) [360 (XviD)] [AC-3].avi","Type":"Default","Container":"avi","Name":"SD/MPEG4/AC3","RunTimeTicks":77047330000,"ReadAtNativeFramerate":false,"SupportsTranscoding":true,"SupportsDirectStream":true,"SupportsDirectPlay":true,"RequiresOpening":false,"RequiresClosing":false,"VideoType":"VideoFile","MediaStreams":[{"Codec":"mpeg4","CodecTag":"XVID","IsInterlaced":false,"BitRate":1068862,"RefFrames":1,"IsDefault":false,"IsForced":false,"Height":352,"Width":624,"AverageFrameRate":23.97604,"RealFrameRate":23.97604,"Profile":"Advanced Simple Profile","Type":"Video","AspectRatio":"16:9","Index":0,"IsExternal":false,"IsTextSubtitleStream":false,"SupportsExternalStream":false,"PixelFormat":"yuv420p","Level":5,"IsAnamorphic":false},{"Codec":"ac3","DisplayTitle":"ac3 6 ch","IsInterlaced":false,"ChannelLayout":"5.1","BitRate":448000,"Channels":6,"SampleRate":48000,"IsDefault":false,"IsForced":false,"Type":"Audio","Index":1,"IsExternal":false,"IsTextSubtitleStream":false,"SupportsExternalStream":false,"Level":0},{"Codec":"srt","Language":"ger","DisplayTitle":"ger srt (EXT)","IsInterlaced":false,"IsDefault":false,"IsForced":false,"Type":"Subtitle","Index":2,"IsExternal":true,"IsTextSubtitleStream":true,"SupportsExternalStream":true,"Path":"D:\\Filme\\Sherlock Holmes (2009)\\Sherlock Holmes (2009) [360 (XviD)] [AC-3].ger.srt"}],"PlayableStreamFileNames":[],"Formats":[],"Bitrate":1526057,"RequiredHttpHeaders":{}}

C:\Users\MCE\AppData\Roaming\MediaBrowser-Server\ffmpeg\20160410\ffmpeg.exe -fflags +genpts -i file:"D:\Filme\Sherlock Holmes (2009)\Sherlock Holmes (2009) [360 (XviD)] [AC-3].avi" -map 0:0 -map 0:1 -map -0:s -codec:v:0 libx264 -force_key_frames expr:gte(t,n_forced*5) -vf "scale=trunc(min(max(iw\,ih*dar)\,1280)/2)*2:trunc(ow/dar/2)*2" -copyts -avoid_negative_ts disabled -start_at_zero -pix_fmt yuv420p -preset superfast -crf 23 -b:v 1068862 -maxrate 1068862 -bufsize 2137724 -vsync vfr -map_metadata -1 -threads 3 -codec:a:0 aac -strict experimental -ab 320000 -af "aresample=async=1" -y "Z:\transcoding-temp\a0bb6a5f7d4b2776a2951350dc99937a.mkv"


ffmpeg version N-79277-g0c90b2e Copyright (c) 2000-2016 the FFmpeg developers
  built with gcc 5.3.0 (GCC)
  configuration: --enable-gpl --enable-version3 --disable-w32threads --enable-avisynth --enable-bzlib --enable-fontconfig --enable-frei0r --enable-gnutls --enable-iconv --enable-libass --enable-libbluray --enable-libbs2b --enable-libcaca --enable-libfreetype --enable-libgme --enable-libgsm --enable-libilbc --enable-libmodplug --enable-libmfx --enable-libmp3lame --enable-libopencore-amrnb --enable-libopencore-amrwb --enable-libopenjpeg --enable-libopus --enable-librtmp --enable-libschroedinger --enable-libsnappy --enable-libsoxr --enable-libspeex --enable-libtheora --enable-libtwolame --enable-libvidstab --enable-libvo-amrwbenc --enable-libvorbis --enable-libvpx --enable-libwavpack --enable-libwebp --enable-libx264 --enable-libx265 --enable-libxavs --enable-libxvid --enable-libzimg --enable-lzma --enable-decklink --enable-zlib
  libavutil      55. 20.100 / 55. 20.100
  libavcodec     57. 34.100 / 57. 34.100
  libavformat    57. 32.100 / 57. 32.100
  libavdevice    57.  0.101 / 57.  0.101
  libavfilter     6. 41.100 /  6. 41.100
  libswscale      4.  1.100 /  4.  1.100
  libswresample   2.  0.101 /  2.  0.101
  libpostproc    54.  0.100 / 54.  0.100
Input #0, avi, from 'file:D:\Filme\Sherlock Holmes (2009)\Sherlock Holmes (2009) [360 (XviD)] [AC-3].avi':
  Metadata:
    encoder         : VirtualDubMod 1.5.10.2 (build 2540/release)
  Duration: 02:08:24.73, start: 0.000000, bitrate: 1526 kb/s
    Stream #0:0: Video: mpeg4 (Advanced Simple Profile) (XVID / 0x44495658), yuv420p, 624x352 [SAR 1:1 DAR 39:22], 1068 kb/s, 23.98 fps, 23.98 tbr, 23.98 tbn, 23.98 tbc
    Stream #0:1: Audio: ac3 ([0] [0][0] / 0x2000), 48000 Hz, 5.1(side), fltp, 448 kb/s
[libx264 @ 00000000024e5bc0] using SAR=1/1
[libx264 @ 00000000024e5bc0] using cpu capabilities: MMX2 SSE2Fast SSSE3 SSE4.2 AVX LZCNT BMI1 SlowPshufb
[libx264 @ 00000000024e5bc0] profile High, level 3.0
[libx264 @ 00000000024e5bc0] 264 - core 148 r2665 a01e339 - H.264/MPEG-4 AVC codec - Copyleft 2003-2016 - http://www.videolan.org/x264.html - options: cabac=1 ref=1 deblock=1:0:0 analyse=0x3:0x3 me=dia subme=1 psy=1 psy_rd=1.00:0.00 mixed_ref=0 me_range=16 chroma_me=1 trellis=0 8x8dct=1 cqm=0 deadzone=21,11 fast_pskip=1 chroma_qp_offset=0 threads=3 lookahead_threads=1 sliced_threads=0 nr=0 decimate=1 interlaced=0 bluray_compat=0 constrained_intra=0 bframes=3 b_pyramid=2 b_adapt=1 b_bias=0 direct=1 weightb=1 open_gop=0 weightp=1 keyint=250 keyint_min=23 scenecut=40 intra_refresh=0 rc_lookahead=0 rc=crf mbtree=0 crf=23.0 qcomp=0.60 qpmin=0 qpmax=69 qpstep=4 vbv_maxrate=1068 vbv_bufsize=2137 crf_max=0.0 nal_hrd=none filler=0 ip_ratio=1.40 pb_ratio=1.30 aq=1:1.00
Output #0, matroska, to 'Z:\transcoding-temp\a0bb6a5f7d4b2776a2951350dc99937a.mkv':
  Metadata:
    encoder         : Lavf57.32.100
    Stream #0:0: Video: h264 (libx264) (H264 / 0x34363248), yuv420p, 624x352 [SAR 1:1 DAR 39:22], q=-1--1, 1068 kb/s, 23.98 fps, 1k tbn, 23.98 tbc
    Metadata:
      encoder         : Lavc57.34.100 libx264
    Side data:
      cpb: bitrate max/min/avg: 1068000/0/1068000 buffer size: 2137000 vbv_delay: -1
    Stream #0:1: Audio: aac (LC) ([255][0][0][0] / 0x00FF), 48000 Hz, 5.1(side), fltp, 320 kb/s
    Metadata:
      encoder         : Lavc57.34.100 aac
Stream mapping:
  Stream #0:0 -> #0:0 (mpeg4 (native) -> h264 (libx264))
  Stream #0:1 -> #0:1 (ac3 (native) -> aac (native))
Press [q] to stop, [?] for help
frame=    9 fps=0.0 q=0.0 size=       0kB time=00:00:00.98 bitrate=   0.0kbits/s speed=1.94x    
frame=   36 fps= 36 q=19.0 size=      42kB time=00:00:02.15 bitrate= 158.5kbits/s speed=2.12x    
frame=   64 fps= 42 q=20.0 size=     122kB time=00:00:03.28 bitrate= 303.5kbits/s speed=2.16x    
frame=   95 fps= 47 q=26.0 size=     292kB time=00:00:04.56 bitrate= 524.6kbits/s speed=2.25x    
frame=  129 fps= 51 q=23.0 size=     451kB time=00:00:05.97 bitrate= 617.9kbits/s speed=2.35x    
frame=  168 fps= 55 q=24.0 size=     612kB time=00:00:07.65 bitrate= 654.8kbits/s speed=2.51x    
frame=  211 fps= 59 q=23.0 size=     821kB time=00:00:09.38 bitrate= 716.7kbits/s speed=2.64x    
frame=  254 fps= 63 q=24.0 size=    1102kB time=00:00:11.24 bitrate= 802.7kbits/s speed=2.77x    
frame=  293 fps= 64 q=23.0 size=    1264kB time=00:00:12.88 bitrate= 803.9kbits/s speed=2.83x    
frame=  342 fps= 68 q=22.0 size=    1490kB time=00:00:14.87 bitrate= 821.0kbits/s speed=2.94x    
frame=  392 fps= 70 q=24.0 size=    1852kB time=00:00:16.93 bitrate= 895.7kbits/s speed=3.05x    
frame=  442 fps= 73 q=23.0 size=    2143kB time=00:00:19.03 bitrate= 922.5kbits/s speed=3.14x    
frame=  493 fps= 75 q=23.0 size=    2408kB time=00:00:21.16 bitrate= 932.2kbits/s speed=3.22x    
frame=  543 fps= 77 q=25.0 size=    2642kB time=00:00:23.25 bitrate= 930.8kbits/s speed=3.29x    
frame=  593 fps= 78 q=22.0 size=    3002kB time=00:00:25.32 bitrate= 971.2kbits/s speed=3.34x    
frame=  644 fps= 80 q=21.0 size=    3273kB time=00:00:27.47 bitrate= 975.9kbits/s speed= 3.4x    
frame=  689 fps= 80 q=22.0 size=    3487kB time=00:00:29.33 bitrate= 973.8kbits/s speed=3.42x    
frame=  738 fps= 81 q=20.0 size=    3710kB time=00:00:31.38 bitrate= 968.4kbits/s speed=3.45x    
frame=  788 fps= 82 q=23.0 size=    3945kB time=00:00:33.49 bitrate= 964.9kbits/s speed=3.49x    
frame=  838 fps= 83 q=18.0 size=    4106kB time=00:00:35.56 bitrate= 945.9kbits/s speed=3.52x    
frame=  887 fps= 84 q=21.0 size=    4256kB time=00:00:37.65 bitrate= 925.9kbits/s speed=3.56x    
frame=  937 fps= 85 q=20.0 size=    4407kB time=00:00:39.70 bitrate= 909.2kbits/s speed=3.58x    
frame=  988 fps= 85 q=23.0 size=    4597kB time=00:00:41.81 bitrate= 900.6kbits/s speed=3.61x    
frame= 1039 fps= 86 q=24.0 size=    4823kB time=00:00:43.94 bitrate= 899.0kbits/s speed=3.63x    
frame= 1082 fps= 86 q=22.0 size=    5024kB time=00:00:45.78 bitrate= 899.0kbits/s speed=3.64x    
frame= 1129 fps= 86 q=22.0 size=    5275kB time=00:00:47.70 bitrate= 905.8kbits/s speed=3.64x    
frame= 1180 fps= 87 q=24.0 size=    5543kB time=00:00:49.81 bitrate= 911.5kbits/s speed=3.66x    
frame= 1230 fps= 87 q=19.0 size=    5762kB time=00:00:51.94 bitrate= 908.7kbits/s speed=3.68x    
frame= 1282 fps= 88 q=23.0 size=    5964kB time=00:00:54.05 bitrate= 903.8kbits/s speed= 3.7x    
frame= 1332 fps= 88 q=21.0 size=    6187kB time=00:00:56.15 bitrate= 902.7kbits/s speed=3.72x    
frame= 1377 fps= 88 q=19.0 size=    6383kB time=00:00:58.07 bitrate= 900.4kbits/s speed=3.72x    
frame= 1427 fps= 89 q=21.0 size=    6604kB time=00:01:00.18 bitrate= 899.0kbits/s speed=3.74x    
frame= 1471 fps= 89 q=22.0 size=    6912kB time=00:01:01.97 bitrate= 913.6kbits/s speed=3.73x    
frame= 1521 fps= 89 q=22.0 size=    7221kB time=00:01:04.04 bitrate= 923.7kbits/s speed=3.74x    
frame= 1571 fps= 89 q=20.0 size=    7556kB time=00:01:06.13 bitrate= 936.0kbits/s speed=3.76x    
frame= 1622 fps= 90 q=25.0 size=    7826kB time=00:01:08.24 bitrate= 939.3kbits/s speed=3.77x    
frame= 1673 fps= 90 q=23.0 size=    8160kB time=00:01:10.42 bitrate= 949.2kbits/s speed=3.78x    
frame= 1722 fps= 90 q=23.0 size=    8455kB time=00:01:12.42 bitrate= 956.4kbits/s speed=3.79x    
frame= 1773 fps= 90 q=23.0 size=    8645kB time=00:01:14.60 bitrate= 949.3kbits/s speed= 3.8x    
frame= 1826 fps= 91 q=24.0 size=    8896kB time=00:01:16.75 bitrate= 949.4kbits/s speed=3.81x    
frame= 1868 fps= 91 q=24.0 size=    9090kB time=00:01:18.50 bitrate= 948.5kbits/s speed= 3.8x    
frame= 1919 fps= 91 q=24.0 size=    9353kB time=00:01:20.66 bitrate= 949.9kbits/s speed=3.82x    
frame= 1965 fps= 91 q=21.0 size=    9564kB time=00:01:22.60 bitrate= 948.5kbits/s speed=3.82x    
frame= 2016 fps= 91 q=24.0 size=    9818kB time=00:01:24.69 bitrate= 949.6kbits/s speed=3.82x    
frame= 2067 fps= 91 q=21.0 size=   10026kB time=00:01:26.80 bitrate= 946.2kbits/s speed=3.83x    
frame= 2117 fps= 91 q=20.0 size=   10241kB time=00:01:28.91 bitrate= 943.5kbits/s speed=3.84x    
frame= 2166 fps= 92 q=18.0 size=   10425kB time=00:01:30.98 bitrate= 938.7kbits/s speed=3.84x    
frame= 2215 fps= 92 q=20.0 size=   10642kB time=00:01:33.03 bitrate= 937.1kbits/s speed=3.85x    
frame= 2263 fps= 92 q=20.0 size=   10843kB time=00:01:34.99 bitrate= 935.0kbits/s speed=3.85x    
frame= 2315 fps= 92 q=21.0 size=   11017kB time=00:01:37.17 bitrate= 928.8kbits/s speed=3.86x    
frame= 2364 fps= 92 q=21.0 size=   11216kB time=00:01:39.22 bitrate= 926.0kbits/s speed=3.86x    
frame= 2414 fps= 92 q=21.0 size=   11390kB time=00:01:41.29 bitrate= 921.2kbits/s speed=3.87x    
frame= 2460 fps= 92 q=22.0 size=   11595kB time=00:01:43.21 bitrate= 920.3kbits/s speed=3.87x    
frame= 2502 fps= 92 q=21.0 size=   11741kB time=00:01:45.00 bitrate= 916.0kbits/s speed=3.86x    
frame= 2553 fps= 92 q=23.0 size=   11935kB time=00:01:47.09 bitrate= 913.0kbits/s speed=3.87x    
frame= 2604 fps= 92 q=21.0 size=   12097kB time=00:01:49.20 bitrate= 907.4kbits/s speed=3.87x    
frame= 2647 fps= 92 q=23.0 size=   12293kB time=00:01:50.99 bitrate= 907.3kbits/s speed=3.86x    
frame= 2696 fps= 92 q=22.0 size=   12511kB time=00:01:53.04 bitrate= 906.6kbits/s speed=3.87x    
frame= 2741 fps= 92 q=21.0 size=   12809kB time=00:01:54.92 bitrate= 913.0kbits/s speed=3.87x    
frame= 2789 fps= 92 q=23.0 size=   12976kB time=00:01:56.97 bitrate= 908.8kbits/s speed=3.87x    
frame= 2838 fps= 92 q=23.0 size=   13166kB time=00:01:59.01 bitrate= 906.2kbits/s speed=3.87x    
frame= 2887 fps= 92 q=21.0 size=   13320kB time=00:02:01.06 bitrate= 901.3kbits/s speed=3.88x    
frame= 2934 fps= 92 q=21.0 size=   13462kB time=00:02:02.96 bitrate= 896.8kbits/s speed=3.87x    
frame= 2981 fps= 92 q=24.0 size=   13647kB time=00:02:04.97 bitrate= 894.6kbits/s speed=3.88x    
frame= 3027 fps= 92 q=24.0 size=   13862kB time=00:02:06.87 bitrate= 895.1kbits/s speed=3.87x    
frame= 3078 fps= 93 q=21.0 size=   14150kB time=00:02:08.98 bitrate= 898.7kbits/s speed=3.88x    
frame= 3130 fps= 93 q=21.0 size=   14460kB time=00:02:11.15 bitrate= 903.2kbits/s speed=3.89x    
frame= 3181 fps= 93 q=24.0 size=   14720kB time=00:02:13.27 bitrate= 904.8kbits/s speed=3.89x    
frame= 3230 fps= 93 q=24.0 size=   14946kB time=00:02:15.33 bitrate= 904.7kbits/s speed=3.89x    
frame= 3280 fps= 93 q=21.0 size=   15167kB time=00:02:17.38 bitrate= 904.4kbits/s speed= 3.9x    
frame= 3328 fps= 93 q=23.0 size=   15415kB time=00:02:19.43 bitrate= 905.7kbits/s speed= 3.9x    
frame= 3377 fps= 93 q=23.0 size=   15612kB time=00:02:21.46 bitrate= 904.1kbits/s speed= 3.9x    
frame= 3423 fps= 93 q=24.0 size=   15790kB time=00:02:23.38 bitrate= 902.1kbits/s speed= 3.9x    
frame= 3473 fps= 93 q=23.0 size=   16005kB time=00:02:25.45 bitrate= 901.4kbits/s speed= 3.9x    
frame= 3523 fps= 93 q=23.0 size=   16204kB time=00:02:27.54 bitrate= 899.7kbits/s speed=3.91x    
frame= 3574 fps= 93 q=21.0 size=   16387kB time=00:02:29.67 bitrate= 896.9kbits/s speed=3.91x    
frame= 3626 fps= 93 q=22.0 size=   16608kB time=00:02:31.83 bitrate= 896.1kbits/s speed=3.91x    
frame= 3673 fps= 93 q=24.0 size=   16787kB time=00:02:33.81 bitrate= 894.1kbits/s speed=3.91x    
frame= 3723 fps= 94 q=24.0 size=   16990kB time=00:02:35.88 bitrate= 892.9kbits/s speed=3.92x    
frame= 3773 fps= 94 q=24.0 size=   17224kB time=00:02:37.97 bitrate= 893.2kbits/s speed=3.92x    
frame= 3817 fps= 94 q=25.0 size=   17424kB time=00:02:39.78 bitrate= 893.3kbits/s speed=3.92x    
frame= 3866 fps= 94 q=23.0 size=   17661kB time=00:02:41.89 bitrate= 893.6kbits/s speed=3.92x    
frame= 3916 fps= 94 q=25.0 size=   17876kB time=00:02:43.92 bitrate= 893.3kbits/s speed=3.92x    
frame= 3965 fps= 94 q=20.0 size=   18054kB time=00:02:46.03 bitrate= 890.8kbits/s speed=3.92x    
frame= 4015 fps= 94 q=24.0 size=   18210kB time=00:02:48.04 bitrate= 887.7kbits/s speed=3.93x    
frame= 4065 fps= 94 q=26.0 size=   18403kB time=00:02:50.15 bitrate= 886.0kbits/s speed=3.93x    
frame= 4115 fps= 94 q=24.0 size=   18617kB time=00:02:52.24 bitrate= 885.4kbits/s speed=3.93x    
frame= 4163 fps= 94 q=24.0 size=   18813kB time=00:02:54.29 bitrate= 884.3kbits/s speed=3.93x    
frame= 4207 fps= 94 q=26.0 size=   19015kB time=00:02:56.10 bitrate= 884.5kbits/s speed=3.93x    
frame= 4257 fps= 94 q=22.0 size=   19219kB time=00:02:58.15 bitrate= 883.8kbits/s speed=3.93x    
frame= 4305 fps= 94 q=22.0 size=   19389kB time=00:03:00.20 bitrate= 881.4kbits/s speed=3.93x    
frame= 4355 fps= 94 q=24.0 size=   19591kB time=00:03:02.25 bitrate= 880.6kbits/s speed=3.93x    
frame= 4405 fps= 94 q=23.0 size=   19765kB time=00:03:04.34 bitrate= 878.3kbits/s speed=3.94x    
frame= 4455 fps= 94 q=20.0 size=   20038kB time=00:03:06.41 bitrate= 880.6kbits/s speed=3.94x    
frame= 4505 fps= 94 q=24.0 size=   20252kB time=00:03:08.50 bitrate= 880.1kbits/s speed=3.94x    
frame= 4554 fps= 94 q=23.0 size=   20428kB time=00:03:10.55 bitrate= 878.2kbits/s speed=3.94x    
frame= 4600 fps= 94 q=22.0 size=   20649kB time=00:03:12.47 bitrate= 878.9kbits/s speed=3.94x    
frame= 4644 fps= 94 q=25.0 size=   20893kB time=00:03:14.28 bitrate= 881.0kbits/s speed=3.94x    
frame= 4687 fps= 94 q=23.0 size=   21147kB time=00:03:16.13 bitrate= 883.2kbits/s speed=3.94x    
frame= 4735 fps= 94 q=24.0 size=   21385kB time=00:03:18.10 bitrate= 884.3kbits/s speed=3.93x    
frame= 4786 fps= 94 q=22.0 size=   21589kB time=00:03:20.21 bitrate= 883.3kbits/s speed=3.94x    
frame= 4837 fps= 94 q=22.0 size=   21790kB time=00:03:22.34 bitrate= 882.2kbits/s speed=3.94x    
frame= 4887 fps= 94 q=23.0 size=   21986kB time=00:03:24.43 bitrate= 881.0kbits/s speed=3.94x    
frame= 4937 fps= 94 q=22.0 size=   22186kB time=00:03:26.50 bitrate= 880.1kbits/s speed=3.94x    
frame= 4985 fps= 94 q=20.0 size=   22341kB time=00:03:28.53 bitrate= 877.6kbits/s speed=3.94x    
frame= 5033 fps= 94 q=24.0 size=   22523kB time=00:03:30.58 bitrate= 876.2kbits/s speed=3.95x    
frame= 5085 fps= 94 q=25.0 size=   22733kB time=00:03:32.69 bitrate= 875.6kbits/s speed=3.95x    
frame= 5136 fps= 94 q=23.0 size=   22920kB time=00:03:34.82 bitrate= 874.0kbits/s speed=3.95x    
frame= 5186 fps= 95 q=23.0 size=   23140kB time=00:03:36.91 bitrate= 873.9kbits/s speed=3.95x    
frame= 5236 fps= 95 q=21.0 size=   23348kB time=00:03:38.98 bitrate= 873.4kbits/s speed=3.95x    
frame= 5286 fps= 95 q=26.0 size=   23587kB time=00:03:41.07 bitrate= 874.0kbits/s speed=3.96x    
frame= 5336 fps= 95 q=25.0 size=   23798kB time=00:03:43.21 bitrate= 873.4kbits/s speed=3.96x    
frame= 5383 fps= 95 q=22.0 size=   24008kB time=00:03:45.11 bitrate= 873.7kbits/s speed=3.96x    
frame= 5432 fps= 95 q=21.0 size=   24239kB time=00:03:47.15 bitrate= 874.1kbits/s speed=3.96x    
frame= 5482 fps= 95 q=21.0 size=   24453kB time=00:03:49.22 bitrate= 873.9kbits/s speed=3.96x    
frame= 5530 fps= 95 q=23.0 size=   24737kB time=00:03:51.25 bitrate= 876.3kbits/s speed=3.96x    
frame= 5581 fps= 95 q=22.0 size=   24935kB time=00:03:53.38 bitrate= 875.2kbits/s speed=3.96x    
frame= 5630 fps= 95 q=23.0 size=   25147kB time=00:03:55.47 bitrate= 874.8kbits/s speed=3.96x    
frame= 5679 fps= 95 q=23.0 size=   25437kB time=00:03:57.52 bitrate= 877.3kbits/s speed=3.96x    
frame= 5723 fps= 95 q=22.0 size=   25702kB time=00:03:59.33 bitrate= 879.7kbits/s speed=3.96x    
frame= 5772 fps= 95 q=23.0 size=   25976kB time=00:04:01.32 bitrate= 881.8kbits/s speed=3.96x    
frame= 5821 fps= 95 q=25.0 size=   26241kB time=00:04:03.43 bitrate= 883.0kbits/s speed=3.96x    
frame= 5872 fps= 95 q=23.0 size=   26462kB time=00:04:05.52 bitrate= 882.9kbits/s speed=3.96x    
frame= 5923 fps= 95 q=20.0 size=   26831kB time=00:04:07.63 bitrate= 887.6kbits/s speed=3.97x    
frame= 5975 fps= 95 q=24.0 size=   27132kB time=00:04:09.81 bitrate= 889.7kbits/s speed=3.97x    
frame= 6027 fps= 95 q=22.0 size=   27406kB time=00:04:11.99 bitrate= 891.0kbits/s speed=3.97x    
frame= 6076 fps= 95 q=26.0 size=   27699kB time=00:04:14.05 bitrate= 893.1kbits/s speed=3.97x    
frame= 6123 fps= 95 q=23.0 size=   28008kB time=00:04:16.02 bitrate= 896.2kbits/s speed=3.97x    
frame= 6170 fps= 95 q=26.0 size=   28383kB time=00:04:17.94 bitrate= 901.4kbits/s speed=3.97x    
frame= 6215 fps= 95 q=23.0 size=   28696kB time=00:04:19.86 bitrate= 904.6kbits/s speed=3.97x    
frame= 6263 fps= 95 q=25.0 size=   29039kB time=00:04:21.86 bitrate= 908.4kbits/s speed=3.97x    
frame= 6315 fps= 95 q=22.0 size=   29392kB time=00:04:24.04 bitrate= 911.9kbits/s speed=3.97x    
frame= 6366 fps= 95 q=25.0 size=   29683kB time=00:04:26.13 bitrate= 913.7kbits/s speed=3.97x    
frame= 6417 fps= 95 q=25.0 size=   29974kB time=00:04:28.24 bitrate= 915.4kbits/s speed=3.98x    
frame= 6468 fps= 95 q=24.0 size=   30187kB time=00:04:30.37 bitrate= 914.6kbits/s speed=3.98x    
frame= 6514 fps= 95 q=23.0 size=   30404kB time=00:04:32.29 bitrate= 914.7kbits/s speed=3.98x    
frame= 6565 fps= 95 q=23.0 size=   30716kB time=00:04:34.41 bitrate= 917.0kbits/s speed=3.98x    
frame= 6616 fps= 95 q=23.0 size=   30940kB time=00:04:36.56 bitrate= 916.5kbits/s speed=3.98x    
frame= 6666 fps= 95 q=26.0 size=   31198kB time=00:04:38.63 bitrate= 917.2kbits/s speed=3.98x    
frame= 6715 fps= 95 q=21.0 size=   31450kB time=00:04:40.68 bitrate= 917.9kbits/s speed=3.98x    
frame= 6765 fps= 95 q=21.0 size=   31645kB time=00:04:42.77 bitrate= 916.8kbits/s speed=3.98x    
frame= 6815 fps= 95 q=24.0 size=   31816kB time=00:04:44.84 bitrate= 915.0kbits/s speed=3.98x    
frame= 6865 fps= 95 q=23.0 size=   32007kB time=00:04:46.93 bitrate= 913.8kbits/s speed=3.99x    
frame= 6909 fps= 95 q=20.0 size=   32122kB time=00:04:48.74 bitrate= 911.3kbits/s speed=3.98x    
frame= 6958 fps= 95 q=20.0 size=   32259kB time=00:04:50.85 bitrate= 908.6kbits/s speed=3.98x    
frame= 7006 fps= 95 q=19.0 size=   32406kB time=00:04:52.82 bitrate= 906.6kbits/s speed=3.98x    
frame= 7044 fps= 95 q=21.0 size=   32523kB time=00:04:54.37 bitrate= 905.1kbits/s speed=3.98x    
frame= 7084 fps= 95 q=21.0 size=   32649kB time=00:04:56.08 bitrate= 903.3kbits/s speed=3.97x    
frame= 7132 fps= 95 q=23.0 size=   32788kB time=00:04:58.07 bitrate= 901.1kbits/s speed=3.97x    
frame= 7179 fps= 95 q=22.0 size=   32921kB time=00:05:00.07 bitrate= 898.7kbits/s speed=3.97x    
frame= 7222 fps= 95 q=23.0 size=   33070kB time=00:05:01.86 bitrate= 897.4kbits/s speed=3.97x    
frame= 7261 fps= 95 q=22.0 size=   33253kB time=00:05:03.44 bitrate= 897.7kbits/s speed=3.96x    
frame= 7312 fps= 95 q=22.0 size=   33463kB time=00:05:05.57 bitrate= 897.1kbits/s speed=3.97x    
frame= 7366 fps= 95 q=23.0 size=   33672kB time=00:05:07.86 bitrate= 896.0kbits/s speed=3.97x    
frame= 7420 fps= 95 q=22.0 size=   33840kB time=00:05:10.12 bitrate= 893.9kbits/s speed=3.97x    
frame= 7474 fps= 95 q=21.0 size=   34026kB time=00:05:12.34 bitrate= 892.4kbits/s speed=3.98x    
frame= 7525 fps= 95 q=23.0 size=   34205kB time=00:05:14.51 bitrate= 890.9kbits/s speed=3.98x    
frame= 7561 fps= 95 q=19.0 size=   34329kB time=00:05:16.01 bitrate= 889.9kbits/s speed=3.97x    
frame= 7600 fps= 95 q=25.0 size=   34501kB time=00:05:17.61 bitrate= 889.9kbits/s speed=3.97x    
frame= 7637 fps= 95 q=23.0 size=   34646kB time=00:05:19.12 bitrate= 889.4kbits/s speed=3.96x    
frame= 7683 fps= 95 q=23.0 size=   34798kB time=00:05:21.04 bitrate= 887.9kbits/s speed=3.96x    
frame= 7730 fps= 95 q=23.0 size=   34947kB time=00:05:23.05 bitrate= 886.2kbits/s speed=3.96x    
frame= 7778 fps= 95 q=20.0 size=   35086kB time=00:05:25.01 bitrate= 884.3kbits/s speed=3.96x    
frame= 7823 fps= 95 q=21.0 size=   35223kB time=00:05:26.93 bitrate= 882.6kbits/s speed=3.96x    
frame= 7870 fps= 95 q=20.0 size=   35357kB time=00:05:28.85 bitrate= 880.8kbits/s speed=3.96x    
frame= 7920 fps= 95 q=22.0 size=   35513kB time=00:05:30.96 bitrate= 879.0kbits/s speed=3.96x    
frame= 7964 fps= 95 q=23.0 size=   35732kB time=00:05:32.75 bitrate= 879.7kbits/s speed=3.96x    
frame= 8000 fps= 95 q=23.0 size=   35888kB time=00:05:34.31 bitrate= 879.4kbits/s speed=3.95x    
frame= 8042 fps= 94 q=23.0 size=   36087kB time=00:05:36.02 bitrate= 879.8kbits/s speed=3.95x    
frame= 8082 fps= 94 q=23.0 size=   36262kB time=00:05:37.75 bitrate= 879.5kbits/s speed=3.95x    
frame= 8131 fps= 94 q=23.0 size=   36448kB time=00:05:39.73 bitrate= 878.9kbits/s speed=3.95x    
frame= 8175 fps= 94 q=24.0 size=   36662kB time=00:05:41.59 bitrate= 879.2kbits/s speed=3.94x    
frame= 8224 fps= 94 q=22.0 size=   36862kB time=00:05:43.59 bitrate= 878.9kbits/s speed=3.94x    
frame= 8275 fps= 94 q=22.0 size=   37037kB time=00:05:45.75 bitrate= 877.5kbits/s speed=3.95x    
frame= 8323 fps= 94 q=23.0 size=   37206kB time=00:05:47.79 bitrate= 876.3kbits/s speed=3.95x    
frame= 8366 fps= 94 q=22.0 size=   37338kB time=00:05:49.52 bitrate= 875.1kbits/s speed=3.94x    
frame= 8412 fps= 94 q=23.0 size=   37505kB time=00:05:51.44 bitrate= 874.2kbits/s speed=3.94x    
frame= 8459 fps= 94 q=22.0 size=   37673kB time=00:05:53.43 bitrate= 873.2kbits/s speed=3.94x    
frame= 8505 fps= 94 q=22.0 size=   37859kB time=00:05:55.37 bitrate= 872.7kbits/s speed=3.94x    
frame= 8554 fps= 94 q=24.0 size=   38076kB time=00:05:57.41 bitrate= 872.7kbits/s speed=3.94x    
frame= 8602 fps= 94 q=23.0 size=   38246kB time=00:05:59.38 bitrate= 871.8kbits/s speed=3.94x    
frame= 8643 fps= 94 q=25.0 size=   38411kB time=00:06:01.13 bitrate= 871.3kbits/s speed=3.94x    
frame= 8693 fps= 94 q=23.0 size=   38622kB time=00:06:03.17 bitrate= 871.2kbits/s speed=3.94x    
frame= 8738 fps= 94 q=23.0 size=   38792kB time=00:06:05.07 bitrate= 870.4kbits/s speed=3.94x    
frame= 8782 fps= 94 q=21.0 size=   38936kB time=00:06:06.89 bitrate= 869.4kbits/s speed=3.94x    
frame= 8834 fps= 94 q=21.0 size=   39106kB time=00:06:09.11 bitrate= 867.9kbits/s speed=3.94x    
frame= 8886 fps= 94 q=23.0 size=   39272kB time=00:06:11.22 bitrate= 866.6kbits/s speed=3.94x    
frame= 8929 fps= 94 q=23.0 size=   39439kB time=00:06:13.07 bitrate= 866.0kbits/s speed=3.94x    
frame= 8979 fps= 94 q=22.0 size=   39601kB time=00:06:15.14 bitrate= 864.8kbits/s speed=3.94x    
frame= 9027 fps= 94 q=24.0 size=   39771kB time=00:06:17.13 bitrate= 863.9kbits/s speed=3.94x    
frame= 9074 fps= 94 q=24.0 size=   39946kB time=00:06:19.05 bitrate= 863.3kbits/s speed=3.94x    
frame= 9118 fps= 94 q=24.0 size=   40108kB time=00:06:20.95 bitrate= 862.5kbits/s speed=3.94x    
frame= 9164 fps= 94 q=23.0 size=   40266kB time=00:06:22.87 bitrate= 861.6kbits/s speed=3.94x    
frame= 9206 fps= 94 q=22.0 size=   40415kB time=00:06:24.55 bitrate= 860.9kbits/s speed=3.93x    
frame= 9249 fps= 94 q=22.0 size=   40559kB time=00:06:26.41 bitrate= 859.9kbits/s speed=3.93x    
frame= 9294 fps= 94 q=22.0 size=   40698kB time=00:06:28.24 bitrate= 858.7kbits/s speed=3.93x    
frame= 9325 fps= 94 q=23.0 size=   40796kB time=00:06:29.59 bitrate= 857.8kbits/s speed=3.93x    
frame= 9371 fps= 94 q=24.0 size=   40973kB time=00:06:31.44 bitrate= 857.5kbits/s speed=3.92x    
frame= 9420 fps= 94 q=21.0 size=   41154kB time=00:06:33.55 bitrate= 856.6kbits/s speed=3.93x    
frame= 9459 fps= 94 q=22.0 size=   41279kB time=00:06:35.11 bitrate= 855.8kbits/s speed=3.92x    
frame= 9506 fps= 94 q=19.0 size=   41451kB time=00:06:37.14 bitrate= 855.0kbits/s speed=3.92x    
frame= 9558 fps= 94 q=26.0 size=   41756kB time=00:06:39.25 bitrate= 856.8kbits/s speed=3.92x    
frame= 9609 fps= 94 q=24.0 size=   42179kB time=00:06:41.43 bitrate= 860.7kbits/s speed=3.93x    
frame= 9661 fps= 94 q=27.0 size=   42618kB time=00:06:43.54 bitrate= 865.1kbits/s speed=3.93x    
frame= 9713 fps= 94 q=22.0 size=   42895kB time=00:06:45.71 bitrate= 866.1kbits/s speed=3.93x    
frame= 9765 fps= 94 q=24.0 size=   43246kB time=00:06:47.89 bitrate= 868.5kbits/s speed=3.93x    
frame= 9817 fps= 94 q=23.0 size=   43463kB time=00:06:50.07 bitrate= 868.3kbits/s speed=3.93x    
frame= 9860 fps= 94 q=22.0 size=   43633kB time=00:06:51.86 bitrate= 867.9kbits/s speed=3.93x    
frame= 9911 fps= 94 q=25.0 size=   43866kB time=00:06:53.99 bitrate= 868.0kbits/s speed=3.93x    
frame= 9962 fps= 94 q=27.0 size=   44158kB time=00:06:56.10 bitrate= 869.3kbits/s speed=3.93x    
frame=10011 fps= 94 q=25.0 size=   44404kB time=00:06:58.15 bitrate= 869.9kbits/s speed=3.93x    
frame=10064 fps= 94 q=26.0 size=   44792kB time=00:07:00.37 bitrate= 872.9kbits/s speed=3.94x    
frame=10115 fps= 94 q=24.0 size=   45253kB time=00:07:02.48 bitrate= 877.5kbits/s speed=3.94x    
frame=10167 fps= 94 q=27.0 size=   45666kB time=00:07:04.66 bitrate= 880.9kbits/s speed=3.94x    
frame=10219 fps= 94 q=28.0 size=   46028kB time=00:07:06.83 bitrate= 883.4kbits/s speed=3.94x    
frame=10264 fps= 94 q=23.0 size=   46318kB time=00:07:08.75 bitrate= 885.0kbits/s speed=3.94x    
frame=10316 fps= 94 q=25.0 size=   46670kB time=00:07:10.89 bitrate= 887.3kbits/s speed=3.94x    
frame=10366 fps= 94 q=26.0 size=   47011kB time=00:07:13.00 bitrate= 889.4kbits/s speed=3.94x    
frame=10419 fps= 94 q=24.0 size=   47311kB time=00:07:15.15 bitrate= 890.7kbits/s speed=3.94x    
frame=10469 fps= 94 q=25.0 size=   47591kB time=00:07:17.29 bitrate= 891.5kbits/s speed=3.95x    
frame=10500 fps= 94 q=23.0 size=   47764kB time=00:07:18.57 bitrate= 892.2kbits/s speed=3.94x    
frame=10534 fps= 94 q=24.0 size=   48002kB time=00:07:19.95 bitrate= 893.8kbits/s speed=3.93x    
frame=10583 fps= 94 q=24.0 size=   48411kB time=00:07:22.02 bitrate= 897.2kbits/s speed=3.93x    
frame=10623 fps= 94 q=20.0 size=   48684kB time=00:07:23.67 bitrate= 898.9kbits/s speed=3.93x    
frame=10675 fps= 94 q=21.0 size=   48937kB time=00:07:25.84 bitrate= 899.2kbits/s speed=3.93x    
frame=10719 fps= 94 q=22.0 size=   49141kB time=00:07:27.72 bitrate= 899.1kbits/s speed=3.93x    
frame=10767 fps= 94 q=23.0 size=   49370kB time=00:07:29.68 bitrate= 899.4kbits/s speed=3.93x    
frame=10818 fps= 94 q=25.0 size=   49630kB time=00:07:31.79 bitrate= 899.9kbits/s speed=3.93x    
frame=10856 fps= 94 q=24.0 size=   49809kB time=00:07:33.39 bitrate= 899.9kbits/s speed=3.93x    
frame=10890 fps= 94 q=26.0 size=   50012kB time=00:07:34.80 bitrate= 900.8kbits/s speed=3.92x    

Enter command: <target>|all <time>|-1 <command>[ <argument>]

Parse error, at least 3 arguments were expected, only -1 given in string ''
frame=10912 fps= 90 q=24.0 size=   50124kB time=00:07:35.76 bitrate= 900.9kbits/s speed=3.76x    
frame=10942 fps= 90 q=25.0 size=   50280kB time=00:07:36.98 bitrate= 901.3kbits/s speed=3.75x    
frame=10974 fps= 90 q=25.0 size=   50446kB time=00:07:38.32 bitrate= 901.7kbits/s speed=3.75x    
frame=11026 fps= 90 q=24.0 size=   50669kB time=00:07:40.45 bitrate= 901.4kbits/s speed=3.75x    
frame=11075 fps= 90 q=23.0 size=   50850kB time=00:07:42.50 bitrate= 900.7kbits/s speed=3.75x    
frame=11125 fps= 90 q=23.0 size=   51035kB time=00:07:44.66 bitrate= 899.8kbits/s speed=3.75x    
frame=11174 fps= 90 q=21.0 size=   51241kB time=00:07:46.66 bitrate= 899.5kbits/s speed=3.76x    
frame=11217 fps= 90 q=24.0 size=   51413kB time=00:07:48.45 bitrate= 899.1kbits/s speed=3.76x    
frame=11256 fps= 90 q=24.0 size=   51583kB time=00:07:50.05 bitrate= 899.0kbits/s speed=3.75x    
frame=11292 fps= 90 q=24.0 size=   51734kB time=00:07:51.57 bitrate= 898.7kbits/s speed=3.75x    

Enter command: <target>|all <time>|-1 <command>[ <argument>]

Parse error, at least 3 arguments were expected, only -1 given in string ''
frame=11337 fps= 83 q=20.0 size=   51874kB time=00:07:53.49 bitrate= 897.5kbits/s speed=3.48x    
frame=11379 fps= 83 q=23.0 size=   52010kB time=00:07:55.24 bitrate= 896.5kbits/s speed=3.48x    
frame=11430 fps= 83 q=23.0 size=   52269kB time=00:07:57.33 bitrate= 897.0kbits/s speed=3.48x    
frame=11479 fps= 83 q=22.0 size=   52499kB time=00:07:59.38 bitrate= 897.1kbits/s speed=3.48x    
frame=11531 fps= 83 q=23.0 size=   52739kB time=00:08:01.55 bitrate= 897.2kbits/s speed=3.48x    
frame=11583 fps= 83 q=22.0 size=   52957kB time=00:08:03.69 bitrate= 896.9kbits/s speed=3.49x    
frame=11635 fps= 84 q=21.0 size=   53174kB time=00:08:05.86 bitrate= 896.5kbits/s speed=3.49x    
frame=11672 fps= 84 q=24.0 size=   53323kB time=00:08:07.46 bitrate= 896.1kbits/s speed=3.49x    
frame=11715 fps= 84 q=25.0 size=   53495kB time=00:08:09.25 bitrate= 895.7kbits/s speed=3.49x    
frame=11755 fps= 84 q=25.0 size=   53671kB time=00:08:10.90 bitrate= 895.6kbits/s speed=3.49x    
frame=11807 fps= 84 q=25.0 size=   53869kB time=00:08:13.03 bitrate= 895.1kbits/s speed=3.49x    

Enter command: <target>|all <time>|-1 <command>[ <argument>]

Parse error, at least 3 arguments were expected, only -1 given in string ''
frame=11812 fps= 76 q=25.0 size=   53890kB time=00:08:13.29 bitrate= 894.9kbits/s speed=3.16x    
frame=11854 fps= 76 q=22.0 size=   54071kB time=00:08:15.01 bitrate= 894.8kbits/s speed=3.16x    
frame=11886 fps= 76 q=21.0 size=   54211kB time=00:08:16.40 bitrate= 894.6kbits/s speed=3.16x    
frame=11925 fps= 76 q=22.0 size=   54373kB time=00:08:18.02 bitrate= 894.4kbits/s speed=3.16x    
frame=11975 fps= 76 q=24.0 size=   54574kB time=00:08:20.11 bitrate= 893.9kbits/s speed=3.16x    
frame=12027 fps= 76 q=24.0 size=   54818kB time=00:08:22.23 bitrate= 894.2kbits/s speed=3.16x    
frame=12080 fps= 76 q=25.0 size=   55096kB time=00:08:24.49 bitrate= 894.7kbits/s speed=3.17x    
frame=12131 fps= 76 q=23.0 size=   55398kB time=00:08:26.58 bitrate= 895.9kbits/s speed=3.17x    
frame=12183 fps= 76 q=24.0 size=   55660kB time=00:08:28.75 bitrate= 896.2kbits/s speed=3.17x    
frame=12234 fps= 76 q=22.0 size=   55869kB time=00:08:30.87 bitrate= 895.9kbits/s speed=3.18x    
frame=12288 fps= 76 q=22.0 size=   56093kB time=00:08:33.13 bitrate= 895.5kbits/s speed=3.18x    

Enter command: <target>|all <time>|-1 <command>[ <argument>]

Parse error, at least 3 arguments were expected, only -1 given in string ''
frame=12292 fps= 70 q=21.0 size=   56116kB time=00:08:33.32 bitrate= 895.5kbits/s speed=2.91x    
frame=12338 fps= 70 q=19.0 size=   56308kB time=00:08:35.17 bitrate= 895.4kbits/s speed=2.91x    
frame=12390 fps= 70 q=21.0 size=   56476kB time=00:08:37.35 bitrate= 894.3kbits/s speed=2.92x    
frame=12438 fps= 70 q=20.0 size=   56627kB time=00:08:39.38 bitrate= 893.1kbits/s speed=2.92x    
frame=12487 fps= 70 q=22.0 size=   56785kB time=00:08:41.43 bitrate= 892.1kbits/s speed=2.92x    
frame=12536 fps= 70 q=24.0 size=   56989kB time=00:08:43.49 bitrate= 891.8kbits/s speed=2.93x    
frame=12588 fps= 70 q=19.0 size=   57182kB time=00:08:45.67 bitrate= 891.1kbits/s speed=2.93x    
frame=12636 fps= 70 q=23.0 size=   57360kB time=00:08:47.63 bitrate= 890.6kbits/s speed=2.93x    
frame=12682 fps= 70 q=22.0 size=   57516kB time=00:08:49.55 bitrate= 889.7kbits/s speed=2.94x    
frame=12728 fps= 70 q=25.0 size=   57726kB time=00:08:51.47 bitrate= 889.8kbits/s speed=2.94x    

Enter command: <target>|all <time>|-1 <command>[ <argument>]

Parse error, at least 3 arguments were expected, only -1 given in string ''
frame=12780 fps= 70 q=25.0 size=   57988kB time=00:08:53.65 bitrate= 890.2kbits/s speed=2.94x    
frame=12780 fps= 65 q=25.0 size=   57988kB time=00:08:53.67 bitrate= 890.1kbits/s speed=2.72x    
frame=12826 fps= 65 q=24.0 size=   58212kB time=00:08:55.59 bitrate= 890.4kbits/s speed=2.72x    
frame=12877 fps= 65 q=22.0 size=   58472kB time=00:08:57.68 bitrate= 890.9kbits/s speed=2.73x    
frame=12930 fps= 65 q=24.0 size=   58733kB time=00:08:59.88 bitrate= 891.2kbits/s speed=2.73x    
frame=12980 fps= 65 q=22.0 size=   58997kB time=00:09:01.97 bitrate= 891.7kbits/s speed=2.73x    
frame=13029 fps= 66 q=21.0 size=   59211kB time=00:09:04.02 bitrate= 891.6kbits/s speed=2.74x    
frame=13081 fps= 66 q=20.0 size=   59464kB time=00:09:06.19 bitrate= 891.9kbits/s speed=2.74x    
frame=13133 fps= 66 q=22.0 size=   59693kB time=00:09:08.37 bitrate= 891.7kbits/s speed=2.74x    
frame=13184 fps= 66 q=22.0 size=   59920kB time=00:09:10.48 bitrate= 891.7kbits/s speed=2.75x    
frame=13221 fps= 66 q=21.0 size=   60075kB time=00:09:12.02 bitrate= 891.5kbits/s speed=2.75x    
frame=13265 fps= 66 q=23.0 size=   60251kB time=00:09:13.87 bitrate= 891.1kbits/s speed=2.75x    

Enter command: <target>|all <time>|-1 <command>[ <argument>]

Parse error, at least 3 arguments were expected, only -1 given in string ''
frame=13270 fps= 60 q=22.0 size=   60268kB time=00:09:14.09 bitrate= 891.0kbits/s speed= 2.5x    
frame=13319 fps= 60 q=27.0 size=   60513kB time=00:09:16.13 bitrate= 891.4kbits/s speed=2.51x    
frame=13366 fps= 60 q=25.0 size=   60749kB time=00:09:18.05 bitrate= 891.8kbits/s speed=2.51x    
frame=13417 fps= 60 q=23.0 size=   60945kB time=00:09:20.23 bitrate= 891.2kbits/s speed=2.51x    
frame=13469 fps= 60 q=23.0 size=   61177kB time=00:09:22.39 bitrate= 891.1kbits/s speed=2.52x    
frame=13521 fps= 60 q=24.0 size=   61423kB time=00:09:24.52 bitrate= 891.3kbits/s speed=2.52x    
frame=13570 fps= 60 q=25.0 size=   61673kB time=00:09:26.61 bitrate= 891.7kbits/s speed=2.53x    
frame=13615 fps= 61 q=25.0 size=   61883kB time=00:09:28.47 bitrate= 891.8kbits/s speed=2.53x    
frame=13666 fps= 61 q=22.0 size=   62123kB time=00:09:30.64 bitrate= 891.8kbits/s speed=2.53x    
frame=13717 fps= 61 q=24.0 size=   62432kB time=00:09:32.71 bitrate= 893.0kbits/s speed=2.54x    
frame=13732 fps= 61 q=-1.0 Lsize=   62589kB time=00:09:33.44 bitrate= 894.1kbits/s speed=2.54x    
video:39845kB audio:22455kB subtitle:0kB other streams:0kB global headers:0kB muxing overhead: 0.463515%
[libx264 @ 00000000024e5bc0] frame I:295   Avg QP:14.76  size: 13723
[libx264 @ 00000000024e5bc0] frame P:4983  Avg QP:17.66  size:  5054
[libx264 @ 00000000024e5bc0] frame B:8454  Avg QP:20.92  size:  1368
[libx264 @ 00000000024e5bc0] consecutive B-frames: 11.2% 16.9%  9.5% 62.4%
[libx264 @ 00000000024e5bc0] mb I  I16..4: 20.9% 31.6% 47.5%
[libx264 @ 00000000024e5bc0] mb P  I16..4:  7.8%  6.2%  2.7%  P16..4: 61.7%  0.0%  0.0%  0.0%  0.0%    skip:21.5%

and now a short well working but transcoded mkv: (displayed as Trans/I)

http://192.168.2.11:8096/emby/videos/b89090e36cb3e134bf0cd01dd3a98830/stream.mkv?DeviceId=80953312b3b250f0&MediaSourceId=b89090e36cb3e134bf0cd01dd3a98830&VideoCodec=h264&AudioCodec=aac&AudioStreamIndex=1&VideoBitrate=39872000&AudioBitrate=128000&MaxAudioChannels=2&StartTimeTicks=1200000000&PlaySessionId=a6509665bbe845768e35bd6ebb44a0a6&api_key=feea8a86b43349388629c6dec1608c08&CopyTimestamps=true&ForceLiveStream=false

{"Protocol":"File","Id":"b89090e36cb3e134bf0cd01dd3a98830","Path":"F:\\Filme Fertig\\Der Hobbit - Eine unerwartete Reise (2012)\\Der Hobbit - Eine unerwartete Reise (2012) [720 (AVC)] [AC-3].mkv","Type":"Default","Container":"mkv","Name":"720P/H264/AC3","RunTimeTicks":101781760000,"ReadAtNativeFramerate":false,"SupportsTranscoding":true,"SupportsDirectStream":true,"SupportsDirectPlay":true,"RequiresOpening":false,"RequiresClosing":false,"VideoType":"VideoFile","MediaStreams":[{"Codec":"h264","Language":"eng","NalLengthSize":"4","IsInterlaced":false,"IsAVC":true,"BitRate":2449184,"BitDepth":8,"RefFrames":4,"IsDefault":true,"IsForced":false,"Height":534,"Width":1282,"AverageFrameRate":23.97602,"RealFrameRate":23.97602,"Profile":"High","Type":"Video","AspectRatio":"2.40:1","Index":0,"IsExternal":false,"IsTextSubtitleStream":false,"SupportsExternalStream":false,"PixelFormat":"yuv420p","Level":41,"IsAnamorphic":false},{"Codec":"ac3","Language":"ger","DisplayTitle":"ger ac3 6 ch (D)","IsInterlaced":false,"ChannelLayout":"5.1","BitRate":448000,"Channels":6,"SampleRate":48000,"IsDefault":true,"IsForced":false,"Type":"Audio","Index":1,"IsExternal":false,"IsTextSubtitleStream":false,"SupportsExternalStream":false,"Level":0},{"Codec":"srt","Language":"ger","DisplayTitle":"ger srt","IsInterlaced":false,"IsDefault":false,"IsForced":false,"Type":"Subtitle","Index":2,"IsExternal":false,"IsTextSubtitleStream":true,"SupportsExternalStream":true,"Level":0}],"PlayableStreamFileNames":[],"Formats":[],"Bitrate":2449184,"RequiredHttpHeaders":{}}

C:\Users\MCE\AppData\Roaming\MediaBrowser-Server\ffmpeg\20160410\ffmpeg.exe -ss 00:02:00.000 -fflags +genpts -i file:"F:\Filme Fertig\Der Hobbit - Eine unerwartete Reise (2012)\Der Hobbit - Eine unerwartete Reise (2012) [720 (AVC)] [AC-3].mkv" -map 0:0 -map 0:1 -map -0:s -codec:v:0 libx264 -force_key_frames expr:gte(t,n_forced*5) -vf "scale=trunc(min(max(iw\,ih*dar)\,1280)/2)*2:trunc(ow/dar/2)*2" -copyts -avoid_negative_ts disabled -start_at_zero -pix_fmt yuv420p -preset superfast -crf 23 -b:v 2449184 -maxrate 2449184 -bufsize 4898368 -vsync vfr -map_metadata -1 -threads 3 -codec:a:0 aac -strict experimental -ac 2 -ab 128000 -af "aresample=async=1,volume=2" -y "Z:\transcoding-temp\c1b1e1f0a7c7f3a2d98a4676870b4219.mkv"


ffmpeg version N-79277-g0c90b2e Copyright (c) 2000-2016 the FFmpeg developers
  built with gcc 5.3.0 (GCC)
  configuration: --enable-gpl --enable-version3 --disable-w32threads --enable-avisynth --enable-bzlib --enable-fontconfig --enable-frei0r --enable-gnutls --enable-iconv --enable-libass --enable-libbluray --enable-libbs2b --enable-libcaca --enable-libfreetype --enable-libgme --enable-libgsm --enable-libilbc --enable-libmodplug --enable-libmfx --enable-libmp3lame --enable-libopencore-amrnb --enable-libopencore-amrwb --enable-libopenjpeg --enable-libopus --enable-librtmp --enable-libschroedinger --enable-libsnappy --enable-libsoxr --enable-libspeex --enable-libtheora --enable-libtwolame --enable-libvidstab --enable-libvo-amrwbenc --enable-libvorbis --enable-libvpx --enable-libwavpack --enable-libwebp --enable-libx264 --enable-libx265 --enable-libxavs --enable-libxvid --enable-libzimg --enable-lzma --enable-decklink --enable-zlib
  libavutil      55. 20.100 / 55. 20.100
  libavcodec     57. 34.100 / 57. 34.100
  libavformat    57. 32.100 / 57. 32.100
  libavdevice    57.  0.101 / 57.  0.101
  libavfilter     6. 41.100 /  6. 41.100
  libswscale      4.  1.100 /  4.  1.100
  libswresample   2.  0.101 /  2.  0.101
  libpostproc    54.  0.100 / 54.  0.100
Input #0, matroska,webm, from 'file:F:\Filme Fertig\Der Hobbit - Eine unerwartete Reise (2012)\Der Hobbit - Eine unerwartete Reise (2012) [720 (AVC)] [AC-3].mkv':
  Metadata:
    encoder         : libebml v1.3.0 + libmatroska v1.4.0
    creation_time   : 2013-07-07 22:57:33
  Duration: 02:49:38.18, start: 0.000000, bitrate: 2449 kb/s
    Stream #0:0(eng): Video: h264 (High), yuv420p(tv, bt709), 1282x534 [SAR 1281:1282 DAR 427:178], SAR 1:1 DAR 641:267, 23.98 fps, 23.98 tbr, 1k tbn, 47.95 tbc (default)
    Stream #0:1(ger): Audio: ac3, 48000 Hz, 5.1(side), fltp, 448 kb/s (default)
    Stream #0:2(ger): Subtitle: subrip
[libx264 @ 000000000277c4a0] using SAR=3647/3655
[libx264 @ 000000000277c4a0] using cpu capabilities: MMX2 SSE2Fast SSSE3 SSE4.2 AVX LZCNT BMI1 SlowPshufb
[libx264 @ 000000000277c4a0] profile High, level 3.1
[libx264 @ 000000000277c4a0] 264 - core 148 r2665 a01e339 - H.264/MPEG-4 AVC codec - Copyleft 2003-2016 - http://www.videolan.org/x264.html - options: cabac=1 ref=1 deblock=1:0:0 analyse=0x3:0x3 me=dia subme=1 psy=1 psy_rd=1.00:0.00 mixed_ref=0 me_range=16 chroma_me=1 trellis=0 8x8dct=1 cqm=0 deadzone=21,11 fast_pskip=1 chroma_qp_offset=0 threads=3 lookahead_threads=1 sliced_threads=0 nr=0 decimate=1 interlaced=0 bluray_compat=0 constrained_intra=0 bframes=3 b_pyramid=2 b_adapt=1 b_bias=0 direct=1 weightb=1 open_gop=0 weightp=1 keyint=250 keyint_min=23 scenecut=40 intra_refresh=0 rc_lookahead=0 rc=crf mbtree=0 crf=23.0 qcomp=0.60 qpmin=0 qpmax=69 qpstep=4 vbv_maxrate=2449 vbv_bufsize=4898 crf_max=0.0 nal_hrd=none filler=0 ip_ratio=1.40 pb_ratio=1.30 aq=1:1.00
Output #0, matroska, to 'Z:\transcoding-temp\c1b1e1f0a7c7f3a2d98a4676870b4219.mkv':
  Metadata:
    encoder         : Lavf57.32.100
    Stream #0:0: Video: h264 (libx264) (H264 / 0x34363248), yuv420p, 1280x532 [SAR 85253:85440 DAR 641:267], q=-1--1, 2449 kb/s, 23.98 fps, 1k tbn, 23.98 tbc (default)
    Metadata:
      encoder         : Lavc57.34.100 libx264
    Side data:
      cpb: bitrate max/min/avg: 2449000/0/2449000 buffer size: 4898000 vbv_delay: -1
    Stream #0:1: Audio: aac (LC) ([255][0][0][0] / 0x00FF), 48000 Hz, stereo, fltp, 128 kb/s (default)
    Metadata:
      encoder         : Lavc57.34.100 aac
Stream mapping:
  Stream #0:0 -> #0:0 (h264 (native) -> h264 (libx264))
  Stream #0:1 -> #0:1 (ac3 (native) -> aac (native))
Press [q] to stop, [?] for help
frame=    0 fps=0.0 q=0.0 size=       0kB time=00:02:00.40 bitrate=   0.0kbits/s speed= 240x    
frame=   15 fps=7.9 q=23.0 size=     139kB time=00:02:00.91 bitrate=   9.5kbits/s speed=63.9x    
frame=   23 fps=9.4 q=23.0 size=     340kB time=00:02:01.19 bitrate=  22.9kbits/s speed=49.7x    
frame=   36 fps= 12 q=22.0 size=     632kB time=00:02:01.94 bitrate=  42.5kbits/s speed=41.4x    
frame=   47 fps= 12 q=23.0 size=     703kB time=00:02:02.19 bitrate=  47.1kbits/s speed=32.3x    
frame=   53 fps= 12 q=23.0 size=     749kB time=00:02:02.45 bitrate=  50.1kbits/s speed=27.8x    
frame=   59 fps= 12 q=23.0 size=     796kB time=00:02:02.83 bitrate=  53.1kbits/s speed=24.8x    
frame=   63 fps= 12 q=23.0 size=     826kB time=00:02:03.09 bitrate=  54.9kbits/s speed=22.6x    
frame=   72 fps= 12 q=20.0 size=     893kB time=00:02:03.35 bitrate=  59.3kbits/s speed=20.7x    
frame=   77 fps= 11 q=23.0 size=     926kB time=00:02:03.60 bitrate=  61.4kbits/s speed=  18x    
frame=   87 fps= 12 q=23.0 size=    1002kB time=00:02:03.88 bitrate=  66.2kbits/s speed=16.8x    
Link to comment
Share on other sites

here is the transcoding log for the stuttering AVI: (displayed as Direct /V)

 

That can't be.  You wouldn't have a transcode log if it were direct streaming in VLC.

 

Pretty sure it says Trans/I when you play these.

 

Also, if that is the case, there would be no way to adjust the audio delay in the player...

 

Finally, by "stuttering" do you mean a slight frame-skip every so often in fast moving scenes (of which this video has a lot)?

Link to comment
Share on other sites

when i wrote the post with the logs, i played the files to see what is displayed. please look into the attached photos.

 

yes i mean frame skipping, but it not only happens in fast sceenes.

 

i have installed tinycore https://play.google.com/store/apps/details?id=org.neotech.app.tinycore&hl=de to see RAM and/or CPU load. when the movies play CPU load is not high. so i think it is a problem while transcoding on the PC.

 

Sherlock Holmes:

post-540-0-78672300-1463584095_thumb.jpgpost-540-0-66235100-1463584186_thumb.jpg

 

Hobbit:

post-540-0-35482200-1463584293_thumb.jpgpost-540-0-59584000-1463584365_thumb.jpg

 

would it help to see serversettings? maybe there is a false setting.

Edited by maximus1
Link to comment
Share on other sites

If you are seeing frame-skipping while direct playing with VLC, I don't think there is anything we're going to be able to do about it.

 

However, there would be no transcode log on the server if that were the case.  Are you positive that transcode log is being produced by that specific playback?

 

If, instead, you are seeing frame skipping while playing back a transcode with the internal player, there may be hope in a future version.

Link to comment
Share on other sites

if there should not be a transcode log... why do i have them?

 

i hope the "future version" comes in the near future. ;-)

 

would it be possilbe to let the user decide which player to use? so i can try several and report back.

Link to comment
Share on other sites

if there should not be a transcode log... why do i have them?

 

It would be possible that they are coming from a different playback session.

 

Try deleting all of the transcode logs, then play this item in the app and confirm what the display says.  Then see if a transcode log was created.

 

If it still says "Direct/V" and there is a transcode log then the only thing I can think of is that the display is somehow incorrect - although I've never been able to make that happen.

 

Based on the logic in the app and the fact that this item is an AVI, it should be transcoding and the display should say "Trans/I".

 

During the above test, you could also use the option in the app to send a log and then I could see what is going on on that side as well.

 

Thanks.

Link to comment
Share on other sites

logging is enabled.

 

when i got the logs i used the newest files.

can it be that some codec settings inside the files are not "the standard" emby expects?

Link to comment
Share on other sites

logging is enabled.

 

when i got the logs i used the newest files.

can it be that some codec settings inside the files are not "the standard" emby expects?

 

Can you try turning down the bitrate from 40Mbps to say 20Mbps, and see if it still skips?

 

With FireTV Sticks I have noticed that setting it to a high bit rate this can sometimes skip because throughput over wireless may not always be consistent.

Link to comment
Share on other sites

logging is enabled.

 

when i got the logs i used the newest files.

can it be that some codec settings inside the files are not "the standard" emby expects?

 

Can you please do the test I requested?  Thanks.

 

 

It would be possible that they are coming from a different playback session.

 

Try deleting all of the transcode logs, then play this item in the app and confirm what the display says.  Then see if a transcode log was created.

 

If it still says "Direct/V" and there is a transcode log then the only thing I can think of is that the display is somehow incorrect - although I've never been able to make that happen.

 

Based on the logic in the app and the fact that this item is an AVI, it should be transcoding and the display should say "Trans/I".

 

During the above test, you could also use the option in the app to send a log and then I could see what is going on on that side as well.

 

Thanks.

Link to comment
Share on other sites

@ebr:

i did some different testing as you wated. i´ve installed KODI with emby addon on my stick. everyting works flawless. no frameskip, no delay, faster response to my aktions. fully customizable, no pay to play.

i don´t know what kodi does to work better with media, but it does a great job.

 

maybe you should have a look on both apps to see and feel the differenes. maybe you get an idea what to improve on your app. apps from one company should work best together.

 

at the moment for me kodi is the better solution on my stick.

 

 

btw.... please add a subforum or pinned thread with detailed changelogs for all your apps and programs.

Link to comment
Share on other sites

Create an account or sign in to comment

You need to be a member in order to leave a comment

Create an account

Sign up for a new account in our community. It's easy!

Register a new account

Sign in

Already have an account? Sign in here.

Sign In Now
 Share

×
×
  • Create New...