Jump to content

Playing DivX video streams on MKV containers


EduardoSantos
 Share

Recommended Posts

EduardoSantos

Hi,

 

I have a series of mkv files containing DivX video and AC3 audio streams.

Emby's web interface plays them nicely but on Roku 3 I see no image - only sound is played.

 

I understand Roku will not play the DivX stream but it seems Emby does not transcode on this scenario.

Should I post log files or is this already known?

 

Thanks,

Link to comment
Share on other sites

No, we need to find the media characteristic that we should be checking in order to make it transcode. perhaps you can help with that.

Link to comment
Share on other sites

EduardoSantos

Would this be of any help?

Geral
Unique ID                                : 208460230684496058824780790976139278837 (0x9CD3FAE47C52E7D0BD85A0EA12BCB9F5)
Complete name                            : \\W-EDUARDO-WEI\Videos\Séries\Monty Pythons Flying Circus (1969)\Season 1\Monty Pythons Flying Circus (1969) S01E01.mkv
Format                                   : Matroska
Format version                           : Version 4 / Version 2
File size                                : 412 MiB
Duration                                 : 31mn 13s
Overall bit rate                         : 1 842 Kbps
Movie name                               : Monty Pythons Flying Circus (1969) S01E01
Encoded date                             : UTC 2013-10-22 16:13:55
Writing application                      : mkvmerge v6.2.0 ('Promised Land') built on Apr 28 2013 12:22:01
Writing library                          : libebml v1.3.0 + libmatroska v1.4.0

Vídeo
ID                                       : 1
Format                                   : MPEG-4 Visual
Format profile                           : Advanced Simple@L5
Format settings, BVOP                    : 2
Format settings, QPel                    : Não
Format settings, GMC                     : Sem warppoints
Format settings, Matrix                  : Default (H.263)
Codec ID                                 : V_MS/VFW/FOURCC / DIVX
Codec ID/Info                            : Project Mayo
Codec ID/Hint                            : DivX 4
Duration                                 : 31mn 13s
Bit rate                                 : 1 614 Kbps
Width                                    : 720 pixels
Height                                   : 544 pixels
Display aspect ratio                     : 4:3
Frame rate mode                          : TConstante
Frame rate                               : 25.000 fps
Color space                              : YUV
Chroma subsampling                       : 4:2:0
Bit depth                                : 8 bits
Scan type                                : Progressivo
Bits/(Pixel*Frame)                       : 0.165
Stream size                              : 360 MiB (88%)
Title                                    : Monty Pythons Flying Circus (1969) S01E01
Writing library                          : XviD 1.2.1 (UTC 2008-12-04)
Language                                 : Inglês
Default                                  : Sim
Forced                                   : Não

Áudio
ID                                       : 2
Format                                   : AC-3
Format/Info                              : Audio Coding 3
Mode extension                           : CM (complete main)
Format settings, Endianness              : Big
Codec ID                                 : A_AC3
Duration                                 : 31mn 13s
Bit rate mode                            : Constante
Bit rate                                 : 192 Kbps
Channel(s)                               : 2 canais
Channel positions                        : Front: L R
Sampling rate                            : 48.0 KHz
Stream size                              : 42.9 MiB (10%)
Title                                    : English
Language                                 : Inglês
Default                                  : Sim
Forced                                   : Não

Link to comment
Share on other sites

Happy2Play

Since the file isn't h264 should it transcode?

 

Format settings, Matrix : Default (H.263)

Link to comment
Share on other sites

EduardoSantos

Luke, sorry for the delay. This is the web client output:

 

Informações da Mídia
Vídeo
CodecMPEG4
PerfilAdvanced Simple Profile
Nível5
Resolução720x544
Proporção da imagem4:3
AnamórficoNo
EntrelaçadoNo
Framerate25
Taxa1799 kbps
Bit da imagem8 bit
Formato do pixelyuv420p
Áudio
Idiomaeng
CodecAC3
Layoutstereo
Canais2 ch
Taxa187 kbps
Taxa da amostra48000 khz
PadrãoYes
Recipientemkv
CaminhoE:\Videos\Séries\Monty Pythons Flying Circus (1969)\Season 1\Monty Pythons Flying Circus (1969) S01E01.mkv
Tamanho412 MB
Link to comment
Share on other sites

Create an account or sign in to comment

You need to be a member in order to leave a comment

Create an account

Sign up for a new account in our community. It's easy!

Register a new account

Sign in

Already have an account? Sign in here.

Sign In Now
 Share

×
×
  • Create New...