Jump to content


Photo

Help with transcoding files


Best Answer Luke , 27 April 2015 - 10:30 PM

yes it's limited to 30

Go to the full post


  • Please log in to reply
2 replies to this topic

#1 farside847 OFFLINE  

farside847

    Advanced Member

  • Members
  • 247 posts
  • Local time: 11:24 PM

Posted 27 April 2015 - 09:52 PM

Hi guys, I started to notice that a few of my kids shows are transcoding when I play them back on the roku - could it be the framerate? I dont remember it being this picky, but technically the roku only supports 24 and 30fps. this file is 60.

 

Stream #0:0(und): Video: h264 (High) (avc1 / 0x31637661), yuv420p(tv, bt709), 1280x720 [SAR 1:1 DAR 16:9], 3204 kb/s, 51.61 fps, 59.94 tbr, 90k tbn, 180k tbc (default)
    Metadata:
      handler_name    : VideoHandler
    Stream #0:1(und): Audio: aac (LC) (mp4a / 0x6134706D), 48000 Hz, stereo, fltp, 384 kb/s (default)
    Metadata:
      handler_name    : Stereo

    Stream #0:2: Video: mjpeg, yuvj444p(pc, bt470bg/unknown/unknown), 680x1000 [SAR 72:72 DAR 17:25], 90k tbr, 90k tbn, 90k tbc 

 

I will post the transcode log, but the server log is huge so I wont bother unless its needed. :)

Attached Files



#2 Luke OFFLINE  

Luke

    System Architect

  • Administrators
  • 124278 posts
  • Local time: 02:24 AM

Posted 27 April 2015 - 10:30 PM   Best Answer

yes it's limited to 30


  • farside847 likes this

#3 farside847 OFFLINE  

farside847

    Advanced Member

  • Members
  • 247 posts
  • Local time: 11:24 PM

Posted 27 April 2015 - 11:41 PM

cool, thanks!






0 user(s) are reading this topic

0 members, 0 guests, 0 anonymous users