Jump to content
chudak

What does it mean ? ‘muxing overhead: 3.817597%‘

Recommended Posts

chudak

I started seeming my server unexpectedly stopped lately.

The last message in the logs in below.

Does anybody know it’s meaning ?

Thx
 

13:43:30.318 frame=93500 fps= 25 q=-1.0 size= 1673216kB time=01:03:40.35 bitrate=3589.1kbits/s throttle=off speed=1.01x    
13:43:30.318 13:43:30.318 frame=93500 fps= 25 q=-1.0 Lsize= 1673325kB time=01:03:40.35 bitrate=3589.3kbits/s throttle=off speed=1.01x    
13:43:30.318 video:1535186kB audio:76607kB subtitle:0kB other streams:0kB global headers:0kB muxing overhead: 3.817597%
    Last message repeated 1 times
13:43:30.318 EXIT
 

Share this post


Link to post
Share on other sites
Happy2Play

I would think devs would need to see the entire log.

Google says

Quote

Muxing overhead is extra information inside the file describing how video and audio streams are arranged (muxed) in the file. This means the total file size is a little bit larger than the sum of the streams.

 

Share this post


Link to post
Share on other sites
Luke
Quote

I would think devs would need to see the entire log.

Yes exactly.

Share this post


Link to post
Share on other sites
chudak

Per my devops request:

 

>>>>>>  User policy for chudak
EnablePlaybackRemuxing: True
EnableVideoPlaybackTranscoding: True
EnableAudioPlaybackTranscoding: True


>>>>>>  Processing Plan
Info    NameCanDoInHardware      WillDoInHardware     Reason
Info    Copy video stream>> FalseFalseSoftware Codec
Info    VideoInput>> FalseFalseNot a hardware decoder
Info    VideoOutput>> FalseFalseNot a hardware encoder
Info    Copy video stream>> FalseFalseSoftware Codec
/muxing
09:29:54.864 SegmentComplete=video:0 Index=65 Start=390.000000 End=395.999000 Duration=5.999000 offset_pts=0 start_pts=390000000 Frames=180 filename=59574A_65.ts
09:29:54.864 [segment @ 0x20302c0] Opening '/tmp/ramdisk/transcoding-temp/59574A_66.ts.tmp' for writing
09:29:54.870 [segment @ 0x20302c0] Opening '/tmp/ramdisk/transcoding-temp/59574A.m3u8.tmp' for writing
09:29:54.871 SegmentComplete=video:0 Index=66 Start=396.000000 End=401.999000 Duration=5.999000 offset_pts=0 start_pts=396000000 Frames=180 filename=59574A_66.ts
09:29:54.871 [segment @ 0x20302c0] Opening '/tmp/ramdisk/transcoding-temp/59574A_67.ts.tmp' for writing
09:29:55.630 frame=12211 fps=727 q=-1.0 size=  236927kB time=00:06:47.01 bitrate=5945.6kbits/s throttle=off speed=19.4x
09:29:55.631 [segment @ 0x20302c0] Opening '/tmp/ramdisk/transcoding-temp/59574A.m3u8.tmp' for writing
09:29:55.631 SegmentComplete=video:0 Index=67 Start=402.000000 End=407.999000 Duration=5.999000 offset_pts=0 start_pts=402000000 Frames=180 filename=59574A_67.ts
09:29:55.631 [segment @ 0x20302c0] Opening '/tmp/ramdisk/transcoding-temp/59574A_68.ts.tmp' for writing
09:29:56.032 [segment @ 0x20302c0] Opening '/tmp/ramdisk/transcoding-temp/59574A.m3u8.tmp' for writing
09:29:56.033 SegmentComplete=video:0 Index=68 Start=408.000000 End=413.999000 Duration=5.999000 offset_pts=0 start_pts=408000000 Frames=180 filename=59574A_68.ts
09:29:56.033 [segment @ 0x20302c0] Opening '/tmp/ramdisk/transcoding-temp/59574A_69.ts.tmp' for writing
09:29:56.038 [segment @ 0x20302c0] Opening '/tmp/ramdisk/transcoding-temp/59574A.m3u8.tmp' for writing
09:29:56.038 SegmentComplete=video:0 Index=69 Start=414.000000 End=419.999000 Duration=5.999000 offset_pts=0 start_pts=414000000 Frames=180 filename=59574A_69.ts
09:29:56.038 [segment @ 0x20302c0] Opening '/tmp/ramdisk/transcoding-temp/59574A_70.ts.tmp' for writing
09:29:56.457

[q] command received. Exiting.

09:29:56.457 09:29:56.457 [segment @ 0x20302c0] Opening '/tmp/ramdisk/transcoding-temp/59574A.m3u8.tmp' for writing
09:29:56.458 SegmentComplete=video:0 Index=70 Start=420.000000 End=420.966000 Duration=0.966000 offset_pts=0 start_pts=420000000 Frames=29 filename=59574A_70.ts
09:29:56.458 frame=12629 fps=716 q=-1.0 Lsize=  245130kB time=00:07:00.93 bitrate=5900.0kbits/s throttle=off speed=19.3x
09:29:56.458 video:235113kB audio:10017kB subtitle:0kB other streams:0kB global headers:0kB muxing overhead: 0.000000%
    Last message repeated 1 times
09:29:56.458 EXIT
09:29:56.458

======= ExtraData
H4sIAAAAAAAAA71X32/iOBD+VypL9wYkobQF3li63auuva1Kd19Oq8gkE2Lh2JHtUNiK/33HTsKvwNKeTseTM54Zz3zfeDy8kbHMMipiMnwjd4wbUHpv+c+PdYt84XJK+dfcMCncdrn8TnkBVueN/E0zIEOyIi3ipBOjmJihxKgCyLq10chRbsKZonmqw4RxaFh4C6o8zqYeZNOVx+VMe0mS5TBrx0xBZLRRQLO2T6eDwL+B9s0guWr34iBo9xP/up10g24cD2DgQxQG7qCOWZrdGCKZr4w+G6o2VJmQmvAnKHlC26JzL/LClDDcQlYsQTkEgZpCQeUro0ZJPaetV5hm6KvafVnldrc2a5HTGP9Y10fdixiWZOhXn09KGhlJ3jw0NSZvnLVvc/bEd5CeNLDZz3YHUhpFhaIGQg0wb5gllOsK04kjuQY1kvExUNPuda+R33cWg6xNzgOqR4XZqA9dBC3yCDGjfzF7K0p/Zxy1Sq0yaKsxRndRFeWfZZROw8m3kTvZMxUzqze5fUbRE1sCv5MKISwdcanqT7IqFr2ubzn9LDBCgaJvQucQsYRBTFw+9wIvLqcRftfpfGLmGUFH7V7n8uJxyoxnqx/F+gmUO5EMg66T3EJuUjLst8gzJHcKU8AUgzpB9tN6Cbp9f3nT9dHHaAGKzsApVmdc+l5ArDnlR8QjG64Nh0nr6Xo4sEkr6VrBkDxSJlDwAAsbE+l1ieNI0EyqPGXRJqftJShR32UfbRzQLyyDT1S7kL1rG+6eJPB937m/hYQWHAG2d9oKEPBd/Eacv9CZo9rufl4iwoLyan9t6/tkjVIaNUp0VMTsX5doGeNuhTp3ZyvUaR2v0NFoTCqFukDLsMcpFQI4uuhuPh7oSha2GMvFBLFwiG+LLOjfdK4u5nWZTWiW87oKJqrXr2AvCQwOCKyTaRJYG/7/HGplGhxOiqlhhsN/R2Pt8SyTteJxMifPL2SrU/NZpnCvv9j3kEWbxDc8dA942IlmB9za5hDdB+xhBXVtDLCV/wZum/d6jcJvyl5wL7MIeKtCsde2KCLvkWbUm4Bi6Nh7SeFinEoNwi11CnkKKu5k8wWxPr4WZvP0Ph5/eDXMMhBN/h7PPrjbOaB0ESZlG248djiaYAy7g0NlwJluqnsmyz3sizHTc88oKjRWBG61DeDG1eDqpjfqZJdF/5TH0NgMGlGcsDB4WxrK18c0y3FHFNnUAbNv4e9aTLFO5qGQIpzDKinfiHPDFNY4W7C4oDxMgeIVCDF37PnNo6opYGv6qhhODB+1qtMqrS24J0e49405GV2GMXDanHGvfPfbG3QWksWhgBk+dAs8vgkQ8k+n3L3av5mk6vLdUcpoHmZgaEwNbei3g0PVKKW5G+WPqdp2Ul6i01NkNaTvX58Do7Pdb3eeG0t8RyID8UQW2EXubfPzh7aNf2zu2tajbgJnJ6wwy3tG2ldrOS15PnV4QD76pG4ORx5zqZndbHJc9c2D/x74H0gq3WTEd0Fue+M7OkX4R9yxzccSWf5ncx3eRVyvLAO/ACX9k9XoDQAA
333,93Bot
Enter throttle value: <int, ms wait per input cycle> (0 to disable)

Setting throttle value to 100 ms
09:29:51.404 frame=11780 fps=948 q=-1.0 size=  228746kB time=00:06:32.64 bitrate=6004.8kbits/s throttle=100 speed=25.1x
09:29:51.905 frame=11782 fps=908 q=-1.0 size=  228783kB time=00:06:32.70 bitrate=6004.6kbits/s throttle=100 speed=  24x
09:29:52.406 frame=11784 fps=874 q=-1.0 size=  228814kB time=00:06:32.76 bitrate=6004.1kbits/s throttle=100 speed=23.2x
>> ThrottleByStreamBufferSize: PlaybackPosition: 00:04:01 - TranscodingPosition: 00:06:32 - ThrottleBuffer: 151s (Treshold: 115s)
09:29:52.906 frame=11786 fps=843 q=-1.0 size=  228850kB time=00:06:32.83 bitrate=6003.8kbits/s throttle=100 speed=22.3x
09:29:53.407 frame=11788 fps=814 q=-1.0 size=  228880kB time=00:06:32.90 bitrate=6003.3kbits/s throttle=100 speed=21.6x
09:29:53.908 frame=11790 fps=787 q=-1.0 size=  228916kB time=00:06:32.96 bitrate=6003.0kbits/s throttle=100 speed=20.8x
09:29:54.408 frame=11792 fps=762 q=-1.0 size=  228952kB time=00:06:33.03 bitrate=6002.7kbits/s throttle=100 speed=20.2x
>> ThrottleByStreamBufferSize: PlaybackPosition: 00:05:35 - TranscodingPosition: 00:06:33 - ThrottleBuffer: 58s (Treshold: 115s)
Enter throttle value: <int, ms wait per input cycle> (0 to disable)

Disable throttling
09:29:54.862 frame=11794 fps=738 q=-1.0 size=  228983kB time=00:06:33.10 bitrate=6002.2kbits/s throttle=off speed=19.6x
09:29:54.864 [segment @ 0x20302c0] Opening '/tmp/ramdisk/transcoding-temp/59574A.m3u8.tmp' for writing
09:29:54.864 SegmentComplete=video:0 Index=65 Start=390.000000 End=395.999000 Duration=5.999000 offset_pts=0 start_pts=390000000 Frames=180 filename=59574A_65.ts
09:29:54.864 [segment @ 0x20302c0] Opening '/tmp/ramdisk/transcoding-temp/59574A_66.ts.tmp' for writing
09:29:54.870 [segment @ 0x20302c0] Opening '/tmp/ramdisk/transcoding-temp/59574A.m3u8.tmp' for writing
09:29:54.871 SegmentComplete=video:0 Index=66 Start=396.000000 End=401.999000 Duration=5.999000 offset_pts=0 start_pts=396000000 Frames=180 filename=59574A_66.ts
09:29:54.871 [segment @ 0x20302c0] Opening '/tmp/ramdisk/transcoding-temp/59574A_67.ts.tmp' for writing
09:29:55.630 frame=12211 fps=727 q=-1.0 size=  236927kB time=00:06:47.01 bitrate=5945.6kbits/s throttle=off speed=19.4x
09:29:55.631 [segment @ 0x20302c0] Opening '/tmp/ramdisk/transcoding-temp/59574A.m3u8.tmp' for writing
09:29:55.631 SegmentComplete=video:0 Index=67 Start=402.000000 End=407.999000 Duration=5.999000 offset_pts=0 start_pts=402000000 Frames=180 filename=59574A_67.ts
09:29:55.631 [segment @ 0x20302c0] Opening '/tmp/ramdisk/transcoding-temp/59574A_68.ts.tmp' for writing
09:29:56.032 [segment @ 0x20302c0] Opening '/tmp/ramdisk/transcoding-temp/59574A.m3u8.tmp' for writing
09:29:56.033 SegmentComplete=video:0 Index=68 Start=408.000000 End=413.999000 Duration=5.999000 offset_pts=0 start_pts=408000000 Frames=180 filename=59574A_68.ts
09:29:56.033 [segment @ 0x20302c0] Opening '/tmp/ramdisk/transcoding-temp/59574A_69.ts.tmp' for writing
09:29:56.038 [segment @ 0x20302c0] Opening '/tmp/ramdisk/transcoding-temp/59574A.m3u8.tmp' for writing
09:29:56.038 SegmentComplete=video:0 Index=69 Start=414.000000 End=419.999000 Duration=5.999000 offset_pts=0 start_pts=414000000 Frames=180 filename=59574A_69.ts
09:29:56.038 [segment @ 0x20302c0] Opening '/tmp/ramdisk/transcoding-temp/59574A_70.ts.tmp' for writing
09:29:56.457

[q] command received. Exiting.

09:29:56.457 09:29:56.457 [segment @ 0x20302c0] Opening '/tmp/ramdisk/transcoding-temp/59574A.m3u8.tmp' for writing
09:29:56.458 SegmentComplete=video:0 Index=70 Start=420.000000 End=420.966000 Duration=0.966000 offset_pts=0 start_pts=420000000 Frames=29 filename=59574A_70.ts
09:29:56.458 frame=12629 fps=716 q=-1.0 Lsize=  245130kB time=00:07:00.93 bitrate=5900.0kbits/s throttle=off speed=19.3x
09:29:56.458 video:235113kB audio:10017kB subtitle:0kB other streams:0kB global headers:0kB muxing overhead: 0.000000%
    Last message repeated 1 times
09:29:56.458 EXIT
09:29:56.458

======= ExtraData
H4sIAAAAAAAAA71X32/iOBD+VypL9wYkobQF3li63auuva1Kd19Oq8gkE2Lh2JHtUNiK/33HTsKvwNKeTseTM54Zz3zfeDy8kbHMMipiMnwjd4wbUHpv+c+PdYt84XJK+dfcMCncdrn8TnkBVueN/E0zIEOyIi3ipBOjmJihxKgCyLq10chRbsKZonmqw4RxaFh4C6o8zqYeZNOVx+VMe0mS5TBrx0xBZLRRQLO2T6eDwL+B9s0guWr34iBo9xP/up10g24cD2DgQxQG7qCOWZrdGCKZr4w+G6o2VJmQmvAnKHlC26JzL/LClDDcQlYsQTkEgZpCQeUro0ZJPaetV5hm6KvafVnldrc2a5HTGP9Y10fdixiWZOhXn09KGhlJ3jw0NSZvnLVvc/bEd5CeNLDZz3YHUhpFhaIGQg0wb5gllOsK04kjuQY1kvExUNPuda+R33cWg6xNzgOqR4XZqA9dBC3yCDGjfzF7K0p/Zxy1Sq0yaKsxRndRFeWfZZROw8m3kTvZMxUzqze5fUbRE1sCv5MKISwdcanqT7IqFr2ubzn9LDBCgaJvQucQsYRBTFw+9wIvLqcRftfpfGLmGUFH7V7n8uJxyoxnqx/F+gmUO5EMg66T3EJuUjLst8gzJHcKU8AUgzpB9tN6Cbp9f3nT9dHHaAGKzsApVmdc+l5ArDnlR8QjG64Nh0nr6Xo4sEkr6VrBkDxSJlDwAAsbE+l1ieNI0EyqPGXRJqftJShR32UfbRzQLyyDT1S7kL1rG+6eJPB937m/hYQWHAG2d9oKEPBd/Eacv9CZo9rufl4iwoLyan9t6/tkjVIaNUp0VMTsX5doGeNuhTp3ZyvUaR2v0NFoTCqFukDLsMcpFQI4uuhuPh7oSha2GMvFBLFwiG+LLOjfdK4u5nWZTWiW87oKJqrXr2AvCQwOCKyTaRJYG/7/HGplGhxOiqlhhsN/R2Pt8SyTteJxMifPL2SrU/NZpnCvv9j3kEWbxDc8dA942IlmB9za5hDdB+xhBXVtDLCV/wZum/d6jcJvyl5wL7MIeKtCsde2KCLvkWbUm4Bi6Nh7SeFinEoNwi11CnkKKu5k8wWxPr4WZvP0Ph5/eDXMMhBN/h7PPrjbOaB0ESZlG248djiaYAy7g0NlwJluqnsmyz3sizHTc88oKjRWBG61DeDG1eDqpjfqZJdF/5TH0NgMGlGcsDB4WxrK18c0y3FHFNnUAbNv4e9aTLFO5qGQIpzDKinfiHPDFNY4W7C4oDxMgeIVCDF37PnNo6opYGv6qhhODB+1qtMqrS24J0e49405GV2GMXDanHGvfPfbG3QWksWhgBk+dAs8vgkQ8k+n3L3av5mk6vLdUcpoHmZgaEwNbei3g0PVKKW5G+WPqdp2Ul6i01NkNaTvX58Do7Pdb3eeG0t8RyID8UQW2EXubfPzh7aNf2zu2tajbgJnJ6wwy3tG2ldrOS15PnV4QD76pG4ORx5zqZndbHJc9c2D/x74H0gq3WTEd0Fue+M7OkX4R9yxzccSWf5ncx3eRVyvLAO/ACX9k9XoDQAA

Share this post


Link to post
Share on other sites
Luke

That's only a snippet. Please attach the complete file as well as the emby server log. thanks.

Share this post


Link to post
Share on other sites
chudak

@Luke

the only unusual thing about this, I’m using a ram drive for transcoding -

/tmp/ramdisk

and cache path -

/tmp/ramdisk/transcoding-temp

Share this post


Link to post
Share on other sites
Luke

What do you mean by server stopping? it doesn't seem like that happened here.

Share this post


Link to post
Share on other sites
chudak

The server was unresponsive 

and I’ve seen it more then one time 

will keep an eye on it 

Share this post


Link to post
Share on other sites
mastrmind11
8 hours ago, chudak said:

The server was unresponsive 

and I’ve seen it more then one time 

will keep an eye on it 

the entire server was unresponsive or just emby?  the former is generally caused by lack of free memory, and if you're using your RAM as a disk it's entirely possible for memory starvation (unless of course you've capped the size of your RAM disk)

  • Like 1

Share this post


Link to post
Share on other sites
chudak
On 9/14/2020 at 6:16 AM, mastrmind11 said:

the entire server was unresponsive or just emby?  the former is generally caused by lack of free memory, and if you're using your RAM as a disk it's entirely possible for memory starvation (unless of course you've capped the size of your RAM disk)

Sounds you were right.  Only emby was down.

I've used a ram drive and possibly emby was not happy with this, odd but a fact .

Thank you!

  • Like 1

Share this post


Link to post
Share on other sites

Create an account or sign in to comment

You need to be a member in order to leave a comment

Create an account

Sign up for a new account in our community. It's easy!

Register a new account

Sign in

Already have an account? Sign in here.

Sign In Now

×
×
  • Create New...