Jump to content


Photo

HTTP error 403 Forbidden when recording


  • Please log in to reply
27 replies to this topic

#1 xiltepin OFFLINE  

xiltepin

    Member

  • Members
  • 15 posts
  • Local time: 04:22 AM

Posted 07 December 2018 - 01:16 AM

I am new to Emby, have been using it for about 2-3 weeks and would appreciate if someone can help me with this issue.

 

I have been trying to record on different channels. Sometimes it records for 30 seconds and sometimes it records nothing.

Any ideas of how I could solve this?

 

The emby server is running on Ubuntu.

Autoloop option is enabled.

I am pasting the log here:

{"Protocol":"Http","Id":"795f1ff2400af03870b48a9c07f717fd","Path":"http://tv.latintvweb.com:25461/live/eduardosanches03/Btimn2Povo/11605.m3u8","Type":"Default","Container":"hls,applehttp","Size":2974,"IsRemote":true,"ReadAtNativeFramerate":false,"IgnoreDts":true,"IgnoreIndex":false,"GenPtsInput":false,"SupportsTranscoding":true,"SupportsDirectStream":false,"SupportsDirectPlay":false,"IsInfiniteStream":true,"RequiresOpening":true,"RequiresClosing":true,"LiveStreamId":"a17c75760a04e99b68cf766e11316e1c_09efa0d56b934a82adec00a87b837fb0_795f1ff2400af03870b48a9c07f717fd","RequiresLooping":true,"SupportsProbing":true,"MediaStreams":[{"Codec":"h264","TimeBase":"1/90000","CodecTimeBase":"1001/120000","VideoRange":"SDR","DisplayTitle":"720P H264","NalLengthSize":"0","IsInterlaced":false,"BitRate":8000000,"BitDepth":8,"RefFrames":1,"IsDefault":false,"IsForced":false,"Height":720,"Width":1280,"AverageFrameRate":59.94006,"RealFrameRate":59.94006,"Profile":"High","Type":"Video","AspectRatio":"16:9","Index":-1,"IsExternal":false,"IsTextSubtitleStream":false,"SupportsExternalStream":false,"PixelFormat":"yuv420p","Level":32,"IsAnamorphic":false},{"Codec":"aac","TimeBase":"1/90000","CodecTimeBase":"1/44100","DisplayTitle":"AAC stereo","IsInterlaced":false,"ChannelLayout":"stereo","BitRate":192000,"Channels":2,"SampleRate":44100,"IsDefault":false,"IsForced":false,"Profile":"LC","Type":"Audio","Index":-1,"IsExternal":false,"IsTextSubtitleStream":false,"SupportsExternalStream":false,"Level":0}],"Formats":[],"Bitrate":8192000,"RequiredHttpHeaders":{"User-Agent":"Mozilla/5.0 (Windows NT 10.0; Win64; x64) AppleWebKit/537.36 (KHTML, like Gecko) Chrome/64.0.3282.85 Safari/537.36"},"AnalyzeDurationMs":3000}

/opt/emby-server/bin/ffmpeg -async 1 -vsync -1 -fflags +igndts -stream_loop -1 -reconnect_at_eof 1 -reconnect_streamed 1 -reconnect_delay_max 2 -analyzeduration 5000000 -i "http://tv.latintvweb.com:25461/live/eduardosanches03/Btimn2Povo/11605.m3u8" -codec:v:0 copy -fflags +genpts -map_metadata -1 -threads 0 -codec:a:0 copy -sn -y "/media/dvr/La ▒~Zltima Palabra/La ▒~Zltima Palabra 2018_12_07_00_00_00.ts"


ffmpeg version 4.0.2-emby_2018_09_13 Copyright (c) 2000-2018 the FFmpeg developers
  built with gcc 6.3.0 (crosstool-NG crosstool-ng-1.23.0)
  configuration: --cc=x86_64-pc-linux-gnu-gcc --arch=x86_64 --prefix=/home/embybuilder/Buildbot/x64/ffmpeg-x64/staging --pkg-config=pkg-config --disable-doc --disable-ffplay --disable-vdpau --disable-xlib --enable-fontconfig --enable-gnutls --enable-gpl --enable-iconv --enable-libass --enable-libfreetype --enable-libfribidi --enable-libmp3lame --enable-libopus --enable-libtheora --enable-libvorbis --enable-libwebp --enable-libx264 --enable-libzvbi --enable-version3 --disable-decoders --disable-encoders --enable-decoder=aac --enable-decoder=aac_fixed --enable-decoder=aac_latm --enable-decoder=ac3 --enable-decoder=ac3_fixed --enable-decoder=alac --enable-decoder=apng --enable-decoder=ass --enable-decoder=ayuv --enable-decoder=bmp --enable-decoder=dca --enable-decoder=dirac --enable-decoder=dvbsub --enable-decoder=dvdsub --enable-decoder=eac3 --enable-decoder=flac --enable-decoder=gif --enable-decoder=h264 --enable-decoder=hevc --enable-decoder=huffyuv --enable-decoder=mjpeg --enable-decoder=mlp --enable-decoder=mov_text --enable-decoder=mp3 --enable-decoder=mp3float --enable-decoder=mpeg4 --enable-decoder=opus --enable-decoder=pcm_alaw --enable-decoder=pcm_bluray --enable-decoder=pcm_dvd --enable-decoder=pcm_f16le --enable-decoder=pcm_f24le --enable-decoder=pcm_f32be --enable-decoder=pcm_f32le --enable-decoder=pcm_f64be --enable-decoder=pcm_f64le --enable-decoder=pcm_lxf --enable-decoder=pcm_mulaw --enable-decoder=pcm_s16be --enable-decoder=pcm_s16be_planar --enable-decoder=pcm_s16le --enable-decoder=pcm_s16le_planar --enable-decoder=pcm_s24be --enable-decoder=pcm_s24daud --enable-decoder=pcm_s24le --enable-decoder=pcm_s24le_planar --enable-decoder=pcm_s32be --enable-decoder=pcm_s32le --enable-decoder=pcm_s32le_planar --enable-decoder=pcm_s64be --enable-decoder=pcm_s64le --enable-decoder=pcm_s8 --enable-decoder=pcm_s8_planar --enable-decoder=pcm_u16be --enable-decoder=pcm_u16le --enable-decoder=pcm_u24be --enable-decoder=pcm_u24le --enable-decoder=pcm_u32be --enable-decoder=pcm_u32le --enable-decoder=pcm_u8 --enable-decoder=pcm_zork --enable-decoder=pgssub --enable-decoder=png --enable-decoder=r210 --enable-decoder=rawvideo --enable-decoder=ssa --enable-decoder=subrip --enable-decoder=srt --enable-decoder=text --enable-decoder=theora --enable-decoder=truehd --enable-decoder=v210 --enable-decoder=v210x --enable-decoder=v308 --enable-decoder=v408 --enable-decoder=v410 --enable-decoder=vorbis --enable-decoder=vp8 --enable-decoder=vp9 --enable-decoder=webp --enable-decoder=webvtt --enable-decoder=wmalossless --enable-decoder=wmapro --enable-decoder=wmav1 --enable-decoder=wmav2 --enable-decoder=wmavoice --enable-decoder=wmv1 --enable-decoder=wmv2 --enable-decoder=wmv3 --enable-decoder=wmv3image --enable-decoder=y41p --enable-decoder=yuv4 --enable-decoder=zero12v --enable-encoder=aac --enable-encoder=ac3 --enable-encoder=ac3_fixed --enable-encoder=ass --enable-encoder=dvbsub --enable-encoder=dvdsub --enable-encoder=flac --enable-encoder=libmp3lame --enable-encoder=libopus --enable-encoder=libtheora --enable-encoder=libvorbis --enable-encoder=libwebp --enable-encoder=libx264 --enable-encoder=mjpeg --enable-encoder=mov_text --enable-encoder=png --enable-encoder=srt --enable-encoder=ssa --enable-encoder=subrip --enable-encoder=text --enable-encoder=webvtt --enable-libsmbclient --enable-decoder=mp1 --enable-decoder=mp2 --enable-decoder=mpegvideo --enable-decoder=mpeg1video --enable-decoder=mpeg2video --enable-decoder=vc1 --enable-cuda --enable-cuvid --enable-nvenc --enable-vaapi --enable-decoder=h264_cuvid --enable-decoder=hevc_cuvid --enable-decoder=mjpeg_cuvid --enable-decoder=mpeg1_cuvid --enable-decoder=mpeg2_cuvid --enable-decoder=mpeg4_cuvid --enable-decoder=vc1_cuvid --enable-decoder=vp8_cuvid --enable-decoder=vp9_cuvid --enable-encoder=h264_nvenc --enable-encoder=h264_vaapi --enable-encoder=hevc_nvenc --enable-encoder=hevc_vaapi --enable-encoder=mjpeg_vaapi --enable-cross-compile --cross-prefix=x86_64-pc-linux-gnu- --extra-libs='-ldl -lexpat -lfreetype -lfribidi -lfontconfig -liconv -lpng -luuid -lz -lvorbis -logg -lnettle -lhogweed -lgmp -laddns-samba4 -lasn1util-samba4 -lauthkrb5-samba4 -lCHARSET3-samba4 -lcliauth-samba4 -lcli-cldap-samba4 -lcli-ldap-common-samba4 -lcli-nbt-samba4 -lcli-smb-common-samba4 -lcom_err -lcommon-auth-samba4 -ldbwrap-samba4 -ldcerpc-binding -ldcerpc-samba-samba4 -lflag-mapping-samba4 -lgenrand-samba4 -lgensec-samba4 -lgse-samba4 -lgssapi_krb5 -llibcli-lsa3-samba4 -llibsmb-samba4 -linterfaces-samba4 -liov-buf-samba4 -lk5crypto -lkrb5 -lkrb5samba-samba4 -lkrb5support -lldb -lldbsamba-samba4 -lmessages-dgm-samba4 -lmessages-util-samba4 -lmsghdr-samba4 -lmsrpc3-samba4 -lndr -lndr-krb5pac -lndr-nbt -lndr-samba-samba4 -lndr-standard -lreplace-samba4 -lsamba-cluster-support-samba4 -lsamba-credentials -lsamba-debug-samba4 -lsamba-errors -lsamba-hostconfig -lsamba-modules-samba4 -lsamba-security-samba4 -lsamba-sockets-samba4 -lsamba-util -lsamba3-util-samba4 -lsamdb -lsamdb-common-samba4 -lsecrets3-samba4 -lserver-id-db-samba4 -lserver-role-samba4 -lsmbconf -lsmbd-shim-samba4 -lsmb-transport-samba4 -lsocket-blocking-samba4 -lsys-rw-samba4 -ltalloc -ltalloc-report-samba4 -ltdb -ltdb-wrap-samba4 -ltevent -ltevent-util -ltime-basic-samba4 -lutil-cmdline-samba4 -lutil-reg-samba4 -lutil-setid-samba4 -lutil-tdb-samba4 -lwbclient -lwinbind-client-samba4 -ldrm' --target-os=linux --enable-shared --disable-static
  libavutil      56. 14.100 / 56. 14.100
  libavcodec     58. 18.100 / 58. 18.100
  libavformat    58. 12.100 / 58. 12.100
  libavdevice    58.  3.100 / 58.  3.100
  libavfilter     7. 16.100 /  7. 16.100
  libswscale      5.  1.100 /  5.  1.100
  libswresample   3.  1.100 /  3.  1.100
  libpostproc    55.  1.100 / 55.  1.100
[http @ 0x1444140] Will reconnect at 2974 in 0 second(s), error=End of file.
    Last message repeated 192 times
[http @ 0x1444140] HTTP error 403 Forbidden
[http @ 0x1444140] Will reconnect at 2974 in 1 second(s), error=End of file.
[http @ 0x1444140] HTTP error 403 Forbidden
[http @ 0x1444140] Will reconnect at 2974 in 0 second(s), error=End of file.
[http @ 0x1444140] HTTP error 403 Forbidden
[http @ 0x1444140] Will reconnect at 2974 in 1 second(s), error=End of file.
[http @ 0x1444140] HTTP error 403 Forbidden
[http @ 0x1444140] HTTP error 403 Forbidden


Edited by xiltepin, 07 December 2018 - 01:28 AM.


#2 Luke OFFLINE  

Luke

    System Architect

  • Administrators
  • 127030 posts
  • Local time: 03:22 PM

Posted 07 December 2018 - 01:49 AM

HI, only your iptv provider can tell you why they are sending back 403 forbidden, but this most likely means you are probably exceeding their simultaneous connection limits. have you looked into that?



#3 xiltepin OFFLINE  

xiltepin

    Member

  • Members
  • 15 posts
  • Local time: 04:22 AM

Posted 07 December 2018 - 01:59 AM

That was my guess but I confirmed that I was streaming only one.

I have noticed that sometimes my android phone keeps running my emby app on the background. Probably it was that. I will confirm.

Is there anyway that my provider could block emby from recording?



#4 Luke OFFLINE  

Luke

    System Architect

  • Administrators
  • 127030 posts
  • Local time: 03:22 PM

Posted 07 December 2018 - 02:00 AM

Were you watching and recording at the same time?



#5 xiltepin OFFLINE  

xiltepin

    Member

  • Members
  • 15 posts
  • Local time: 04:22 AM

Posted 07 December 2018 - 02:10 AM

Yes I was.

Now I get it. I didn't know that would add one more streaming client if I watch and record at the same time.

Now that I try to only record I guet this. Would this mean that the channel is unstable?

Thank you for the help. Much appreciated! :)


{"Protocol":"Http","Id":"35dec85acf053d3b5ab4f8dc9f2824c5","Path":"http://tv.latintvweb.com:25461/live/eduardosanches03/Btimn2Povo/15072.m3u8","Type":"Default","Container":"hls,applehttp","Size":2972,"IsRemote":true,"ReadAtNativeFramerate":false,"IgnoreDts":true,"IgnoreIndex":false,"GenPtsInput":false,$

/opt/emby-server/bin/ffmpeg -async 1 -vsync -1 -fflags +igndts -stream_loop -1 -reconnect_at_eof 1 -reconnect_streamed 1 -reconnect_delay_max 2 -analyzeduration 5000000 -i "http://tv.latintvweb.com:25461/live/eduardosanches03/Btimn2Povo/15072.m3u8" -codec:v:0 copy -fflags +genpts -map_metadata -1 -thre$


ffmpeg version 4.0.2-emby_2018_09_13 Copyright (c) 2000-2018 the FFmpeg developers
  built with gcc 6.3.0 (crosstool-NG crosstool-ng-1.23.0)
  configuration: --cc=x86_64-pc-linux-gnu-gcc --arch=x86_64 --prefix=/home/embybuilder/Buildbot/x64/ffmpeg-x64/staging --pkg-config=pkg-config --disable-doc --disable-ffplay --disable-vdpau --disable-xlib --enable-fontconfig --enable-gnutls --enable-gpl --enable-iconv --enable-libass --enable-libfreety$
  libavutil      56. 14.100 / 56. 14.100
  libavcodec     58. 18.100 / 58. 18.100
  libavformat    58. 12.100 / 58. 12.100
  libavdevice    58.  3.100 / 58.  3.100
  libavfilter     7. 16.100 /  7. 16.100
  libswscale      5.  1.100 /  5.  1.100
  libswresample   3.  1.100 /  3.  1.100
  libpostproc    55.  1.100 / 55.  1.100
[http @ 0xbcb140] Will reconnect at 2973 in 0 second(s), error=End of file.
    Last message repeated 49 times
[http @ 0xbcb140] Will reconnect at 2974 in 0 second(s), error=End of file.
    Last message repeated 67 times
[http @ 0xbcb140] Will reconnect at 2973 in 0 second(s), error=End of file.
    Last message repeated 56 times
[http @ 0xbcb140] Will reconnect at 2972 in 0 second(s), error=End of file.
    Last message repeated 61 times
[http @ 0xbcb140] Will reconnect at 2971 in 0 second(s), error=End of file.
    Last message repeated 64 times
[http @ 0xbcb140] Will reconnect at 2972 in 0 second(s), error=End of file.


#6 Luke OFFLINE  

Luke

    System Architect

  • Administrators
  • 127030 posts
  • Local time: 03:22 PM

Posted 07 December 2018 - 02:12 AM

That makes it look like there's no more data to read. To play and record at the same time while only using a single connection to your iptv provider, make sure to play the recording rather than playing the channel.



#7 xiltepin OFFLINE  

xiltepin

    Member

  • Members
  • 15 posts
  • Local time: 04:22 AM

Posted 07 December 2018 - 02:23 AM

Were you watching and recording at the same time?

 

This is answering a lot of my questions and issues. I just found that my provider only allows 2 connections at the same time from the same city.

Now my emby server is in vps in the US and I am in Japan. In the past I also tried to record and watch a different channel with vlc. This makes sense.

 

 

Thank you!

I think I have to learn how to read the log files.

 

Sometimes I record long sport matches and the server sports recording after 40-90 mins. I might have questions at that time. Thank you for your prompt response! :)



#8 Luke OFFLINE  

Luke

    System Architect

  • Administrators
  • 127030 posts
  • Local time: 03:22 PM

Posted 07 December 2018 - 11:58 AM

Thanks for the feedback.

#9 xiltepin OFFLINE  

xiltepin

    Member

  • Members
  • 15 posts
  • Local time: 04:22 AM

Posted 09 December 2018 - 05:11 AM

I am getting the error below only with one streaming

[http @ 0xbcb140] Will reconnect at 2973 in 0 second(s), error=End of file.
    Last message repeated 49 times

With VLC and the web app provided by my iptv provider I don't have any issues when streaming. Only with Emby.

What could be the reason of this issue?



#10 Luke OFFLINE  

Luke

    System Architect

  • Administrators
  • 127030 posts
  • Local time: 03:22 PM

Posted 09 December 2018 - 02:46 PM

That's nothing to worry about. That's why you enable stream looping, to auto-reconnect when that happens.



#11 xiltepin OFFLINE  

xiltepin

    Member

  • Members
  • 15 posts
  • Local time: 04:22 AM

Posted 10 December 2018 - 08:23 PM

I contacted my provider, let them now I am using Emby and that I am having this issue. They asked me to add this parameters to my list url: [type=m3u_plus&output=ts]

That fixed the issue but I constantly see this message in my log:
 
 
frame= 2688 fps=112 q=-1.0 size=N/A time=00:00:44.82 bitrate=N/A speed=1.87x
[segment @ 0x1e1cfc0] Opening '/var/lib/emby/transcoding-temp/aa2150f3d7e0d2f9786e669ff354c4d4.m3u8.tmp' for writing
[segment @ 0x1e1cfc0] Opening '/var/lib/emby/transcoding-temp/aa2150f3d7e0d2f9786e669ff354c4d415.ts' for writing
frame= 2752 fps=110 q=-1.0 size=N/A time=00:00:45.89 bitrate=N/A speed=1.83x
frame= 2832 fps=109 q=-1.0 size=N/A time=00:00:47.22 bitrate=N/A speed=1.82x
frame= 2986 fps=107 q=-1.0 size=N/A time=00:00:49.79 bitrate=N/A speed=1.78x
frame= 2999 fps=103 q=-1.0 size=N/A time=00:00:50.02 bitrate=N/A speed=1.72x
[segment @ 0x1e1cfc0] Opening '/var/lib/emby/transcoding-temp/aa2150f3d7e0d2f9786e669ff354c4d4.m3u8.tmp' for writing
[segment @ 0x1e1cfc0] Opening '/var/lib/emby/transcoding-temp/aa2150f3d7e0d2f9786e669ff354c4d416.ts' for writing
frame= 3075 fps=102 q=-1.0 size=N/A time=00:00:51.28 bitrate=N/A speed=1.71x
frame= 3128 fps=101 q=-1.0 size=N/A time=00:00:52.16 bitrate=N/A speed=1.68x
[segment @ 0x1e1cfc0] Opening '/var/lib/emby/transcoding-temp/aa2150f3d7e0d2f9786e669ff354c4d4.m3u8.tmp' for writing
[segment @ 0x1e1cfc0] Opening '/var/lib/emby/transcoding-temp/aa2150f3d7e0d2f9786e669ff354c4d417.ts' for writing

 



Searching on this forum I found this:

Which means it is something I can ignore and just wait for the next release, correct?


#12 Luke OFFLINE  

Luke

    System Architect

  • Administrators
  • 127030 posts
  • Local time: 03:22 PM

Posted 10 December 2018 - 09:00 PM

Are you have a problem or are you just observing the log?

#13 xiltepin OFFLINE  

xiltepin

    Member

  • Members
  • 15 posts
  • Local time: 04:22 AM

Posted 10 December 2018 - 09:56 PM

When I tested (for about 5 mins) there were no issues. Now the channels won't play. Perhaps because the list is refreshing? Let me provide an update once the list finished refreshing.


Edited by xiltepin, 10 December 2018 - 10:27 PM.


#14 snodrog742 OFFLINE  

snodrog742

    Advanced Member

  • Members
  • 216 posts
  • Local time: 02:22 PM

Posted 10 December 2018 - 10:25 PM

When I tested (for about 5 mins) there were no issues. Now the channels won't play. Perhaps because not the list is refreshing? Let me provide an update once the list finished refreshing.

 

Yes, a refresh can prevent playback I've noticed.  Not sure if expected behavior or not, @Luke?  When it's refreshing it can take up to an hour for us so kind of an inconvenience.



#15 Luke OFFLINE  

Luke

    System Architect

  • Administrators
  • 127030 posts
  • Local time: 03:22 PM

Posted 10 December 2018 - 10:50 PM

We'd have to look at a log file.

#16 xiltepin OFFLINE  

xiltepin

    Member

  • Members
  • 15 posts
  • Local time: 04:22 AM

Posted 10 December 2018 - 11:03 PM

This the error I get in the log while refreshing a list.


User policy for Edu: EnablePlaybackRemuxing: True EnableVideoPlaybackTranscoding: True EnableAudioPlaybackTranscoding: True

/opt/emby-server/bin/ffmpeg -analyzeduration 3000000 -user_agent "Mozilla/5.0 (Windows NT 10.0; Win64; x64) AppleWebKit/537.36 (KHTML, like Gecko) Chrome$

ffmpeg version 4.0.2-emby_2018_09_13 Copyright (c) 2000-2018 the FFmpeg developers
  built with gcc 6.3.0 (crosstool-NG crosstool-ng-1.23.0)
  configuration: --cc=x86_64-pc-linux-gnu-gcc --arch=x86_64 --prefix=/home/embybuilder/Buildbot/x64/ffmpeg-x64/staging --pkg-config=pkg-config --disable-$
  libavutil      56. 14.100 / 56. 14.100
  libavcodec     58. 18.100 / 58. 18.100
  libavformat    58. 12.100 / 58. 12.100
  libavdevice    58.  3.100 / 58.  3.100
  libavfilter     7. 16.100 /  7. 16.100
  libswscale      5.  1.100 /  5.  1.100
  libswresample   3.  1.100 /  3.  1.100
  libpostproc    55.  1.100 / 55.  1.100
Input #0, mpegts, from 'http://stellartv.xyz:83/yWp1Gt9k/JmQVrJE8/307343':
  Duration: N/A, start: 21622.377267, bitrate: N/A
  Program 1
    Metadata:
      service_name    : Service01
      service_provider: FFmpeg
    Stream #0:0[0x100]: Video: h264 (High) ([27][0][0][0] / 0x001B), yuv420p(progressive), 1280x720 [SAR 1:1 DAR 16:9], Closed Captions, 59.94 fps, 59.94$
    Stream #0:1[0x101]: Audio: aac (LC) ([15][0][0][0] / 0x000F), 48000 Hz, stereo, fltp, 110 kb/s
Stream mapping:
  Stream #0:0 -> #0:0 (h264 (native) -> h264 (libx264))
  Stream #0:1 -> #0:1 (copy)
Press [q] to stop, [?] for help
x264 [error]: high profile doesn't support lossless
[libx264 @ 0x21f8e00] Error setting profile high.
[libx264 @ 0x21f8e00] Possible profiles: baseline main high high10 high422 high444
Error initializing output stream 0:0 -- Error while opening encoder for output stream #0:0 - maybe incorrect parameters such as bit_rate, rate, width or $
Conversion failed!





This did not happen before refreshing the list. I will try again after it finish refreshing and report.



#17 Luke OFFLINE  

Luke

    System Architect

  • Administrators
  • 127030 posts
  • Local time: 03:22 PM

Posted 11 December 2018 - 12:56 AM

i don't quite understand. Refreshing doesn't create an ffmpeg log. Please make sure to attach complete log files. Thanks.



#18 xiltepin OFFLINE  

xiltepin

    Member

  • Members
  • 15 posts
  • Local time: 04:22 AM

Posted 11 December 2018 - 01:05 AM

That is not what happened.

What I tried to mention is that while refreshing it is not possible to watch channels.

That ffmpeg log was created when I tried to watch a channel while the list was still being refreshed.


Edited by xiltepin, 11 December 2018 - 01:05 AM.


#19 xiltepin OFFLINE  

xiltepin

    Member

  • Members
  • 15 posts
  • Local time: 04:22 AM

Posted 11 December 2018 - 06:54 AM

This is the log while watching a channel after it finished refreshing.

  libavutil      56. 14.100 / 56. 14.100
  libavcodec     58. 18.100 / 58. 18.100
  libavformat    58. 12.100 / 58. 12.100
  libavdevice    58.  3.100 / 58.  3.100
  libavfilter     7. 16.100 /  7. 16.100
  libswscale      5.  1.100 /  5.  1.100
  libswresample   3.  1.100 /  3.  1.100
  libpostproc    55.  1.100 / 55.  1.100
Input #0, mpegts, from 'http://stellartv.xyz:83/yWp1Gt9k/JmQVrJE8/317857':
  Duration: N/A, start: 3222.221133, bitrate: N/A
  Program 1 
    Metadata:
      service_name    : Service01
      service_provider: FFmpeg
    Stream #0:0[0x100]: Video: h264 (High) ([27][0][0][0] / 0x001B), yuv420p(progressive), 1280x720 [SAR 1:1 DAR 16:9], Closed Captions, 59.94 fps, 59.94 tbr, 90k tbn, 119.88 tbc
    Stream #0:1[0x101]: Audio: aac (LC) ([15][0][0][0] / 0x000F), 48000 Hz, stereo, fltp, 125 kb/s
[segment @ 0x7140c0] Opening '/var/lib/emby/transcoding-temp/cd875b6038d58130ee98abe92a2c0b000.ts' for writing
Output #0, segment, to '/var/lib/emby/transcoding-temp/cd875b6038d58130ee98abe92a2c0b00%d.ts':
  Metadata:
    encoder         : Lavf58.12.100
    Stream #0:0: Video: h264 (High) ([27][0][0][0] / 0x001B), yuv420p(progressive), 1280x720 [SAR 1:1 DAR 16:9], q=2-31, 59.94 fps, 59.94 tbr, 90k tbn, 59.94 tbc
    Stream #0:1: Audio: aac (LC) ([15][0][0][0] / 0x000F), 48000 Hz, stereo, fltp, 125 kb/s
Stream mapping:
  Stream #0:0 -> #0:0 (copy)
  Stream #0:1 -> #0:1 (copy)
Press [q] to stop, [?] for help
[segment @ 0x7140c0] Non-monotonous DTS in output stream 0:0; previous: 2811, current: 2811; changing to 2812. This may result in incorrect timestamps in the output file.
[segment @ 0x7140c0] Opening '/var/lib/emby/transcoding-temp/cd875b6038d58130ee98abe92a2c0b00.m3u8.tmp' for writing
[segment @ 0x7140c0] Opening '/var/lib/emby/transcoding-temp/cd875b6038d58130ee98abe92a2c0b001.ts' for writing
[segment @ 0x7140c0] Opening '/var/lib/emby/transcoding-temp/cd875b6038d58130ee98abe92a2c0b00.m3u8.tmp' for writing
[segment @ 0x7140c0] Opening '/var/lib/emby/transcoding-temp/cd875b6038d58130ee98abe92a2c0b002.ts' for writing
[segment @ 0x7140c0] Opening '/var/lib/emby/transcoding-temp/cd875b6038d58130ee98abe92a2c0b00.m3u8.tmp' for writing
[segment @ 0x7140c0] Opening '/var/lib/emby/transcoding-temp/cd875b6038d58130ee98abe92a2c0b003.ts' for writing
[segment @ 0x7140c0] Opening '/var/lib/emby/transcoding-temp/cd875b6038d58130ee98abe92a2c0b00.m3u8.tmp' for writing
[segment @ 0x7140c0] Opening '/var/lib/emby/transcoding-temp/cd875b6038d58130ee98abe92a2c0b004.ts' for writing
frame=  814 fps=0.0 q=-1.0 size=N/A time=00:00:13.56 bitrate=N/A speed=23.6x    
[segment @ 0x7140c0] Opening '/var/lib/emby/transcoding-temp/cd875b6038d58130ee98abe92a2c0b00.m3u8.tmp' for writing
[segment @ 0x7140c0] Opening '/var/lib/emby/transcoding-temp/cd875b6038d58130ee98abe92a2c0b005.ts' for writing
[segment @ 0x7140c0] Opening '/var/lib/emby/transcoding-temp/cd875b6038d58130ee98abe92a2c0b00.m3u8.tmp' for writing
[segment @ 0x7140c0] Opening '/var/lib/emby/transcoding-temp/cd875b6038d58130ee98abe92a2c0b006.ts' for writing
[segment @ 0x7140c0] Opening '/var/lib/emby/transcoding-temp/cd875b6038d58130ee98abe92a2c0b00.m3u8.tmp' for writing
[segment @ 0x7140c0] Opening '/var/lib/emby/transcoding-temp/cd875b6038d58130ee98abe92a2c0b007.ts' for writing
frame= 1353 fps=1125 q=-1.0 size=N/A time=00:00:22.55 bitrate=N/A speed=18.8x    
[segment @ 0x7140c0] Opening '/var/lib/emby/transcoding-temp/cd875b6038d58130ee98abe92a2c0b00.m3u8.tmp' for writing
[segment @ 0x7140c0] Opening '/var/lib/emby/transcoding-temp/cd875b6038d58130ee98abe92a2c0b008.ts' for writing
frame= 1624 fps=804 q=-1.0 size=N/A time=00:00:27.07 bitrate=N/A speed=13.4x    
frame= 1649 fps=546 q=-1.0 size=N/A time=00:00:27.49 bitrate=N/A speed= 9.1x    
[segment @ 0x7140c0] Opening '/var/lib/emby/transcoding-temp/cd875b6038d58130ee98abe92a2c0b00.m3u8.tmp' for writing
[segment @ 0x7140c0] Opening '/var/lib/emby/transcoding-temp/cd875b6038d58130ee98abe92a2c0b009.ts' for writing
frame= 1766 fps=439 q=-1.0 size=N/A time=00:00:29.44 bitrate=N/A speed=7.32x    
frame= 1798 fps=358 q=-1.0 size=N/A time=00:00:29.97 bitrate=N/A speed=5.97x    
[segment @ 0x7140c0] Opening '/var/lib/emby/transcoding-temp/cd875b6038d58130ee98abe92a2c0b00.m3u8.tmp' for writing
[segment @ 0x7140c0] Opening '/var/lib/emby/transcoding-temp/cd875b6038d58130ee98abe92a2c0b0010.ts' for writing
frame= 1835 fps=305 q=-1.0 size=N/A time=00:00:30.59 bitrate=N/A speed=5.08x    
frame= 1867 fps=266 q=-1.0 size=N/A time=00:00:31.12 bitrate=N/A speed=4.43x    
frame= 1929 fps=240 q=-1.0 size=N/A time=00:00:32.16 bitrate=N/A speed=4.01x    
frame= 1951 fps=216 q=-1.0 size=N/A time=00:00:32.53 bitrate=N/A speed= 3.6x    
frame= 2079 fps=207 q=-1.0 size=N/A time=00:00:34.66 bitrate=N/A speed=3.46x    
[segment @ 0x7140c0] Opening '/var/lib/emby/transcoding-temp/cd875b6038d58130ee98abe92a2c0b00.m3u8.tmp' for writing
[segment @ 0x7140c0] Opening '/var/lib/emby/transcoding-temp/cd875b6038d58130ee98abe92a2c0b0011.ts' for writing
frame= 2185 fps=198 q=-1.0 size=N/A time=00:00:36.43 bitrate=N/A speed= 3.3x    
frame= 2235 fps=186 q=-1.0 size=N/A time=00:00:37.26 bitrate=N/A speed= 3.1x    
frame= 2250 fps=172 q=-1.0 size=N/A time=00:00:37.51 bitrate=N/A speed=2.86x    
[segment @ 0x7140c0] Opening '/var/lib/emby/transcoding-temp/cd875b6038d58130ee98abe92a2c0b00.m3u8.tmp' for writing
[segment @ 0x7140c0] Opening '/var/lib/emby/transcoding-temp/cd875b6038d58130ee98abe92a2c0b0012.ts' for writing
frame= 2278 fps=162 q=-1.0 size=N/A time=00:00:37.98 bitrate=N/A speed=2.71x    
frame= 2337 fps=155 q=-1.0 size=N/A time=00:00:38.97 bitrate=N/A speed=2.59x    
[segment @ 0x7140c0] Opening '/var/lib/emby/transcoding-temp/cd875b6038d58130ee98abe92a2c0b00.m3u8.tmp' for writing
[segment @ 0x7140c0] Opening '/var/lib/emby/transcoding-temp/cd875b6038d58130ee98abe92a2c0b0013.ts' for writing
frame= 2476 fps=154 q=-1.0 size=N/A time=00:00:41.28 bitrate=N/A speed=2.57x    
frame= 2527 fps=148 q=-1.0 size=N/A time=00:00:42.13 bitrate=N/A speed=2.47x    
[segment @ 0x7140c0] Opening '/var/lib/emby/transcoding-temp/cd875b6038d58130ee98abe92a2c0b00.m3u8.tmp' for writing
[segment @ 0x7140c0] Opening '/var/lib/emby/transcoding-temp/cd875b6038d58130ee98abe92a2c0b0014.ts' for writing
frame= 2572 fps=143 q=-1.0 size=N/A time=00:00:42.89 bitrate=N/A speed=2.38x    
frame= 2682 fps=141 q=-1.0 size=N/A time=00:00:44.72 bitrate=N/A speed=2.35x    
[segment @ 0x7140c0] Opening '/var/lib/emby/transcoding-temp/cd875b6038d58130ee98abe92a2c0b00.m3u8.tmp' for writing
[segment @ 0x7140c0] Opening '/var/lib/emby/transcoding-temp/cd875b6038d58130ee98abe92a2c0b0015.ts' for writing
frame= 2706 fps=136 q=-1.0 size=N/A time=00:00:45.12 bitrate=N/A speed=2.27x    
frame= 2833 fps=128 q=-1.0 size=N/A time=00:00:47.24 bitrate=N/A speed=2.14x    
frame= 2849 fps=123 q=-1.0 size=N/A time=00:00:47.51 bitrate=N/A speed=2.06x    
frame= 2900 fps=121 q=-1.0 size=N/A time=00:00:48.36 bitrate=N/A speed=2.01x    
frame= 2972 fps=119 q=-1.0 size=N/A time=00:00:49.56 bitrate=N/A speed=1.98x    
frame= 2992 fps=115 q=-1.0 size=N/A time=00:00:49.89 bitrate=N/A speed=1.92x    
[segment @ 0x7140c0] Opening '/var/lib/emby/transcoding-temp/cd875b6038d58130ee98abe92a2c0b00.m3u8.tmp' for writing
[segment @ 0x7140c0] Opening '/var/lib/emby/transcoding-temp/cd875b6038d58130ee98abe92a2c0b0016.ts' for writing
frame= 3019 fps=112 q=-1.0 size=N/A time=00:00:50.34 bitrate=N/A speed=1.86x    
frame= 3047 fps=109 q=-1.0 size=N/A time=00:00:50.81 bitrate=N/A speed=1.81x    
frame= 3094 fps=106 q=-1.0 size=N/A time=00:00:51.59 bitrate=N/A speed=1.78x    
[segment @ 0x7140c0] Opening '/var/lib/emby/transcoding-temp/cd875b6038d58130ee98abe92a2c0b00.m3u8.tmp' for writing
[segment @ 0x7140c0] Opening '/var/lib/emby/transcoding-temp/cd875b6038d58130ee98abe92a2c0b0017.ts' for writing
frame= 3165 fps=105 q=-1.0 size=N/A time=00:00:52.78 bitrate=N/A speed=1.76x    
frame= 3295 fps=106 q=-1.0 size=N/A time=00:00:54.95 bitrate=N/A speed=1.77x    
[segment @ 0x7140c0] Opening '/var/lib/emby/transcoding-temp/cd875b6038d58130ee98abe92a2c0b00.m3u8.tmp' for writing
[segment @ 0x7140c0] Opening '/var/lib/emby/transcoding-temp/cd875b6038d58130ee98abe92a2c0b0018.ts' for writing
frame= 3432 fps=107 q=-1.0 size=N/A time=00:00:57.23 bitrate=N/A speed=1.79x    
[segment @ 0x7140c0] Opening '/var/lib/emby/transcoding-temp/cd875b6038d58130ee98abe92a2c0b00.m3u8.tmp' for writing
[segment @ 0x7140c0] Opening '/var/lib/emby/transcoding-temp/cd875b6038d58130ee98abe92a2c0b0019.ts' for writing
frame= 3500 fps=106 q=-1.0 size=N/A time=00:00:58.37 bitrate=N/A speed=1.77x    
frame= 3557 fps=104 q=-1.0 size=N/A time=00:00:59.32 bitrate=N/A speed=1.74x    
[segment @ 0x7140c0] Opening '/var/lib/emby/transcoding-temp/cd875b6038d58130ee98abe92a2c0b00.m3u8.tmp' for writing
[segment @ 0x7140c0] Opening '/var/lib/emby/transcoding-temp/cd875b6038d58130ee98abe92a2c0b0020.ts' for writing
frame= 3620 fps=103 q=-1.0 size=N/A time=00:01:00.37 bitrate=N/A speed=1.72x    
frame= 3674 fps=102 q=-1.0 size=N/A time=00:01:01.27 bitrate=N/A speed= 1.7x    
frame= 3728 fps=101 q=-1.0 size=N/A time=00:01:02.17 bitrate=N/A speed=1.68x    
frame= 3751 fps= 98 q=-1.0 size=N/A time=00:01:02.56 bitrate=N/A speed=1.64x    
frame= 3801 fps= 97 q=-1.0 size=N/A time=00:01:03.39 bitrate=N/A speed=1.62x    
frame= 3901 fps= 97 q=-1.0 size=N/A time=00:01:05.06 bitrate=N/A speed=1.62x    
[segment @ 0x7140c0] Opening '/var/lib/emby/transcoding-temp/cd875b6038d58130ee98abe92a2c0b00.m3u8.tmp' for writing
[segment @ 0x7140c0] Opening '/var/lib/emby/transcoding-temp/cd875b6038d58130ee98abe92a2c0b0021.ts' for writing
frame= 4004 fps= 97 q=-1.0 size=N/A time=00:01:06.78 bitrate=N/A speed=1.63x    
frame= 4031 fps= 96 q=-1.0 size=N/A time=00:01:07.23 bitrate=N/A speed= 1.6x    
[segment @ 0x7140c0] Opening '/var/lib/emby/transcoding-temp/cd875b6038d58130ee98abe92a2c0b00.m3u8.tmp' for writing
[segment @ 0x7140c0] Opening '/var/lib/emby/transcoding-temp/cd875b6038d58130ee98abe92a2c0b0022.ts' for writing
frame= 4078 fps= 95 q=-1.0 size=N/A time=00:01:08.01 bitrate=N/A speed=1.58x    
frame= 4200 fps= 95 q=-1.0 size=N/A time=00:01:10.05 bitrate=N/A speed=1.59x    
[segment @ 0x7140c0] Opening '/var/lib/emby/transcoding-temp/cd875b6038d58130ee98abe92a2c0b00.m3u8.tmp' for writing
[segment @ 0x7140c0] Opening '/var/lib/emby/transcoding-temp/cd875b6038d58130ee98abe92a2c0b0023.ts' for writing
frame= 4325 fps= 96 q=-1.0 size=N/A time=00:01:12.13 bitrate=N/A speed= 1.6x    
frame= 4351 fps= 94 q=-1.0 size=N/A time=00:01:12.57 bitrate=N/A speed=1.57x    
[segment @ 0x7140c0] Opening '/var/lib/emby/transcoding-temp/cd875b6038d58130ee98abe92a2c0b00.m3u8.tmp' for writing
[segment @ 0x7140c0] Opening '/var/lib/emby/transcoding-temp/cd875b6038d58130ee98abe92a2c0b0024.ts' for writing
frame= 4397 fps= 93 q=-1.0 size=N/A time=00:01:13.33 bitrate=N/A speed=1.56x    
frame= 4440 fps= 92 q=-1.0 size=N/A time=00:01:14.05 bitrate=N/A speed=1.54x    
frame= 4455 fps= 91 q=-1.0 size=N/A time=00:01:14.30 bitrate=N/A speed=1.51x    
frame= 4491 fps= 90 q=-1.0 size=N/A time=00:01:14.90 bitrate=N/A speed= 1.5x    
[segment @ 0x7140c0] Opening '/var/lib/emby/transcoding-temp/cd875b6038d58130ee98abe92a2c0b00.m3u8.tmp' for writing
[segment @ 0x7140c0] Opening '/var/lib/emby/transcoding-temp/cd875b6038d58130ee98abe92a2c0b0025.ts' for writing
frame= 4608 fps= 90 q=-1.0 size=N/A time=00:01:16.85 bitrate=N/A speed= 1.5x    
frame= 4637 fps= 89 q=-1.0 size=N/A time=00:01:17.34 bitrate=N/A speed=1.48x    
frame= 4690 fps= 88 q=-1.0 size=N/A time=00:01:18.22 bitrate=N/A speed=1.47x    
frame= 4741 fps= 88 q=-1.0 size=N/A time=00:01:19.07 bitrate=N/A speed=1.46x    
frame= 4790 fps= 87 q=-1.0 size=N/A time=00:01:19.89 bitrate=N/A speed=1.45x    
[segment @ 0x7140c0] Opening '/var/lib/emby/transcoding-temp/cd875b6038d58130ee98abe92a2c0b00.m3u8.tmp' for writing
[segment @ 0x7140c0] Opening '/var/lib/emby/transcoding-temp/cd875b6038d58130ee98abe92a2c0b0026.ts' for writing
frame= 4826 fps= 86 q=-1.0 size=N/A time=00:01:20.49 bitrate=N/A speed=1.43x    
frame= 4853 fps= 85 q=-1.0 size=N/A time=00:01:20.94 bitrate=N/A speed=1.42x    
frame= 4931 fps= 85 q=-1.0 size=N/A time=00:01:22.24 bitrate=N/A speed=1.42x    
[segment @ 0x7140c0] Opening '/var/lib/emby/transcoding-temp/cd875b6038d58130ee98abe92a2c0b00.m3u8.tmp' for writing
[segment @ 0x7140c0] Opening '/var/lib/emby/transcoding-temp/cd875b6038d58130ee98abe92a2c0b0027.ts' for writing
[segment @ 0x7140c0] Opening '/var/lib/emby/transcoding-temp/cd875b6038d58130ee98abe92a2c0b00.m3u8.tmp' for writing
[segment @ 0x7140c0] Opening '/var/lib/emby/transcoding-temp/cd875b6038d58130ee98abe92a2c0b0028.ts' for writing
frame= 5106 fps= 87 q=-1.0 size=N/A time=00:01:25.16 bitrate=N/A speed=1.45x    
frame= 5186 fps= 88 q=-1.0 size=N/A time=00:01:26.50 bitrate=N/A speed=1.46x    
frame= 5223 fps= 84 q=-1.0 size=N/A time=00:01:27.11 bitrate=N/A speed= 1.4x    
frame= 5238 fps= 83 q=-1.0 size=N/A time=00:01:27.36 bitrate=N/A speed=1.38x    
[segment @ 0x7140c0] Opening '/var/lib/emby/transcoding-temp/cd875b6038d58130ee98abe92a2c0b00.m3u8.tmp' for writing
[segment @ 0x7140c0] Opening '/var/lib/emby/transcoding-temp/cd875b6038d58130ee98abe92a2c0b0029.ts' for writing
frame= 5310 fps= 83 q=-1.0 size=N/A time=00:01:28.56 bitrate=N/A speed=1.38x    
[segment @ 0x7140c0] Opening '/var/lib/emby/transcoding-temp/cd875b6038d58130ee98abe92a2c0b00.m3u8.tmp' for writing
[segment @ 0x7140c0] Opening '/var/lib/emby/transcoding-temp/cd875b6038d58130ee98abe92a2c0b0030.ts' for writing
frame= 5423 fps= 83 q=-1.0 size=N/A time=00:01:30.45 bitrate=N/A speed=1.39x    
frame= 5542 fps= 84 q=-1.0 size=N/A time=00:01:32.44 bitrate=N/A speed= 1.4x    
frame= 5567 fps= 83 q=-1.0 size=N/A time=00:01:32.85 bitrate=N/A speed=1.38x    
frame= 5651 fps= 83 q=-1.0 size=N/A time=00:01:34.25 bitrate=N/A speed=1.38x    
frame= 5706 fps= 83 q=-1.0 size=N/A time=00:01:35.17 bitrate=N/A speed=1.38x    
[segment @ 0x7140c0] Opening '/var/lib/emby/transcoding-temp/cd875b6038d58130ee98abe92a2c0b00.m3u8.tmp' for writing
[segment @ 0x7140c0] Opening '/var/lib/emby/transcoding-temp/cd875b6038d58130ee98abe92a2c0b0031.ts' for writing
frame= 5803 fps= 80 q=-1.0 size=N/A time=00:01:36.79 bitrate=N/A speed=1.34x    
frame= 5847 fps= 80 q=-1.0 size=N/A time=00:01:37.52 bitrate=N/A speed=1.33x    
[segment @ 0x7140c0] Opening '/var/lib/emby/transcoding-temp/cd875b6038d58130ee98abe92a2c0b00.m3u8.tmp' for writing
[segment @ 0x7140c0] Opening '/var/lib/emby/transcoding-temp/cd875b6038d58130ee98abe92a2c0b0032.ts' for writing
frame= 5982 fps= 81 q=-1.0 size=N/A time=00:01:39.78 bitrate=N/A speed=1.35x    
[segment @ 0x7140c0] Opening '/var/lib/emby/transcoding-temp/cd875b6038d58130ee98abe92a2c0b00.m3u8.tmp' for writing
[segment @ 0x7140c0] Opening '/var/lib/emby/transcoding-temp/cd875b6038d58130ee98abe92a2c0b0033.ts' for writing
frame= 6049 fps= 81 q=-1.0 size=N/A time=00:01:40.89 bitrate=N/A speed=1.34x    
frame= 6089 fps= 80 q=-1.0 size=N/A time=00:01:41.56 bitrate=N/A speed=1.33x    
frame= 6151 fps= 80 q=-1.0 size=N/A time=00:01:42.60 bitrate=N/A speed=1.33x    
[segment @ 0x7140c0] Opening '/var/lib/emby/transcoding-temp/cd875b6038d58130ee98abe92a2c0b00.m3u8.tmp' for writing
[segment @ 0x7140c0] Opening '/var/lib/emby/transcoding-temp/cd875b6038d58130ee98abe92a2c0b0034.ts' for writing
frame= 6207 fps= 79 q=-1.0 size=N/A time=00:01:43.53 bitrate=N/A speed=1.33x    
frame= 6286 fps= 79 q=-1.0 size=N/A time=00:01:44.85 bitrate=N/A speed=1.32x    
[segment @ 0x7140c0] Opening '/var/lib/emby/transcoding-temp/cd875b6038d58130ee98abe92a2c0b00.m3u8.tmp' for writing
[segment @ 0x7140c0] Opening '/var/lib/emby/transcoding-temp/cd875b6038d58130ee98abe92a2c0b0035.ts' for writing
frame= 6361 fps= 79 q=-1.0 size=N/A time=00:01:46.10 bitrate=N/A speed=1.32x    
frame= 6387 fps= 78 q=-1.0 size=N/A time=00:01:46.53 bitrate=N/A speed= 1.3x    
frame= 6449 fps= 78 q=-1.0 size=N/A time=00:01:47.57 bitrate=N/A speed=1.29x    
frame= 6525 fps= 78 q=-1.0 size=N/A time=00:01:48.83 bitrate=N/A speed=1.29x    
[segment @ 0x7140c0] Opening '/var/lib/emby/transcoding-temp/cd875b6038d58130ee98abe92a2c0b00.m3u8.tmp' for writing
[segment @ 0x7140c0] Opening '/var/lib/emby/transcoding-temp/cd875b6038d58130ee98abe92a2c0b0036.ts' for writing
frame= 6697 fps= 78 q=-1.0 size=N/A time=00:01:51.70 bitrate=N/A speed= 1.3x    
[segment @ 0x7140c0] Opening '/var/lib/emby/transcoding-temp/cd875b6038d58130ee98abe92a2c0b00.m3u8.tmp' for writing
[segment @ 0x7140c0] Opening '/var/lib/emby/transcoding-temp/cd875b6038d58130ee98abe92a2c0b0037.ts' for writing
frame= 6776 fps= 78 q=-1.0 size=N/A time=00:01:53.02 bitrate=N/A speed= 1.3x    
frame= 6845 fps= 78 q=-1.0 size=N/A time=00:01:54.17 bitrate=N/A speed= 1.3x    
[segment @ 0x7140c0] Opening '/var/lib/emby/transcoding-temp/cd875b6038d58130ee98abe92a2c0b00.m3u8.tmp' for writing
[segment @ 0x7140c0] Opening '/var/lib/emby/transcoding-temp/cd875b6038d58130ee98abe92a2c0b0038.ts' for writing
frame= 6953 fps= 78 q=-1.0 size=N/A time=00:01:55.98 bitrate=N/A speed= 1.3x    
frame= 7017 fps= 77 q=-1.0 size=N/A time=00:01:57.04 bitrate=N/A speed=1.28x    
frame= 7038 fps= 76 q=-1.0 size=N/A time=00:01:57.39 bitrate=N/A speed=1.27x    
[segment @ 0x7140c0] Opening '/var/lib/emby/transcoding-temp/cd875b6038d58130ee98abe92a2c0b00.m3u8.tmp' for writing
[segment @ 0x7140c0] Opening '/var/lib/emby/transcoding-temp/cd875b6038d58130ee98abe92a2c0b0039.ts' for writing
frame= 7165 fps= 77 q=-1.0 size=N/A time=00:01:59.51 bitrate=N/A speed=1.28x    
frame= 7200 fps= 76 q=-1.0 size=N/A time=00:02:00.10 bitrate=N/A speed=1.28x    
[segment @ 0x7140c0] Opening '/var/lib/emby/transcoding-temp/cd875b6038d58130ee98abe92a2c0b00.m3u8.tmp' for writing
[segment @ 0x7140c0] Opening '/var/lib/emby/transcoding-temp/cd875b6038d58130ee98abe92a2c0b0040.ts' for writing
frame= 7275 fps= 76 q=-1.0 size=N/A time=00:02:01.35 bitrate=N/A speed=1.28x    
frame= 7301 fps= 76 q=-1.0 size=N/A time=00:02:01.78 bitrate=N/A speed=1.27x    
frame= 7351 fps= 76 q=-1.0 size=N/A time=00:02:02.62 bitrate=N/A speed=1.26x    
frame= 7432 fps= 76 q=-1.0 size=N/A time=00:02:03.97 bitrate=N/A speed=1.26x    
frame= 7481 fps= 75 q=-1.0 size=N/A time=00:02:04.78 bitrate=N/A speed=1.26x    
[segment @ 0x7140c0] Opening '/var/lib/emby/transcoding-temp/cd875b6038d58130ee98abe92a2c0b00.m3u8.tmp' for writing
[segment @ 0x7140c0] Opening '/var/lib/emby/transcoding-temp/cd875b6038d58130ee98abe92a2c0b0041.ts' for writing
frame= 7557 fps= 75 q=-1.0 size=N/A time=00:02:06.05 bitrate=N/A speed=1.26x    
frame= 7587 fps= 75 q=-1.0 size=N/A time=00:02:06.55 bitrate=N/A speed=1.25x    
frame= 7619 fps= 75 q=-1.0 size=N/A time=00:02:07.09 bitrate=N/A speed=1.25x    
frame= 7649 fps= 75 q=-1.0 size=N/A time=00:02:07.59 bitrate=N/A speed=1.25x    
[segment @ 0x7140c0] Opening '/var/lib/emby/transcoding-temp/cd875b6038d58130ee98abe92a2c0b00.m3u8.tmp' for writing
[segment @ 0x7140c0] Opening '/var/lib/emby/transcoding-temp/cd875b6038d58130ee98abe92a2c0b0042.ts' for writing
frame= 7659 fps= 74 q=-1.0 size=N/A time=00:02:07.75 bitrate=N/A speed=1.24x    
frame= 7762 fps= 75 q=-1.0 size=N/A time=00:02:09.47 bitrate=N/A speed=1.25x    
[segment @ 0x7140c0] Opening '/var/lib/emby/transcoding-temp/cd875b6038d58130ee98abe92a2c0b00.m3u8.tmp' for writing
[segment @ 0x7140c0] Opening '/var/lib/emby/transcoding-temp/cd875b6038d58130ee98abe92a2c0b0043.ts' for writing
frame= 7809 fps= 74 q=-1.0 size=N/A time=00:02:10.26 bitrate=N/A speed=1.24x    
frame= 7920 fps= 75 q=-1.0 size=N/A time=00:02:12.11 bitrate=N/A speed=1.24x    
[segment @ 0x7140c0] Opening '/var/lib/emby/transcoding-temp/cd875b6038d58130ee98abe92a2c0b00.m3u8.tmp' for writing
[segment @ 0x7140c0] Opening '/var/lib/emby/transcoding-temp/cd875b6038d58130ee98abe92a2c0b0044.ts' for writing
frame= 7952 fps= 74 q=-1.0 size=N/A time=00:02:12.67 bitrate=N/A speed=1.24x    
frame= 7983 fps= 73 q=-1.0 size=N/A time=00:02:13.16 bitrate=N/A speed=1.22x    
frame= 8031 fps= 73 q=-1.0 size=N/A time=00:02:13.96 bitrate=N/A speed=1.22x    
[segment @ 0x7140c0] Opening '/var/lib/emby/transcoding-temp/cd875b6038d58130ee98abe92a2c0b00.m3u8.tmp' for writing
[segment @ 0x7140c0] Opening '/var/lib/emby/transcoding-temp/cd875b6038d58130ee98abe92a2c0b0045.ts' for writing
frame= 8191 fps= 74 q=-1.0 size=N/A time=00:02:16.63 bitrate=N/A speed=1.23x    
frame= 8249 fps= 73 q=-1.0 size=N/A time=00:02:17.60 bitrate=N/A speed=1.23x    
frame= 8295 fps= 73 q=-1.0 size=N/A time=00:02:18.36 bitrate=N/A speed=1.22x    
frame= 8325 fps= 73 q=-1.0 size=N/A time=00:02:18.86 bitrate=N/A speed=1.22x    
[segment @ 0x7140c0] Opening '/var/lib/emby/transcoding-temp/cd875b6038d58130ee98abe92a2c0b00.m3u8.tmp' for writing
[segment @ 0x7140c0] Opening '/var/lib/emby/transcoding-temp/cd875b6038d58130ee98abe92a2c0b0046.ts' for writing
frame= 8409 fps= 73 q=-1.0 size=N/A time=00:02:20.27 bitrate=N/A speed=1.22x    
frame= 8511 fps= 73 q=-1.0 size=N/A time=00:02:21.97 bitrate=N/A speed=1.22x    
frame= 8540 fps= 73 q=-1.0 size=N/A time=00:02:22.45 bitrate=N/A speed=1.22x    
[segment @ 0x7140c0] Opening '/var/lib/emby/transcoding-temp/cd875b6038d58130ee98abe92a2c0b00.m3u8.tmp' for writing
[segment @ 0x7140c0] Opening '/var/lib/emby/transcoding-temp/cd875b6038d58130ee98abe92a2c0b0047.ts' for writing
frame= 8572 fps= 73 q=-1.0 size=N/A time=00:02:22.99 bitrate=N/A speed=1.21x    
frame= 8583 fps= 73 q=-1.0 size=N/A time=00:02:23.17 bitrate=N/A speed=1.21x    
frame= 8641 fps= 72 q=-1.0 size=N/A time=00:02:24.14 bitrate=N/A speed=1.21x    
[segment @ 0x7140c0] Opening '/var/lib/emby/transcoding-temp/cd875b6038d58130ee98abe92a2c0b00.m3u8.tmp' for writing
[segment @ 0x7140c0] Opening '/var/lib/emby/transcoding-temp/cd875b6038d58130ee98abe92a2c0b0048.ts' for writing
frame= 8744 fps= 73 q=-1.0 size=N/A time=00:02:25.86 bitrate=N/A speed=1.21x    
frame= 8795 fps= 73 q=-1.0 size=N/A time=00:02:26.71 bitrate=N/A speed=1.21x    
frame= 8846 fps= 72 q=-1.0 size=N/A time=00:02:27.56 bitrate=N/A speed=1.21x    
[segment @ 0x7140c0] Opening '/var/lib/emby/transcoding-temp/cd875b6038d58130ee98abe92a2c0b00.m3u8.tmp' for writing
[segment @ 0x7140c0] Opening '/var/lib/emby/transcoding-temp/cd875b6038d58130ee98abe92a2c0b0049.ts' for writing
frame= 8859 fps= 72 q=-1.0 size=N/A time=00:02:27.77 bitrate=N/A speed= 1.2x    
frame= 8975 fps= 72 q=-1.0 size=N/A time=00:02:29.71 bitrate=N/A speed=1.21x    
[segment @ 0x7140c0] Opening '/var/lib/emby/transcoding-temp/cd875b6038d58130ee98abe92a2c0b00.m3u8.tmp' for writing
[segment @ 0x7140c0] Opening '/var/lib/emby/transcoding-temp/cd875b6038d58130ee98abe92a2c0b0050.ts' for writing
frame= 9010 fps= 72 q=-1.0 size=N/A time=00:02:30.29 bitrate=N/A speed= 1.2x    
frame= 9075 fps= 72 q=-1.0 size=N/A time=00:02:31.38 bitrate=N/A speed= 1.2x    
frame= 9092 fps= 71 q=-1.0 size=N/A time=00:02:31.66 bitrate=N/A speed=1.19x    
frame= 9131 fps= 71 q=-1.0 size=N/A time=00:02:32.31 bitrate=N/A speed=1.19x    
frame= 9153 fps= 71 q=-1.0 size=N/A time=00:02:32.70 bitrate=N/A speed=1.18x    
[segment @ 0x7140c0] Opening '/var/lib/emby/transcoding-temp/cd875b6038d58130ee98abe92a2c0b00.m3u8.tmp' for writing
[segment @ 0x7140c0] Opening '/var/lib/emby/transcoding-temp/cd875b6038d58130ee98abe92a2c0b0051.ts' for writing
frame= 9306 fps= 72 q=-1.0 size=N/A time=00:02:35.23 bitrate=N/A speed=1.19x    
[segment @ 0x7140c0] Opening '/var/lib/emby/transcoding-temp/cd875b6038d58130ee98abe92a2c0b00.m3u8.tmp' for writing
[segment @ 0x7140c0] Opening '/var/lib/emby/transcoding-temp/cd875b6038d58130ee98abe92a2c0b0052.ts' for writing
frame= 9485 fps= 72 q=-1.0 size=N/A time=00:02:38.22 bitrate=N/A speed=1.21x    
frame= 9526 fps= 72 q=-1.0 size=N/A time=00:02:38.90 bitrate=N/A speed= 1.2x    
frame= 9562 fps= 72 q=-1.0 size=N/A time=00:02:39.50 bitrate=N/A speed= 1.2x    
[segment @ 0x7140c0] Opening '/var/lib/emby/transcoding-temp/cd875b6038d58130ee98abe92a2c0b00.m3u8.tmp' for writing
[segment @ 0x7140c0] Opening '/var/lib/emby/transcoding-temp/cd875b6038d58130ee98abe92a2c0b0053.ts' for writing
frame= 9650 fps= 72 q=-1.0 size=N/A time=00:02:40.97 bitrate=N/A speed= 1.2x    
frame= 9701 fps= 71 q=-1.0 size=N/A time=00:02:41.82 bitrate=N/A speed=1.18x    
frame= 9751 fps= 71 q=-1.0 size=N/A time=00:02:42.66 bitrate=N/A speed=1.18x    
[segment @ 0x7140c0] Opening '/var/lib/emby/transcoding-temp/cd875b6038d58130ee98abe92a2c0b00.m3u8.tmp' for writing
[segment @ 0x7140c0] Opening '/var/lib/emby/transcoding-temp/cd875b6038d58130ee98abe92a2c0b0054.ts' for writing
frame= 9828 fps= 71 q=-1.0 size=N/A time=00:02:43.94 bitrate=N/A speed=1.18x    
[segment @ 0x7140c0] Opening '/var/lib/emby/transcoding-temp/cd875b6038d58130ee98abe92a2c0b00.m3u8.tmp' for writing
[segment @ 0x7140c0] Opening '/var/lib/emby/transcoding-temp/cd875b6038d58130ee98abe92a2c0b0055.ts' for writing
frame= 9932 fps= 71 q=-1.0 size=N/A time=00:02:45.68 bitrate=N/A speed=1.18x    
frame= 9971 fps= 71 q=-1.0 size=N/A time=00:02:46.33 bitrate=N/A speed=1.18x    
frame=10007 fps= 70 q=-1.0 size=N/A time=00:02:46.93 bitrate=N/A speed=1.17x    
frame=10101 fps= 71 q=-1.0 size=N/A time=00:02:48.49 bitrate=N/A speed=1.18x    
frame=10198 fps= 71 q=-1.0 size=N/A time=00:02:50.11 bitrate=N/A speed=1.18x    
[segment @ 0x7140c0] Opening '/var/lib/emby/transcoding-temp/cd875b6038d58130ee98abe92a2c0b00.m3u8.tmp' for writing
[segment @ 0x7140c0] Opening '/var/lib/emby/transcoding-temp/cd875b6038d58130ee98abe92a2c0b0056.ts' for writing
frame=10271 fps= 71 q=-1.0 size=N/A time=00:02:51.33 bitrate=N/A speed=1.18x    
frame=10298 fps= 70 q=-1.0 size=N/A time=00:02:51.78 bitrate=N/A speed=1.17x    
[segment @ 0x7140c0] Opening '/var/lib/emby/transcoding-temp/cd875b6038d58130ee98abe92a2c0b00.m3u8.tmp' for writing
[segment @ 0x7140c0] Opening '/var/lib/emby/transcoding-temp/cd875b6038d58130ee98abe92a2c0b0057.ts' for writing
frame=10372 fps= 70 q=-1.0 size=N/A time=00:02:53.02 bitrate=N/A speed=1.16x    
[segment @ 0x7140c0] Opening '/var/lib/emby/transcoding-temp/cd875b6038d58130ee98abe92a2c0b00.m3u8.tmp' for writing
[segment @ 0x7140c0] Opening '/var/lib/emby/transcoding-temp/cd875b6038d58130ee98abe92a2c0b0058.ts' for writing


#20 xiltepin OFFLINE  

xiltepin

    Member

  • Members
  • 15 posts
  • Local time: 04:22 AM

Posted 11 December 2018 - 09:25 AM

I had time to check different channels and all of the logs are very similar.

The video is not constant and all of them keep buffering.

Same channels with VLC run smoothly. What could be the issue? Thanks in advance :)






0 user(s) are reading this topic

0 members, 0 guests, 0 anonymous users