Jump to content

Direct Streaming Centos7


Akilian
 Share

Recommended Posts

I just noticed that direct streaming is not working on any devices. Here's the log.

 

 

 

Application version: 3.2.30.0

http://192.168.1.15:8096/emby/videos/b901a6732c2a44d5ac75fe883f0a86e1/hls1/main/0.ts?DeviceId=865dfa7d61f1b1cade54c6625d31272a48e952be&MediaSourceId=b901a6732c2a44d5ac75fe883f0a86e1&VideoCodec=h264&AudioCodec=aac&AudioStreamIndex=1&VideoBitrate=139808000&AudioBitrate=192000&Level=51&Profile=high&PlaySessionId=4865dabdc520439e993470c98073a812&api_key=3d07fed229d14b96a5a8f1cda1b50087&CopyTimestamps=false&TranscodingMaxAudioChannels=6&EnableSubtitlesInManifest=false&Tag=f818932a662b4d8546c7dc09ebc1ddba&RequireAvc=true&RequireNonAnamorphic=false&DeInterlace=true&SegmentContainer=ts&MinSegments=1&BreakOnNonKeyFrames=True&TranscodeReasons=VideoProfileNotSupported&allowVideoStreamCopy=false

{"Protocol":"File","Id":"b901a6732c2a44d5ac75fe883f0a86e1","Path":"/media/media/Ellie's/Videos/Ellie's Movies/My Little Pony Equestria Girls Rainbow Rocks 2014 1080p BluRay x264 AAC - Ozlem/My Little Pony Equestria Girls Rainbow Rocks 2014 1080p BluRay x264 AAC - Ozlem.mp4","Type":"Default","Container":"mp4","Name":"1080P/H264/AAC","IsRemote":false,"ETag":"f818932a662b4d8546c7dc09ebc1ddba","RunTimeTicks":44007698432,"ReadAtNativeFramerate":false,"IgnoreDts":false,"IgnoreIndex":false,"GenPtsInput":false,"SupportsTranscoding":true,"SupportsDirectStream":true,"SupportsDirectPlay":true,"IsInfiniteStream":false,"RequiresOpening":false,"RequiresClosing":false,"SupportsProbing":true,"EnableMpDecimate":false,"RequiresLooping":false,"VideoType":"VideoFile","MediaStreams":[{"Codec":"h264","CodecTag":"avc1","Language":"und","TimeBase":"1/24000","CodecTimeBase":"1/48000","NalLengthSize":"4","IsInterlaced":false,"IsAVC":true,"BitRate":1999425,"RefFrames":1,"IsDefault":true,"IsForced":false,"Height":1080,"Width":1920,"AverageFrameRate":23.9760246,"RealFrameRate":23.9760246,"Type":"Video","AspectRatio":"16:9","Index":0,"IsExternal":false,"IsTextSubtitleStream":false,"SupportsExternalStream":false,"Level":-99,"IsAnamorphic":false},{"Codec":"aac","CodecTag":"mp4a","Language":"und","TimeBase":"1/48000","CodecTimeBase":"1/48000","DisplayTitle":"Und AAC stereo Default","IsInterlaced":false,"ChannelLayout":"stereo","Channels":2,"SampleRate":48000,"IsDefault":true,"IsForced":false,"Type":"Audio","Index":1,"IsExternal":false,"IsTextSubtitleStream":false,"SupportsExternalStream":false,"Level":0,"IsAnamorphic":false}],"Formats":[],"Bitrate":2096820,"RequiredHttpHeaders":{}}

User policy for emby: EnablePlaybackRemuxing: True EnableVideoPlaybackTranscoding: True EnableAudioPlaybackTranscoding: True

/var/lib/emby-server/ffmpeg/20160215/ffmpeg -f mp4 -i file:"/media/media/Ellie's/Videos/Ellie's Movies/My Little Pony Equestria Girls Rainbow Rocks 2014 1080p BluRay x264 AAC - Ozlem/My Little Pony Equestria Girls Rainbow Rocks 2014 1080p BluRay x264 AAC - Ozlem.mp4" -map_metadata -1 -map_chapters -1 -threads 0 -map 0:0 -map 0:1 -map -0:s -codec:v:0 libx264 -pix_fmt yuv420p -preset superfast -crf 25 -maxrate 3998850 -bufsize 7997700 -profile:v high -level 4.1 -x264opts:0 subme=0:me_range=4:rc_lookahead=10:me=dia:no_chroma_me:8x8dct=0:partitions=none -force_key_frames "expr:gte(t,n_forced*3)" -vf "scale=trunc(min(max(iw\,ih*dar)\,1920)/2)*2:trunc(ow/dar/2)*2" -copyts -vsync -1 -codec:a:0 aac -strict experimental -ac 2 -ab 192000 -f segment -max_delay 5000000 -avoid_negative_ts disabled -start_at_zero -segment_time 3 -individual_header_trailer 0 -segment_format mpegts -segment_list_type m3u8 -segment_start_number 0 -segment_list "/media2/transcoding-temp/6246fedf7d89f42d576ebe3046f423e5.m3u8" -y "/media2/transcoding-temp/6246fedf7d89f42d576ebe3046f423e5%d.ts"

ffmpeg version N-52954-g295de3e-static http://johnvansickle.com/ffmpeg/ Copyright © 2000-2016 the FFmpeg developers
built with gcc 5.3.1 (Debian 5.3.1-8) 20160205
configuration: --enable-gpl --enable-version3 --disable-shared --disable-debug --enable-runtime-cpudetect --enable-libmp3lame --enable-libx264 --enable-libx265 --enable-libwebp --enable-libspeex --enable-libvorbis --enable-libvpx --enable-libfreetype --enable-fontconfig --enable-libxvid --enable-libopencore-amrnb --enable-libopencore-amrwb --enable-libtheora --enable-libvo-amrwbenc --enable-gray --enable-libopenjpeg --enable-libopus --enable-libass --enable-gnutls --enable-libvidstab --enable-libsoxr --enable-frei0r --enable-libfribidi --disable-indev=sndio --disable-outdev=sndio --enable-librtmp --enable-libmfx --cc=gcc
libavutil 55. 17.103 / 55. 17.103
libavcodec 57. 24.102 / 57. 24.102
libavformat 57. 25.100 / 57. 25.100
libavdevice 57. 0.101 / 57. 0.101
libavfilter 6. 31.100 / 6. 31.100
libswscale 4. 0.100 / 4. 0.100
libswresample 2. 0.101 / 2. 0.101
libpostproc 54. 0.100 / 54. 0.100
[h264 @ 0x5222160] AVC: nal size 0
[h264 @ 0x5222160] no frame!
[h264 @ 0x5222160] AVC: nal size 0
[h264 @ 0x5222160] no frame!
[h264 @ 0x5222160] AVC: nal size 0
[h264 @ 0x5222160] no frame!
[h264 @ 0x5222160] AVC: nal size 0
[h264 @ 0x5222160] no frame!
[h264 @ 0x5222160] AVC: nal size 0
[h264 @ 0x5222160] no frame!
[h264 @ 0x5222160] AVC: nal size 0
[h264 @ 0x5222160] no frame!
[h264 @ 0x5222160] AVC: nal size 0
[h264 @ 0x5222160] no frame!
[h264 @ 0x5222160] AVC: nal size 0
[h264 @ 0x5222160] no frame!
[h264 @ 0x5222160] AVC: nal size 0
[h264 @ 0x5222160] no frame!
[h264 @ 0x5222160] AVC: nal size 0
[h264 @ 0x5222160] no frame!
[h264 @ 0x5222160] AVC: nal size 0
[h264 @ 0x5222160] no frame!
[h264 @ 0x5222160] AVC: nal size 0
[h264 @ 0x5222160] no frame!
[h264 @ 0x5222160] AVC: nal size 0
[h264 @ 0x5222160] no frame!
[h264 @ 0x5222160] AVC: nal size 0
[h264 @ 0x5222160] no frame!
[h264 @ 0x5222160] AVC: nal size 0
[h264 @ 0x5222160] no frame!
[h264 @ 0x5222160] AVC: nal size 0
[h264 @ 0x5222160] no frame!
[h264 @ 0x5222160] AVC: nal size 0
[h264 @ 0x5222160] no frame!
[h264 @ 0x5222160] AVC: nal size 0
[h264 @ 0x5222160] no frame!
[h264 @ 0x5222160] AVC: nal size 0
[h264 @ 0x5222160] no frame!
[h264 @ 0x5222160] AVC: nal size 0
[h264 @ 0x5222160] no frame!
[h264 @ 0x5222160] AVC: nal size 0
[h264 @ 0x5222160] no frame!
[h264 @ 0x5222160] AVC: nal size 0
[h264 @ 0x5222160] no frame!
[h264 @ 0x5222160] AVC: nal size 0
[h264 @ 0x5222160] no frame!
[h264 @ 0x5222160] AVC: nal size 0
[h264 @ 0x5222160] no frame!
[h264 @ 0x5222160] AVC: nal size 0
[h264 @ 0x5222160] no frame!
[h264 @ 0x5222160] AVC: nal size 0
[h264 @ 0x5222160] no frame!
[h264 @ 0x5222160] AVC: nal size 0
[h264 @ 0x5222160] no frame!
[h264 @ 0x5222160] AVC: nal size 0
[h264 @ 0x5222160] no frame!
[h264 @ 0x5222160] AVC: nal size 0
[h264 @ 0x5222160] no frame!
[h264 @ 0x5222160] AVC: nal size 0
[h264 @ 0x5222160] no frame!
[h264 @ 0x5222160] AVC: nal size 0
[h264 @ 0x5222160] no frame!
[h264 @ 0x5222160] AVC: nal size 0
[h264 @ 0x5222160] no frame!
[h264 @ 0x5222160] AVC: nal size 0
[h264 @ 0x5222160] no frame!
[h264 @ 0x5222160] AVC: nal size 0
[h264 @ 0x5222160] no frame!
[h264 @ 0x5222160] AVC: nal size 0
[h264 @ 0x5222160] no frame!
[h264 @ 0x5222160] AVC: nal size 0
[h264 @ 0x5222160] no frame!
[h264 @ 0x5222160] AVC: nal size 0
[h264 @ 0x5222160] no frame!
[h264 @ 0x5222160] AVC: nal size 0
[h264 @ 0x5222160] no frame!
[h264 @ 0x5222160] AVC: nal size 0
[h264 @ 0x5222160] no frame!
[h264 @ 0x5222160] AVC: nal size 0
[h264 @ 0x5222160] no frame!
[h264 @ 0x5222160] AVC: nal size 0
[h264 @ 0x5222160] no frame!
[h264 @ 0x5222160] AVC: nal size 0
[h264 @ 0x5222160] no frame!
[h264 @ 0x5222160] AVC: nal size 0
[h264 @ 0x5222160] no frame!
[h264 @ 0x5222160] AVC: nal size 0
[h264 @ 0x5222160] no frame!
[h264 @ 0x5222160] AVC: nal size 0
[h264 @ 0x5222160] no frame!
[h264 @ 0x5222160] AVC: nal size 0
[h264 @ 0x5222160] no frame!
[h264 @ 0x5222160] AVC: nal size 0
[h264 @ 0x5222160] no frame!
[h264 @ 0x5222160] AVC: nal size 0
[h264 @ 0x5222160] no frame!
[h264 @ 0x5222160] AVC: nal size 0
[h264 @ 0x5222160] no frame!
[h264 @ 0x5222160] AVC: nal size 0
[h264 @ 0x5222160] no frame!
[h264 @ 0x5222160] AVC: nal size 0
[h264 @ 0x5222160] no frame!
[h264 @ 0x5222160] AVC: nal size 0
[h264 @ 0x5222160] no frame!
[h264 @ 0x5222160] AVC: nal size 0
[h264 @ 0x5222160] no frame!
[h264 @ 0x5222160] AVC: nal size 0
[h264 @ 0x5222160] no frame!
[h264 @ 0x5222160] AVC: nal size 0
[h264 @ 0x5222160] no frame!
[h264 @ 0x5222160] AVC: nal size 0
[h264 @ 0x5222160] no frame!
[h264 @ 0x5222160] AVC: nal size 0
[h264 @ 0x5222160] no frame!
[h264 @ 0x5222160] AVC: nal size 0
[h264 @ 0x5222160] no frame!
[h264 @ 0x5222160] AVC: nal size 0
[h264 @ 0x5222160] no frame!
[h264 @ 0x5222160] AVC: nal size 0
[h264 @ 0x5222160] no frame!
[h264 @ 0x5222160] AVC: nal size 0
[h264 @ 0x5222160] no frame!
[h264 @ 0x5222160] AVC: nal size 0
[h264 @ 0x5222160] no frame!
[h264 @ 0x5222160] AVC: nal size 0
[h264 @ 0x5222160] no frame!
[h264 @ 0x5222160] AVC: nal size 0
[h264 @ 0x5222160] no frame!
[h264 @ 0x5222160] AVC: nal size 0
[h264 @ 0x5222160] no frame!
[h264 @ 0x5222160] AVC: nal size 0
[h264 @ 0x5222160] no frame!
[h264 @ 0x5222160] AVC: nal size 0
[h264 @ 0x5222160] no frame!
[h264 @ 0x5222160] AVC: nal size 0
[h264 @ 0x5222160] no frame!
[h264 @ 0x5222160] AVC: nal size 0
[h264 @ 0x5222160] no frame!
[h264 @ 0x5222160] AVC: nal size 0
[h264 @ 0x5222160] no frame!
[h264 @ 0x5222160] AVC: nal size 0
[h264 @ 0x5222160] no frame!
[h264 @ 0x5222160] AVC: nal size 0
[h264 @ 0x5222160] no frame!
[h264 @ 0x5222160] AVC: nal size 0
[h264 @ 0x5222160] no frame!
[h264 @ 0x5222160] AVC: nal size 0
[h264 @ 0x5222160] no frame!
[h264 @ 0x5222160] AVC: nal size 0
[h264 @ 0x5222160] no frame!
[h264 @ 0x5222160] AVC: nal size 0
[h264 @ 0x5222160] no frame!
[h264 @ 0x5222160] AVC: nal size 0
[h264 @ 0x5222160] no frame!
[h264 @ 0x5222160] AVC: nal size 0
[h264 @ 0x5222160] no frame!
[h264 @ 0x5222160] AVC: nal size 0
[h264 @ 0x5222160] no frame!
[h264 @ 0x5222160] AVC: nal size 0
[h264 @ 0x5222160] no frame!
[h264 @ 0x5222160] AVC: nal size 0
[h264 @ 0x5222160] no frame!
[h264 @ 0x5222160] AVC: nal size 0
[h264 @ 0x5222160] no frame!
[h264 @ 0x5222160] AVC: nal size 0
[h264 @ 0x5222160] no frame!
[h264 @ 0x5222160] AVC: nal size 0
[h264 @ 0x5222160] no frame!
[h264 @ 0x5222160] AVC: nal size 0
[h264 @ 0x5222160] no frame!
[h264 @ 0x5222160] AVC: nal size 0
[h264 @ 0x5222160] no frame!
[h264 @ 0x5222160] AVC: nal size 0
[h264 @ 0x5222160] no frame!
[h264 @ 0x5222160] AVC: nal size 0
[h264 @ 0x5222160] no frame!
[h264 @ 0x5222160] AVC: nal size 0
[h264 @ 0x5222160] no frame!
[h264 @ 0x5222160] AVC: nal size 0
[h264 @ 0x5222160] no frame!
[h264 @ 0x5222160] AVC: nal size 0
[h264 @ 0x5222160] no frame!
[h264 @ 0x5222160] AVC: nal size 0
[h264 @ 0x5222160] no frame!
[h264 @ 0x5222160] AVC: nal size 0
[h264 @ 0x5222160] no frame!
[h264 @ 0x5222160] AVC: nal size 0
[h264 @ 0x5222160] no frame!
[h264 @ 0x5222160] AVC: nal size 0
[h264 @ 0x5222160] no frame!
[h264 @ 0x5222160] AVC: nal size 0
[h264 @ 0x5222160] no frame!
[h264 @ 0x5222160] AVC: nal size 0
[h264 @ 0x5222160] no frame!
[h264 @ 0x5222160] AVC: nal size 0
[h264 @ 0x5222160] no frame!
[h264 @ 0x5222160] AVC: nal size 0
[h264 @ 0x5222160] no frame!
[h264 @ 0x5222160] AVC: nal size 0
[h264 @ 0x5222160] no frame!
[h264 @ 0x5222160] AVC: nal size 0
[h264 @ 0x5222160] no frame!
[h264 @ 0x5222160] AVC: nal size 0
[h264 @ 0x5222160] no frame!
[h264 @ 0x5222160] AVC: nal size 0
[h264 @ 0x5222160] no frame!
[h264 @ 0x5222160] AVC: nal size 0
[h264 @ 0x5222160] no frame!
[h264 @ 0x5222160] AVC: nal size 0
[h264 @ 0x5222160] no frame!
[h264 @ 0x5222160] AVC: nal size 0
[h264 @ 0x5222160] no frame!
[h264 @ 0x5222160] AVC: nal size 0
[h264 @ 0x5222160] no frame!
[h264 @ 0x5222160] AVC: nal size 0
[h264 @ 0x5222160] no frame!
[h264 @ 0x5222160] AVC: nal size 0
[h264 @ 0x5222160] no frame!
[h264 @ 0x5222160] AVC: nal size 0
[h264 @ 0x5222160] no frame!
[h264 @ 0x5222160] AVC: nal size 0
[h264 @ 0x5222160] no frame!
[h264 @ 0x5222160] AVC: nal size 0
[h264 @ 0x5222160] no frame!
[h264 @ 0x5222160] AVC: nal size 0
[h264 @ 0x5222160] no frame!
[h264 @ 0x5222160] AVC: nal size 0
[h264 @ 0x5222160] no frame!
[h264 @ 0x5222160] AVC: nal size 0
[h264 @ 0x5222160] no frame!
[h264 @ 0x5222160] AVC: nal size 0
[h264 @ 0x5222160] no frame!
[h264 @ 0x5222160] AVC: nal size 0
[h264 @ 0x5222160] no frame!
[h264 @ 0x5222160] AVC: nal size 0
[h264 @ 0x5222160] no frame!
[h264 @ 0x5222160] AVC: nal size 0
[h264 @ 0x5222160] no frame!
[h264 @ 0x5222160] AVC: nal size 0
[h264 @ 0x5222160] no frame!
[mov,mp4,m4a,3gp,3g2,mj2 @ 0x5218560] decoding for stream 0 failed
[mov,mp4,m4a,3gp,3g2,mj2 @ 0x5218560] Could not find codec parameters for stream 0 (Video: h264 (avc1 / 0x31637661), none, 1920x1080, 1999 kb/s): unspecified pixel format
Consider increasing the value for the 'analyzeduration' and 'probesize' options
Input #0, mov,mp4,m4a,3gp,3g2,mj2, from 'file:/media/media/Ellie's/Videos/Ellie's Movies/My Little Pony Equestria Girls Rainbow Rocks 2014 1080p BluRay x264 AAC - Ozlem/My Little Pony Equestria Girls Rainbow Rocks 2014 1080p BluRay x264 AAC - Ozlem.mp4':
Metadata:
major_brand : isom
minor_version : 1
compatible_brands: isom
creation_time : 2015-01-09 06:11:36
Duration: 01:13:20.77, start: 0.083417, bitrate: 2096 kb/s
Stream #0:0(und): Video: h264 (avc1 / 0x31637661), none, 1920x1080, 1999 kb/s, 23.98 fps, 23.98 tbr, 24k tbn, 48k tbc (default)
Metadata:
creation_time : 2015-01-08 22:45:52
Stream #0:1(und): Audio: aac (mp4a / 0x6134706D), 48000 Hz, stereo, fltp, max. 138 kb/s (default)
Metadata:
creation_time : 2015-01-09 06:12:10
[buffer @ 0x5218420] Unable to parse option value "-1" as pixel format
Last message repeated 1 times
[buffer @ 0x5218420] Error setting option pix_fmt to value -1.
[graph 0 input from stream 0:0 @ 0x529ab00] Error applying options to the filter.
Error opening filters!
ffmpeg version N-52954-g295de3e-static http://johnvansickle.com/ffmpeg/ Copyright © 2000-2016 the FFmpeg developers
built with gcc 5.3.1 (Debian 5.3.1-8) 20160205
configuration: --enable-gpl --enable-version3 --disable-shared --disable-debug --enable-runtime-cpudetect --enable-libmp3lame --enable-libx264 --enable-libx265 --enable-libwebp --enable-libspeex --enable-libvorbis --enable-libvpx --enable-libfreetype --enable-fontconfig --enable-libxvid --enable-libopencore-amrnb --enable-libopencore-amrwb --enable-libtheora --enable-libvo-amrwbenc --enable-gray --enable-libopenjpeg --enable-libopus --enable-libass --enable-gnutls --enable-libvidstab --enable-libsoxr --enable-frei0r --enable-libfribidi --disable-indev=sndio --disable-outdev=sndio --enable-librtmp --enable-libmfx --cc=gcc
libavutil 55. 17.103 / 55. 17.103
libavcodec 57. 24.102 / 57. 24.102
libavformat 57. 25.100 / 57. 25.100
libavdevice 57. 0.101 / 57. 0.101
libavfilter 6. 31.100 / 6. 31.100
libswscale 4. 0.100 / 4. 0.100
libswresample 2. 0.101 / 2. 0.101
libpostproc 54. 0.100 / 54. 0.100
[h264 @ 0x5945160] AVC: nal size 0
[h264 @ 0x5945160] no frame!
[h264 @ 0x5945160] AVC: nal size 0
[h264 @ 0x5945160] no frame!
[h264 @ 0x5945160] AVC: nal size 0
[h264 @ 0x5945160] no frame!
[h264 @ 0x5945160] AVC: nal size 0
[h264 @ 0x5945160] no frame!
[h264 @ 0x5945160] AVC: nal size 0
[h264 @ 0x5945160] no frame!
[h264 @ 0x5945160] AVC: nal size 0
[h264 @ 0x5945160] no frame!
[h264 @ 0x5945160] AVC: nal size 0
[h264 @ 0x5945160] no frame!
[h264 @ 0x5945160] AVC: nal size 0
[h264 @ 0x5945160] no frame!
[h264 @ 0x5945160] AVC: nal size 0
[h264 @ 0x5945160] no frame!
[h264 @ 0x5945160] AVC: nal size 0
[h264 @ 0x5945160] no frame!
[h264 @ 0x5945160] AVC: nal size 0
[h264 @ 0x5945160] no frame!
[h264 @ 0x5945160] AVC: nal size 0
[h264 @ 0x5945160] no frame!
[h264 @ 0x5945160] AVC: nal size 0
[h264 @ 0x5945160] no frame!
[h264 @ 0x5945160] AVC: nal size 0
[h264 @ 0x5945160] no frame!
[h264 @ 0x5945160] AVC: nal size 0
[h264 @ 0x5945160] no frame!
[h264 @ 0x5945160] AVC: nal size 0
[h264 @ 0x5945160] no frame!
[h264 @ 0x5945160] AVC: nal size 0
[h264 @ 0x5945160] no frame!
[h264 @ 0x5945160] AVC: nal size 0
[h264 @ 0x5945160] no frame!
[h264 @ 0x5945160] AVC: nal size 0
[h264 @ 0x5945160] no frame!
[h264 @ 0x5945160] AVC: nal size 0
[h264 @ 0x5945160] no frame!
[h264 @ 0x5945160] AVC: nal size 0
[h264 @ 0x5945160] no frame!
[h264 @ 0x5945160] AVC: nal size 0
[h264 @ 0x5945160] no frame!
[h264 @ 0x5945160] AVC: nal size 0
[h264 @ 0x5945160] no frame!
[h264 @ 0x5945160] AVC: nal size 0
[h264 @ 0x5945160] no frame!
[h264 @ 0x5945160] AVC: nal size 0
[h264 @ 0x5945160] no frame!
[h264 @ 0x5945160] AVC: nal size 0
[h264 @ 0x5945160] no frame!
[h264 @ 0x5945160] AVC: nal size 0
[h264 @ 0x5945160] no frame!
[h264 @ 0x5945160] AVC: nal size 0
[h264 @ 0x5945160] no frame!
[h264 @ 0x5945160] AVC: nal size 0
[h264 @ 0x5945160] no frame!
[h264 @ 0x5945160] AVC: nal size 0
[h264 @ 0x5945160] no frame!
[h264 @ 0x5945160] AVC: nal size 0
[h264 @ 0x5945160] no frame!
[h264 @ 0x5945160] AVC: nal size 0
[h264 @ 0x5945160] no frame!
[h264 @ 0x5945160] AVC: nal size 0
[h264 @ 0x5945160] no frame!
[h264 @ 0x5945160] AVC: nal size 0
[h264 @ 0x5945160] no frame!
[h264 @ 0x5945160] AVC: nal size 0
[h264 @ 0x5945160] no frame!
[h264 @ 0x5945160] AVC: nal size 0
[h264 @ 0x5945160] no frame!
[h264 @ 0x5945160] AVC: nal size 0
[h264 @ 0x5945160] no frame!
[h264 @ 0x5945160] AVC: nal size 0
[h264 @ 0x5945160] no frame!
[h264 @ 0x5945160] AVC: nal size 0
[h264 @ 0x5945160] no frame!
[h264 @ 0x5945160] AVC: nal size 0
[h264 @ 0x5945160] no frame!
[h264 @ 0x5945160] AVC: nal size 0
[h264 @ 0x5945160] no frame!
[h264 @ 0x5945160] AVC: nal size 0
[h264 @ 0x5945160] no frame!
[h264 @ 0x5945160] AVC: nal size 0
[h264 @ 0x5945160] no frame!
[h264 @ 0x5945160] AVC: nal size 0
[h264 @ 0x5945160] no frame!
[h264 @ 0x5945160] AVC: nal size 0
[h264 @ 0x5945160] no frame!
[h264 @ 0x5945160] AVC: nal size 0
[h264 @ 0x5945160] no frame!
[h264 @ 0x5945160] AVC: nal size 0
[h264 @ 0x5945160] no frame!
[h264 @ 0x5945160] AVC: nal size 0
[h264 @ 0x5945160] no frame!
[h264 @ 0x5945160] AVC: nal size 0
[h264 @ 0x5945160] no frame!
[h264 @ 0x5945160] AVC: nal size 0
[h264 @ 0x5945160] no frame!
[h264 @ 0x5945160] AVC: nal size 0
[h264 @ 0x5945160] no frame!
[h264 @ 0x5945160] AVC: nal size 0
[h264 @ 0x5945160] no frame!
[h264 @ 0x5945160] AVC: nal size 0
[h264 @ 0x5945160] no frame!
[h264 @ 0x5945160] AVC: nal size 0
[h264 @ 0x5945160] no frame!
[h264 @ 0x5945160] AVC: nal size 0
[h264 @ 0x5945160] no frame!
[h264 @ 0x5945160] AVC: nal size 0
[h264 @ 0x5945160] no frame!
[h264 @ 0x5945160] AVC: nal size 0
[h264 @ 0x5945160] no frame!
[h264 @ 0x5945160] AVC: nal size 0
[h264 @ 0x5945160] no frame!
[h264 @ 0x5945160] AVC: nal size 0
[h264 @ 0x5945160] no frame!
[h264 @ 0x5945160] AVC: nal size 0
[h264 @ 0x5945160] no frame!
[h264 @ 0x5945160] AVC: nal size 0
[h264 @ 0x5945160] no frame!
[h264 @ 0x5945160] AVC: nal size 0
[h264 @ 0x5945160] no frame!
[h264 @ 0x5945160] AVC: nal size 0
[h264 @ 0x5945160] no frame!
[h264 @ 0x5945160] AVC: nal size 0
[h264 @ 0x5945160] no frame!
[h264 @ 0x5945160] AVC: nal size 0
[h264 @ 0x5945160] no frame!
[h264 @ 0x5945160] AVC: nal size 0
[h264 @ 0x5945160] no frame!
[h264 @ 0x5945160] AVC: nal size 0
[h264 @ 0x5945160] no frame!
[h264 @ 0x5945160] AVC: nal size 0
[h264 @ 0x5945160] no frame!
[h264 @ 0x5945160] AVC: nal size 0
[h264 @ 0x5945160] no frame!
[h264 @ 0x5945160] AVC: nal size 0
[h264 @ 0x5945160] no frame!
[h264 @ 0x5945160] AVC: nal size 0
[h264 @ 0x5945160] no frame!
[h264 @ 0x5945160] AVC: nal size 0
[h264 @ 0x5945160] no frame!
[h264 @ 0x5945160] AVC: nal size 0
[h264 @ 0x5945160] no frame!
[h264 @ 0x5945160] AVC: nal size 0
[h264 @ 0x5945160] no frame!
[h264 @ 0x5945160] AVC: nal size 0
[h264 @ 0x5945160] no frame!
[h264 @ 0x5945160] AVC: nal size 0
[h264 @ 0x5945160] no frame!
[h264 @ 0x5945160] AVC: nal size 0
[h264 @ 0x5945160] no frame!
[h264 @ 0x5945160] AVC: nal size 0
[h264 @ 0x5945160] no frame!
[h264 @ 0x5945160] AVC: nal size 0
[h264 @ 0x5945160] no frame!
[h264 @ 0x5945160] AVC: nal size 0
[h264 @ 0x5945160] no frame!
[h264 @ 0x5945160] AVC: nal size 0
[h264 @ 0x5945160] no frame!
[h264 @ 0x5945160] AVC: nal size 0
[h264 @ 0x5945160] no frame!
[h264 @ 0x5945160] AVC: nal size 0
[h264 @ 0x5945160] no frame!
[h264 @ 0x5945160] AVC: nal size 0
[h264 @ 0x5945160] no frame!
[h264 @ 0x5945160] AVC: nal size 0
[h264 @ 0x5945160] no frame!
[h264 @ 0x5945160] AVC: nal size 0
[h264 @ 0x5945160] no frame!
[h264 @ 0x5945160] AVC: nal size 0
[h264 @ 0x5945160] no frame!
[h264 @ 0x5945160] AVC: nal size 0
[h264 @ 0x5945160] no frame!
[h264 @ 0x5945160] AVC: nal size 0
[h264 @ 0x5945160] no frame!
[h264 @ 0x5945160] AVC: nal size 0
[h264 @ 0x5945160] no frame!
[h264 @ 0x5945160] AVC: nal size 0
[h264 @ 0x5945160] no frame!
[h264 @ 0x5945160] AVC: nal size 0
[h264 @ 0x5945160] no frame!
[h264 @ 0x5945160] AVC: nal size 0
[h264 @ 0x5945160] no frame!
[h264 @ 0x5945160] AVC: nal size 0
[h264 @ 0x5945160] no frame!
[h264 @ 0x5945160] AVC: nal size 0
[h264 @ 0x5945160] no frame!
[h264 @ 0x5945160] AVC: nal size 0
[h264 @ 0x5945160] no frame!
[h264 @ 0x5945160] AVC: nal size 0
[h264 @ 0x5945160] no frame!
[h264 @ 0x5945160] AVC: nal size 0
[h264 @ 0x5945160] no frame!
[h264 @ 0x5945160] AVC: nal size 0
[h264 @ 0x5945160] no frame!
[h264 @ 0x5945160] AVC: nal size 0
[h264 @ 0x5945160] no frame!
[h264 @ 0x5945160] AVC: nal size 0
[h264 @ 0x5945160] no frame!
[h264 @ 0x5945160] AVC: nal size 0
[h264 @ 0x5945160] no frame!
[h264 @ 0x5945160] AVC: nal size 0
[h264 @ 0x5945160] no frame!
[h264 @ 0x5945160] AVC: nal size 0
[h264 @ 0x5945160] no frame!
[h264 @ 0x5945160] AVC: nal size 0
[h264 @ 0x5945160] no frame!
[h264 @ 0x5945160] AVC: nal size 0
[h264 @ 0x5945160] no frame!
[h264 @ 0x5945160] AVC: nal size 0
[h264 @ 0x5945160] no frame!
[h264 @ 0x5945160] AVC: nal size 0
[h264 @ 0x5945160] no frame!
[h264 @ 0x5945160] AVC: nal size 0
[h264 @ 0x5945160] no frame!
[h264 @ 0x5945160] AVC: nal size 0
[h264 @ 0x5945160] no frame!
[h264 @ 0x5945160] AVC: nal size 0
[h264 @ 0x5945160] no frame!
[h264 @ 0x5945160] AVC: nal size 0
[h264 @ 0x5945160] no frame!
[h264 @ 0x5945160] AVC: nal size 0
[h264 @ 0x5945160] no frame!
[h264 @ 0x5945160] AVC: nal size 0
[h264 @ 0x5945160] no frame!
[h264 @ 0x5945160] AVC: nal size 0
[h264 @ 0x5945160] no frame!
[h264 @ 0x5945160] AVC: nal size 0
[h264 @ 0x5945160] no frame!
[h264 @ 0x5945160] AVC: nal size 0
[h264 @ 0x5945160] no frame!
[h264 @ 0x5945160] AVC: nal size 0
[h264 @ 0x5945160] no frame!
[h264 @ 0x5945160] AVC: nal size 0
[h264 @ 0x5945160] no frame!
[h264 @ 0x5945160] AVC: nal size 0
[h264 @ 0x5945160] no frame!
[mov,mp4,m4a,3gp,3g2,mj2 @ 0x593b560] decoding for stream 0 failed
[mov,mp4,m4a,3gp,3g2,mj2 @ 0x593b560] Could not find codec parameters for stream 0 (Video: h264 (avc1 / 0x31637661), none, 1920x1080, 1999 kb/s): unspecified pixel format
Consider increasing the value for the 'analyzeduration' and 'probesize' options
Input #0, mov,mp4,m4a,3gp,3g2,mj2, from 'file:/media/media/Ellie's/Videos/Ellie's Movies/My Little Pony Equestria Girls Rainbow Rocks 2014 1080p BluRay x264 AAC - Ozlem/My Little Pony Equestria Girls Rainbow Rocks 2014 1080p BluRay x264 AAC - Ozlem.mp4':
Metadata:
major_brand : isom
minor_version : 1
compatible_brands: isom
creation_time : 2015-01-09 06:11:36
Duration: 01:13:20.77, start: 0.083417, bitrate: 2096 kb/s
Stream #0:0(und): Video: h264 (avc1 / 0x31637661), none, 1920x1080, 1999 kb/s, 23.98 fps, 23.98 tbr, 24k tbn, 48k tbc (default)
Metadata:
creation_time : 2015-01-08 22:45:52
Stream #0:1(und): Audio: aac (mp4a / 0x6134706D), 48000 Hz, stereo, fltp, max. 138 kb/s (default)
Metadata:
creation_time : 2015-01-09 06:12:10
[buffer @ 0x593b420] Unable to parse option value "-1" as pixel format
Last message repeated 1 times
[buffer @ 0x593b420] Error setting option pix_fmt to value -1.
[graph 0 input from stream 0:0 @ 0x59bdb00] Error applying options to the filter.
Error opening filters!

Link to comment
Share on other sites

mwongjay

I just noticed that direct streaming is not working on any devices. Here's the log.

 

 

 

Application version: 3.2.30.0

 

http://192.168.1.15:8096/emby/videos/b901a6732c2a44d5ac75fe883f0a86e1/hls1/main/0.ts?DeviceId=865dfa7d61f1b1cade54c6625d31272a48e952be&MediaSourceId=b901a6732c2a44d5ac75fe883f0a86e1&VideoCodec=h264&AudioCodec=aac&AudioStreamIndex=1&VideoBitrate=139808000&AudioBitrate=192000&Level=51&Profile=high&PlaySessionId=4865dabdc520439e993470c98073a812&api_key=3d07fed229d14b96a5a8f1cda1b50087&CopyTimestamps=false&TranscodingMaxAudioChannels=6&EnableSubtitlesInManifest=false&Tag=f818932a662b4d8546c7dc09ebc1ddba&RequireAvc=true&RequireNonAnamorphic=false&DeInterlace=true&SegmentContainer=ts&MinSegments=1&BreakOnNonKeyFrames=True&TranscodeReasons=VideoProfileNotSupported&allowVideoStreamCopy=false

 

{"Protocol":"File","Id":"b901a6732c2a44d5ac75fe883f0a86e1","Path":"/media/media/Ellie's/Videos/Ellie's Movies/My Little Pony Equestria Girls Rainbow Rocks 2014 1080p BluRay x264 AAC - Ozlem/My Little Pony Equestria Girls Rainbow Rocks 2014 1080p BluRay x264 AAC - Ozlem.mp4","Type":"Default","Container":"mp4","Name":"1080P/H264/AAC","IsRemote":false,"ETag":"f818932a662b4d8546c7dc09ebc1ddba","RunTimeTicks":44007698432,"ReadAtNativeFramerate":false,"IgnoreDts":false,"IgnoreIndex":false,"GenPtsInput":false,"SupportsTranscoding":true,"SupportsDirectStream":true,"SupportsDirectPlay":true,"IsInfiniteStream":false,"RequiresOpening":false,"RequiresClosing":false,"SupportsProbing":true,"EnableMpDecimate":false,"RequiresLooping":false,"VideoType":"VideoFile","MediaStreams":[{"Codec":"h264","CodecTag":"avc1","Language":"und","TimeBase":"1/24000","CodecTimeBase":"1/48000","NalLengthSize":"4","IsInterlaced":false,"IsAVC":true,"BitRate":1999425,"RefFrames":1,"IsDefault":true,"IsForced":false,"Height":1080,"Width":1920,"AverageFrameRate":23.9760246,"RealFrameRate":23.9760246,"Type":"Video","AspectRatio":"16:9","Index":0,"IsExternal":false,"IsTextSubtitleStream":false,"SupportsExternalStream":false,"Level":-99,"IsAnamorphic":false},{"Codec":"aac","CodecTag":"mp4a","Language":"und","TimeBase":"1/48000","CodecTimeBase":"1/48000","DisplayTitle":"Und AAC stereo Default","IsInterlaced":false,"ChannelLayout":"stereo","Channels":2,"SampleRate":48000,"IsDefault":true,"IsForced":false,"Type":"Audio","Index":1,"IsExternal":false,"IsTextSubtitleStream":false,"SupportsExternalStream":false,"Level":0,"IsAnamorphic":false}],"Formats":[],"Bitrate":2096820,"RequiredHttpHeaders":{}}

 

User policy for emby: EnablePlaybackRemuxing: True EnableVideoPlaybackTranscoding: True EnableAudioPlaybackTranscoding: True

 

/var/lib/emby-server/ffmpeg/20160215/ffmpeg -f mp4 -i file:"/media/media/Ellie's/Videos/Ellie's Movies/My Little Pony Equestria Girls Rainbow Rocks 2014 1080p BluRay x264 AAC - Ozlem/My Little Pony Equestria Girls Rainbow Rocks 2014 1080p BluRay x264 AAC - Ozlem.mp4" -map_metadata -1 -map_chapters -1 -threads 0 -map 0:0 -map 0:1 -map -0:s -codec:v:0 libx264 -pix_fmt yuv420p -preset superfast -crf 25 -maxrate 3998850 -bufsize 7997700 -profile:v high -level 4.1 -x264opts:0 subme=0:me_range=4:rc_lookahead=10:me=dia:no_chroma_me:8x8dct=0:partitions=none -force_key_frames "expr:gte(t,n_forced*3)" -vf "scale=trunc(min(max(iw\,ih*dar)\,1920)/2)*2:trunc(ow/dar/2)*2" -copyts -vsync -1 -codec:a:0 aac -strict experimental -ac 2 -ab 192000 -f segment -max_delay 5000000 -avoid_negative_ts disabled -start_at_zero -segment_time 3 -individual_header_trailer 0 -segment_format mpegts -segment_list_type m3u8 -segment_start_number 0 -segment_list "/media2/transcoding-temp/6246fedf7d89f42d576ebe3046f423e5.m3u8" -y "/media2/transcoding-temp/6246fedf7d89f42d576ebe3046f423e5%d.ts"

 

ffmpeg version N-52954-g295de3e-static http://johnvansickle.com/ffmpeg/ Copyright © 2000-2016 the FFmpeg developers

built with gcc 5.3.1 (Debian 5.3.1-8) 20160205

configuration: --enable-gpl --enable-version3 --disable-shared --disable-debug --enable-runtime-cpudetect --enable-libmp3lame --enable-libx264 --enable-libx265 --enable-libwebp --enable-libspeex --enable-libvorbis --enable-libvpx --enable-libfreetype --enable-fontconfig --enable-libxvid --enable-libopencore-amrnb --enable-libopencore-amrwb --enable-libtheora --enable-libvo-amrwbenc --enable-gray --enable-libopenjpeg --enable-libopus --enable-libass --enable-gnutls --enable-libvidstab --enable-libsoxr --enable-frei0r --enable-libfribidi --disable-indev=sndio --disable-outdev=sndio --enable-librtmp --enable-libmfx --cc=gcc

libavutil 55. 17.103 / 55. 17.103

libavcodec 57. 24.102 / 57. 24.102

libavformat 57. 25.100 / 57. 25.100

libavdevice 57. 0.101 / 57. 0.101

libavfilter 6. 31.100 / 6. 31.100

libswscale 4. 0.100 / 4. 0.100

libswresample 2. 0.101 / 2. 0.101

libpostproc 54. 0.100 / 54. 0.100

[h264 @ 0x5222160] AVC: nal size 0

[h264 @ 0x5222160] no frame!

[h264 @ 0x5222160] AVC: nal size 0

[h264 @ 0x5222160] no frame!

[h264 @ 0x5222160] AVC: nal size 0

[h264 @ 0x5222160] no frame!

[h264 @ 0x5222160] AVC: nal size 0

[h264 @ 0x5222160] no frame!

[h264 @ 0x5222160] AVC: nal size 0

[h264 @ 0x5222160] no frame!

[h264 @ 0x5222160] AVC: nal size 0

[h264 @ 0x5222160] no frame!

[h264 @ 0x5222160] AVC: nal size 0

[h264 @ 0x5222160] no frame!

[h264 @ 0x5222160] AVC: nal size 0

[h264 @ 0x5222160] no frame!

[h264 @ 0x5222160] AVC: nal size 0

[h264 @ 0x5222160] no frame!

[h264 @ 0x5222160] AVC: nal size 0

[h264 @ 0x5222160] no frame!

[h264 @ 0x5222160] AVC: nal size 0

[h264 @ 0x5222160] no frame!

[h264 @ 0x5222160] AVC: nal size 0

[h264 @ 0x5222160] no frame!

[h264 @ 0x5222160] AVC: nal size 0

[h264 @ 0x5222160] no frame!

[h264 @ 0x5222160] AVC: nal size 0

[h264 @ 0x5222160] no frame!

[h264 @ 0x5222160] AVC: nal size 0

[h264 @ 0x5222160] no frame!

[h264 @ 0x5222160] AVC: nal size 0

[h264 @ 0x5222160] no frame!

[h264 @ 0x5222160] AVC: nal size 0

[h264 @ 0x5222160] no frame!

[h264 @ 0x5222160] AVC: nal size 0

[h264 @ 0x5222160] no frame!

[h264 @ 0x5222160] AVC: nal size 0

[h264 @ 0x5222160] no frame!

[h264 @ 0x5222160] AVC: nal size 0

[h264 @ 0x5222160] no frame!

[h264 @ 0x5222160] AVC: nal size 0

[h264 @ 0x5222160] no frame!

[h264 @ 0x5222160] AVC: nal size 0

[h264 @ 0x5222160] no frame!

[h264 @ 0x5222160] AVC: nal size 0

[h264 @ 0x5222160] no frame!

[h264 @ 0x5222160] AVC: nal size 0

[h264 @ 0x5222160] no frame!

[h264 @ 0x5222160] AVC: nal size 0

[h264 @ 0x5222160] no frame!

[h264 @ 0x5222160] AVC: nal size 0

[h264 @ 0x5222160] no frame!

[h264 @ 0x5222160] AVC: nal size 0

[h264 @ 0x5222160] no frame!

[h264 @ 0x5222160] AVC: nal size 0

[h264 @ 0x5222160] no frame!

[h264 @ 0x5222160] AVC: nal size 0

[h264 @ 0x5222160] no frame!

[h264 @ 0x5222160] AVC: nal size 0

[h264 @ 0x5222160] no frame!

[h264 @ 0x5222160] AVC: nal size 0

[h264 @ 0x5222160] no frame!

[h264 @ 0x5222160] AVC: nal size 0

[h264 @ 0x5222160] no frame!

[h264 @ 0x5222160] AVC: nal size 0

[h264 @ 0x5222160] no frame!

[h264 @ 0x5222160] AVC: nal size 0

[h264 @ 0x5222160] no frame!

[h264 @ 0x5222160] AVC: nal size 0

[h264 @ 0x5222160] no frame!

[h264 @ 0x5222160] AVC: nal size 0

[h264 @ 0x5222160] no frame!

[h264 @ 0x5222160] AVC: nal size 0

[h264 @ 0x5222160] no frame!

[h264 @ 0x5222160] AVC: nal size 0

[h264 @ 0x5222160] no frame!

[h264 @ 0x5222160] AVC: nal size 0

[h264 @ 0x5222160] no frame!

[h264 @ 0x5222160] AVC: nal size 0

[h264 @ 0x5222160] no frame!

[h264 @ 0x5222160] AVC: nal size 0

[h264 @ 0x5222160] no frame!

[h264 @ 0x5222160] AVC: nal size 0

[h264 @ 0x5222160] no frame!

[h264 @ 0x5222160] AVC: nal size 0

[h264 @ 0x5222160] no frame!

[h264 @ 0x5222160] AVC: nal size 0

[h264 @ 0x5222160] no frame!

[h264 @ 0x5222160] AVC: nal size 0

[h264 @ 0x5222160] no frame!

[h264 @ 0x5222160] AVC: nal size 0

[h264 @ 0x5222160] no frame!

[h264 @ 0x5222160] AVC: nal size 0

[h264 @ 0x5222160] no frame!

[h264 @ 0x5222160] AVC: nal size 0

[h264 @ 0x5222160] no frame!

[h264 @ 0x5222160] AVC: nal size 0

[h264 @ 0x5222160] no frame!

[h264 @ 0x5222160] AVC: nal size 0

[h264 @ 0x5222160] no frame!

[h264 @ 0x5222160] AVC: nal size 0

[h264 @ 0x5222160] no frame!

[h264 @ 0x5222160] AVC: nal size 0

[h264 @ 0x5222160] no frame!

[h264 @ 0x5222160] AVC: nal size 0

[h264 @ 0x5222160] no frame!

[h264 @ 0x5222160] AVC: nal size 0

[h264 @ 0x5222160] no frame!

[h264 @ 0x5222160] AVC: nal size 0

[h264 @ 0x5222160] no frame!

[h264 @ 0x5222160] AVC: nal size 0

[h264 @ 0x5222160] no frame!

[h264 @ 0x5222160] AVC: nal size 0

[h264 @ 0x5222160] no frame!

[h264 @ 0x5222160] AVC: nal size 0

[h264 @ 0x5222160] no frame!

[h264 @ 0x5222160] AVC: nal size 0

[h264 @ 0x5222160] no frame!

[h264 @ 0x5222160] AVC: nal size 0

[h264 @ 0x5222160] no frame!

[h264 @ 0x5222160] AVC: nal size 0

[h264 @ 0x5222160] no frame!

[h264 @ 0x5222160] AVC: nal size 0

[h264 @ 0x5222160] no frame!

[h264 @ 0x5222160] AVC: nal size 0

[h264 @ 0x5222160] no frame!

[h264 @ 0x5222160] AVC: nal size 0

[h264 @ 0x5222160] no frame!

[h264 @ 0x5222160] AVC: nal size 0

[h264 @ 0x5222160] no frame!

[h264 @ 0x5222160] AVC: nal size 0

[h264 @ 0x5222160] no frame!

[h264 @ 0x5222160] AVC: nal size 0

[h264 @ 0x5222160] no frame!

[h264 @ 0x5222160] AVC: nal size 0

[h264 @ 0x5222160] no frame!

[h264 @ 0x5222160] AVC: nal size 0

[h264 @ 0x5222160] no frame!

[h264 @ 0x5222160] AVC: nal size 0

[h264 @ 0x5222160] no frame!

[h264 @ 0x5222160] AVC: nal size 0

[h264 @ 0x5222160] no frame!

[h264 @ 0x5222160] AVC: nal size 0

[h264 @ 0x5222160] no frame!

[h264 @ 0x5222160] AVC: nal size 0

[h264 @ 0x5222160] no frame!

[h264 @ 0x5222160] AVC: nal size 0

[h264 @ 0x5222160] no frame!

[h264 @ 0x5222160] AVC: nal size 0

[h264 @ 0x5222160] no frame!

[h264 @ 0x5222160] AVC: nal size 0

[h264 @ 0x5222160] no frame!

[h264 @ 0x5222160] AVC: nal size 0

[h264 @ 0x5222160] no frame!

[h264 @ 0x5222160] AVC: nal size 0

[h264 @ 0x5222160] no frame!

[h264 @ 0x5222160] AVC: nal size 0

[h264 @ 0x5222160] no frame!

[h264 @ 0x5222160] AVC: nal size 0

[h264 @ 0x5222160] no frame!

[h264 @ 0x5222160] AVC: nal size 0

[h264 @ 0x5222160] no frame!

[h264 @ 0x5222160] AVC: nal size 0

[h264 @ 0x5222160] no frame!

[h264 @ 0x5222160] AVC: nal size 0

[h264 @ 0x5222160] no frame!

[h264 @ 0x5222160] AVC: nal size 0

[h264 @ 0x5222160] no frame!

[h264 @ 0x5222160] AVC: nal size 0

[h264 @ 0x5222160] no frame!

[h264 @ 0x5222160] AVC: nal size 0

[h264 @ 0x5222160] no frame!

[h264 @ 0x5222160] AVC: nal size 0

[h264 @ 0x5222160] no frame!

[h264 @ 0x5222160] AVC: nal size 0

[h264 @ 0x5222160] no frame!

[h264 @ 0x5222160] AVC: nal size 0

[h264 @ 0x5222160] no frame!

[h264 @ 0x5222160] AVC: nal size 0

[h264 @ 0x5222160] no frame!

[h264 @ 0x5222160] AVC: nal size 0

[h264 @ 0x5222160] no frame!

[h264 @ 0x5222160] AVC: nal size 0

[h264 @ 0x5222160] no frame!

[h264 @ 0x5222160] AVC: nal size 0

[h264 @ 0x5222160] no frame!

[h264 @ 0x5222160] AVC: nal size 0

[h264 @ 0x5222160] no frame!

[h264 @ 0x5222160] AVC: nal size 0

[h264 @ 0x5222160] no frame!

[h264 @ 0x5222160] AVC: nal size 0

[h264 @ 0x5222160] no frame!

[h264 @ 0x5222160] AVC: nal size 0

[h264 @ 0x5222160] no frame!

[h264 @ 0x5222160] AVC: nal size 0

[h264 @ 0x5222160] no frame!

[h264 @ 0x5222160] AVC: nal size 0

[h264 @ 0x5222160] no frame!

[h264 @ 0x5222160] AVC: nal size 0

[h264 @ 0x5222160] no frame!

[h264 @ 0x5222160] AVC: nal size 0

[h264 @ 0x5222160] no frame!

[h264 @ 0x5222160] AVC: nal size 0

[h264 @ 0x5222160] no frame!

[h264 @ 0x5222160] AVC: nal size 0

[h264 @ 0x5222160] no frame!

[h264 @ 0x5222160] AVC: nal size 0

[h264 @ 0x5222160] no frame!

[h264 @ 0x5222160] AVC: nal size 0

[h264 @ 0x5222160] no frame!

[h264 @ 0x5222160] AVC: nal size 0

[h264 @ 0x5222160] no frame!

[h264 @ 0x5222160] AVC: nal size 0

[h264 @ 0x5222160] no frame!

[h264 @ 0x5222160] AVC: nal size 0

[h264 @ 0x5222160] no frame!

[h264 @ 0x5222160] AVC: nal size 0

[h264 @ 0x5222160] no frame!

[h264 @ 0x5222160] AVC: nal size 0

[h264 @ 0x5222160] no frame!

[h264 @ 0x5222160] AVC: nal size 0

[h264 @ 0x5222160] no frame!

[h264 @ 0x5222160] AVC: nal size 0

[h264 @ 0x5222160] no frame!

[h264 @ 0x5222160] AVC: nal size 0

[h264 @ 0x5222160] no frame!

[h264 @ 0x5222160] AVC: nal size 0

[h264 @ 0x5222160] no frame!

[h264 @ 0x5222160] AVC: nal size 0

[h264 @ 0x5222160] no frame!

[h264 @ 0x5222160] AVC: nal size 0

[h264 @ 0x5222160] no frame!

[h264 @ 0x5222160] AVC: nal size 0

[h264 @ 0x5222160] no frame!

[h264 @ 0x5222160] AVC: nal size 0

[h264 @ 0x5222160] no frame!

[h264 @ 0x5222160] AVC: nal size 0

[h264 @ 0x5222160] no frame!

[h264 @ 0x5222160] AVC: nal size 0

[h264 @ 0x5222160] no frame!

[mov,mp4,m4a,3gp,3g2,mj2 @ 0x5218560] decoding for stream 0 failed

[mov,mp4,m4a,3gp,3g2,mj2 @ 0x5218560] Could not find codec parameters for stream 0 (Video: h264 (avc1 / 0x31637661), none, 1920x1080, 1999 kb/s): unspecified pixel format

Consider increasing the value for the 'analyzeduration' and 'probesize' options

Input #0, mov,mp4,m4a,3gp,3g2,mj2, from 'file:/media/media/Ellie's/Videos/Ellie's Movies/My Little Pony Equestria Girls Rainbow Rocks 2014 1080p BluRay x264 AAC - Ozlem/My Little Pony Equestria Girls Rainbow Rocks 2014 1080p BluRay x264 AAC - Ozlem.mp4':

Metadata:

major_brand : isom

minor_version : 1

compatible_brands: isom

creation_time : 2015-01-09 06:11:36

Duration: 01:13:20.77, start: 0.083417, bitrate: 2096 kb/s

Stream #0:0(und): Video: h264 (avc1 / 0x31637661), none, 1920x1080, 1999 kb/s, 23.98 fps, 23.98 tbr, 24k tbn, 48k tbc (default)

Metadata:

creation_time : 2015-01-08 22:45:52

Stream #0:1(und): Audio: aac (mp4a / 0x6134706D), 48000 Hz, stereo, fltp, max. 138 kb/s (default)

Metadata:

creation_time : 2015-01-09 06:12:10

[buffer @ 0x5218420] Unable to parse option value "-1" as pixel format

Last message repeated 1 times

[buffer @ 0x5218420] Error setting option pix_fmt to value -1.

[graph 0 input from stream 0:0 @ 0x529ab00] Error applying options to the filter.

Error opening filters!

ffmpeg version N-52954-g295de3e-static http://johnvansickle.com/ffmpeg/ Copyright © 2000-2016 the FFmpeg developers

built with gcc 5.3.1 (Debian 5.3.1-8) 20160205

configuration: --enable-gpl --enable-version3 --disable-shared --disable-debug --enable-runtime-cpudetect --enable-libmp3lame --enable-libx264 --enable-libx265 --enable-libwebp --enable-libspeex --enable-libvorbis --enable-libvpx --enable-libfreetype --enable-fontconfig --enable-libxvid --enable-libopencore-amrnb --enable-libopencore-amrwb --enable-libtheora --enable-libvo-amrwbenc --enable-gray --enable-libopenjpeg --enable-libopus --enable-libass --enable-gnutls --enable-libvidstab --enable-libsoxr --enable-frei0r --enable-libfribidi --disable-indev=sndio --disable-outdev=sndio --enable-librtmp --enable-libmfx --cc=gcc

libavutil 55. 17.103 / 55. 17.103

libavcodec 57. 24.102 / 57. 24.102

libavformat 57. 25.100 / 57. 25.100

libavdevice 57. 0.101 / 57. 0.101

libavfilter 6. 31.100 / 6. 31.100

libswscale 4. 0.100 / 4. 0.100

libswresample 2. 0.101 / 2. 0.101

libpostproc 54. 0.100 / 54. 0.100

[h264 @ 0x5945160] AVC: nal size 0

[h264 @ 0x5945160] no frame!

[h264 @ 0x5945160] AVC: nal size 0

[h264 @ 0x5945160] no frame!

[h264 @ 0x5945160] AVC: nal size 0

[h264 @ 0x5945160] no frame!

[h264 @ 0x5945160] AVC: nal size 0

[h264 @ 0x5945160] no frame!

[h264 @ 0x5945160] AVC: nal size 0

[h264 @ 0x5945160] no frame!

[h264 @ 0x5945160] AVC: nal size 0

[h264 @ 0x5945160] no frame!

[h264 @ 0x5945160] AVC: nal size 0

[h264 @ 0x5945160] no frame!

[h264 @ 0x5945160] AVC: nal size 0

[h264 @ 0x5945160] no frame!

[h264 @ 0x5945160] AVC: nal size 0

[h264 @ 0x5945160] no frame!

[h264 @ 0x5945160] AVC: nal size 0

[h264 @ 0x5945160] no frame!

[h264 @ 0x5945160] AVC: nal size 0

[h264 @ 0x5945160] no frame!

[h264 @ 0x5945160] AVC: nal size 0

[h264 @ 0x5945160] no frame!

[h264 @ 0x5945160] AVC: nal size 0

[h264 @ 0x5945160] no frame!

[h264 @ 0x5945160] AVC: nal size 0

[h264 @ 0x5945160] no frame!

[h264 @ 0x5945160] AVC: nal size 0

[h264 @ 0x5945160] no frame!

[h264 @ 0x5945160] AVC: nal size 0

[h264 @ 0x5945160] no frame!

[h264 @ 0x5945160] AVC: nal size 0

[h264 @ 0x5945160] no frame!

[h264 @ 0x5945160] AVC: nal size 0

[h264 @ 0x5945160] no frame!

[h264 @ 0x5945160] AVC: nal size 0

[h264 @ 0x5945160] no frame!

[h264 @ 0x5945160] AVC: nal size 0

[h264 @ 0x5945160] no frame!

[h264 @ 0x5945160] AVC: nal size 0

[h264 @ 0x5945160] no frame!

[h264 @ 0x5945160] AVC: nal size 0

[h264 @ 0x5945160] no frame!

[h264 @ 0x5945160] AVC: nal size 0

[h264 @ 0x5945160] no frame!

[h264 @ 0x5945160] AVC: nal size 0

[h264 @ 0x5945160] no frame!

[h264 @ 0x5945160] AVC: nal size 0

[h264 @ 0x5945160] no frame!

[h264 @ 0x5945160] AVC: nal size 0

[h264 @ 0x5945160] no frame!

[h264 @ 0x5945160] AVC: nal size 0

[h264 @ 0x5945160] no frame!

[h264 @ 0x5945160] AVC: nal size 0

[h264 @ 0x5945160] no frame!

[h264 @ 0x5945160] AVC: nal size 0

[h264 @ 0x5945160] no frame!

[h264 @ 0x5945160] AVC: nal size 0

[h264 @ 0x5945160] no frame!

[h264 @ 0x5945160] AVC: nal size 0

[h264 @ 0x5945160] no frame!

[h264 @ 0x5945160] AVC: nal size 0

[h264 @ 0x5945160] no frame!

[h264 @ 0x5945160] AVC: nal size 0

[h264 @ 0x5945160] no frame!

[h264 @ 0x5945160] AVC: nal size 0

[h264 @ 0x5945160] no frame!

[h264 @ 0x5945160] AVC: nal size 0

[h264 @ 0x5945160] no frame!

[h264 @ 0x5945160] AVC: nal size 0

[h264 @ 0x5945160] no frame!

[h264 @ 0x5945160] AVC: nal size 0

[h264 @ 0x5945160] no frame!

[h264 @ 0x5945160] AVC: nal size 0

[h264 @ 0x5945160] no frame!

[h264 @ 0x5945160] AVC: nal size 0

[h264 @ 0x5945160] no frame!

[h264 @ 0x5945160] AVC: nal size 0

[h264 @ 0x5945160] no frame!

[h264 @ 0x5945160] AVC: nal size 0

[h264 @ 0x5945160] no frame!

[h264 @ 0x5945160] AVC: nal size 0

[h264 @ 0x5945160] no frame!

[h264 @ 0x5945160] AVC: nal size 0

[h264 @ 0x5945160] no frame!

[h264 @ 0x5945160] AVC: nal size 0

[h264 @ 0x5945160] no frame!

[h264 @ 0x5945160] AVC: nal size 0

[h264 @ 0x5945160] no frame!

[h264 @ 0x5945160] AVC: nal size 0

[h264 @ 0x5945160] no frame!

[h264 @ 0x5945160] AVC: nal size 0

[h264 @ 0x5945160] no frame!

[h264 @ 0x5945160] AVC: nal size 0

[h264 @ 0x5945160] no frame!

[h264 @ 0x5945160] AVC: nal size 0

[h264 @ 0x5945160] no frame!

[h264 @ 0x5945160] AVC: nal size 0

[h264 @ 0x5945160] no frame!

[h264 @ 0x5945160] AVC: nal size 0

[h264 @ 0x5945160] no frame!

[h264 @ 0x5945160] AVC: nal size 0

[h264 @ 0x5945160] no frame!

[h264 @ 0x5945160] AVC: nal size 0

[h264 @ 0x5945160] no frame!

[h264 @ 0x5945160] AVC: nal size 0

[h264 @ 0x5945160] no frame!

[h264 @ 0x5945160] AVC: nal size 0

[h264 @ 0x5945160] no frame!

[h264 @ 0x5945160] AVC: nal size 0

[h264 @ 0x5945160] no frame!

[h264 @ 0x5945160] AVC: nal size 0

[h264 @ 0x5945160] no frame!

[h264 @ 0x5945160] AVC: nal size 0

[h264 @ 0x5945160] no frame!

[h264 @ 0x5945160] AVC: nal size 0

[h264 @ 0x5945160] no frame!

[h264 @ 0x5945160] AVC: nal size 0

[h264 @ 0x5945160] no frame!

[h264 @ 0x5945160] AVC: nal size 0

[h264 @ 0x5945160] no frame!

[h264 @ 0x5945160] AVC: nal size 0

[h264 @ 0x5945160] no frame!

[h264 @ 0x5945160] AVC: nal size 0

[h264 @ 0x5945160] no frame!

[h264 @ 0x5945160] AVC: nal size 0

[h264 @ 0x5945160] no frame!

[h264 @ 0x5945160] AVC: nal size 0

[h264 @ 0x5945160] no frame!

[h264 @ 0x5945160] AVC: nal size 0

[h264 @ 0x5945160] no frame!

[h264 @ 0x5945160] AVC: nal size 0

[h264 @ 0x5945160] no frame!

[h264 @ 0x5945160] AVC: nal size 0

[h264 @ 0x5945160] no frame!

[h264 @ 0x5945160] AVC: nal size 0

[h264 @ 0x5945160] no frame!

[h264 @ 0x5945160] AVC: nal size 0

[h264 @ 0x5945160] no frame!

[h264 @ 0x5945160] AVC: nal size 0

[h264 @ 0x5945160] no frame!

[h264 @ 0x5945160] AVC: nal size 0

[h264 @ 0x5945160] no frame!

[h264 @ 0x5945160] AVC: nal size 0

[h264 @ 0x5945160] no frame!

[h264 @ 0x5945160] AVC: nal size 0

[h264 @ 0x5945160] no frame!

[h264 @ 0x5945160] AVC: nal size 0

[h264 @ 0x5945160] no frame!

[h264 @ 0x5945160] AVC: nal size 0

[h264 @ 0x5945160] no frame!

[h264 @ 0x5945160] AVC: nal size 0

[h264 @ 0x5945160] no frame!

[h264 @ 0x5945160] AVC: nal size 0

[h264 @ 0x5945160] no frame!

[h264 @ 0x5945160] AVC: nal size 0

[h264 @ 0x5945160] no frame!

[h264 @ 0x5945160] AVC: nal size 0

[h264 @ 0x5945160] no frame!

[h264 @ 0x5945160] AVC: nal size 0

[h264 @ 0x5945160] no frame!

[h264 @ 0x5945160] AVC: nal size 0

[h264 @ 0x5945160] no frame!

[h264 @ 0x5945160] AVC: nal size 0

[h264 @ 0x5945160] no frame!

[h264 @ 0x5945160] AVC: nal size 0

[h264 @ 0x5945160] no frame!

[h264 @ 0x5945160] AVC: nal size 0

[h264 @ 0x5945160] no frame!

[h264 @ 0x5945160] AVC: nal size 0

[h264 @ 0x5945160] no frame!

[h264 @ 0x5945160] AVC: nal size 0

[h264 @ 0x5945160] no frame!

[h264 @ 0x5945160] AVC: nal size 0

[h264 @ 0x5945160] no frame!

[h264 @ 0x5945160] AVC: nal size 0

[h264 @ 0x5945160] no frame!

[h264 @ 0x5945160] AVC: nal size 0

[h264 @ 0x5945160] no frame!

[h264 @ 0x5945160] AVC: nal size 0

[h264 @ 0x5945160] no frame!

[h264 @ 0x5945160] AVC: nal size 0

[h264 @ 0x5945160] no frame!

[h264 @ 0x5945160] AVC: nal size 0

[h264 @ 0x5945160] no frame!

[h264 @ 0x5945160] AVC: nal size 0

[h264 @ 0x5945160] no frame!

[h264 @ 0x5945160] AVC: nal size 0

[h264 @ 0x5945160] no frame!

[h264 @ 0x5945160] AVC: nal size 0

[h264 @ 0x5945160] no frame!

[h264 @ 0x5945160] AVC: nal size 0

[h264 @ 0x5945160] no frame!

[h264 @ 0x5945160] AVC: nal size 0

[h264 @ 0x5945160] no frame!

[h264 @ 0x5945160] AVC: nal size 0

[h264 @ 0x5945160] no frame!

[h264 @ 0x5945160] AVC: nal size 0

[h264 @ 0x5945160] no frame!

[h264 @ 0x5945160] AVC: nal size 0

[h264 @ 0x5945160] no frame!

[h264 @ 0x5945160] AVC: nal size 0

[h264 @ 0x5945160] no frame!

[h264 @ 0x5945160] AVC: nal size 0

[h264 @ 0x5945160] no frame!

[h264 @ 0x5945160] AVC: nal size 0

[h264 @ 0x5945160] no frame!

[h264 @ 0x5945160] AVC: nal size 0

[h264 @ 0x5945160] no frame!

[h264 @ 0x5945160] AVC: nal size 0

[h264 @ 0x5945160] no frame!

[h264 @ 0x5945160] AVC: nal size 0

[h264 @ 0x5945160] no frame!

[h264 @ 0x5945160] AVC: nal size 0

[h264 @ 0x5945160] no frame!

[h264 @ 0x5945160] AVC: nal size 0

[h264 @ 0x5945160] no frame!

[h264 @ 0x5945160] AVC: nal size 0

[h264 @ 0x5945160] no frame!

[h264 @ 0x5945160] AVC: nal size 0

[h264 @ 0x5945160] no frame!

[h264 @ 0x5945160] AVC: nal size 0

[h264 @ 0x5945160] no frame!

[h264 @ 0x5945160] AVC: nal size 0

[h264 @ 0x5945160] no frame!

[h264 @ 0x5945160] AVC: nal size 0

[h264 @ 0x5945160] no frame!

[h264 @ 0x5945160] AVC: nal size 0

[h264 @ 0x5945160] no frame!

[h264 @ 0x5945160] AVC: nal size 0

[h264 @ 0x5945160] no frame!

[h264 @ 0x5945160] AVC: nal size 0

[h264 @ 0x5945160] no frame!

[h264 @ 0x5945160] AVC: nal size 0

[h264 @ 0x5945160] no frame!

[h264 @ 0x5945160] AVC: nal size 0

[h264 @ 0x5945160] no frame!

[h264 @ 0x5945160] AVC: nal size 0

[h264 @ 0x5945160] no frame!

[mov,mp4,m4a,3gp,3g2,mj2 @ 0x593b560] decoding for stream 0 failed

[mov,mp4,m4a,3gp,3g2,mj2 @ 0x593b560] Could not find codec parameters for stream 0 (Video: h264 (avc1 / 0x31637661), none, 1920x1080, 1999 kb/s): unspecified pixel format

Consider increasing the value for the 'analyzeduration' and 'probesize' options

Input #0, mov,mp4,m4a,3gp,3g2,mj2, from 'file:/media/media/Ellie's/Videos/Ellie's Movies/My Little Pony Equestria Girls Rainbow Rocks 2014 1080p BluRay x264 AAC - Ozlem/My Little Pony Equestria Girls Rainbow Rocks 2014 1080p BluRay x264 AAC - Ozlem.mp4':

Metadata:

major_brand : isom

minor_version : 1

compatible_brands: isom

creation_time : 2015-01-09 06:11:36

Duration: 01:13:20.77, start: 0.083417, bitrate: 2096 kb/s

Stream #0:0(und): Video: h264 (avc1 / 0x31637661), none, 1920x1080, 1999 kb/s, 23.98 fps, 23.98 tbr, 24k tbn, 48k tbc (default)

Metadata:

creation_time : 2015-01-08 22:45:52

Stream #0:1(und): Audio: aac (mp4a / 0x6134706D), 48000 Hz, stereo, fltp, max. 138 kb/s (default)

Metadata:

creation_time : 2015-01-09 06:12:10

[buffer @ 0x593b420] Unable to parse option value "-1" as pixel format

Last message repeated 1 times

[buffer @ 0x593b420] Error setting option pix_fmt to value -1.

[graph 0 input from stream 0:0 @ 0x59bdb00] Error applying options to the filter.

Error opening filters!

 

 

Can you try deleting the ffmpeg directory in /var/lib/emby-server/ffmpeg/2017xxxx and restart your server and see if that helps? 

Link to comment
Share on other sites

What he's alluding to is that the server will try to download a newer version. if for some reason the download fails then it will make you go through the startup wizard again and there you'll have an opportunity to configure a newer ffmpeg.

Link to comment
Share on other sites

mwongjay

before you pull any logs, can you please discuss what happened? thanks.

 

I've had a similar, if not same, issue before and in my log I also saw no frame during the processing. When this occurs nothing plays - you only see a black screen until the timeout reverts you to the previous view. Downloading the latest ffmpeg version worked in my case which is why I mentioned it when I saw that his version is 20160215 which seems really old. I'm currently on 20170308 (or 20170318?). I've even recently had issues with the same version of ffmpeg 20170308 and re-installing worked for me so it appears even though it was the same date the binaries were updated. 

Link to comment
Share on other sites

mwongjay

I deleted that directory but that didn't resolve it. I'll pull the logs when I get home. Thanks guys.

 

What version of ffmpeg was installed after you deleted and restarted your server?

Link to comment
Share on other sites

Am I running the most unstable server OS for EMBY. What OS runs it better? This is why I'm not buying premiere. I bought the APP already, might be twice if you can't fix my other Fire TV app. Does windows run EMBY better? 

Link to comment
Share on other sites

mwongjay

I'm sure having a lot of issues lately. This is on a linux box.....I'm not sure on how much more I'm willing to take.

 

I run Emby on Lubuntu - works great. I think everyone's experience can really depend on your own setup. You're on centos so you might be dealing with more issues than others due to selinux. To demonstrate how easy it is once you've added the package source:

 

sudo apt-get update

sudo apt-get install emby-server

 

That's it. Other than that you might have to deal with permissions on your media content and anything extra you want to add like ssl, etc.

 

Am I running the most unstable server OS for EMBY. What OS runs it better? This is why I'm not buying premiere. I bought the APP already, might be twice if you can't fix my other Fire TV app. Does windows run EMBY better? 

 

I've run it multiple platforms without issues: Win10, Lubuntu, MacOS Sierra, and docker. Yeah, I would recommend you get your server up before buying premiere. If you have the opportunity try a different os or ask around for help on the forums - there are a lot of people who are active and are willing to help.

Edited by mwongjay
Link to comment
Share on other sites

I run Emby on Lubuntu - works great. I think everyone's experience can really depend on your own setup. You're on centos so you might be dealing with more issues than others due to selinux. To demonstrate how easy it is once you've added the package source:

 

sudo apt-get update

sudo apt-get install emby-server

 

That's it. Other than that you might have to deal with permissions on your media content and anything extra you want to add like ssl, etc.

 

 

I've run it multiple platforms without issues: Win10, Lubuntu, MacOS Sierra, and docker. Yeah, I would recommend you get your server up before buying premiere. If you have the opportunity try a different os or ask around for help on the forums - there are a lot of people who are active and are willing to help.

Thanks, man. I'll look into migrating over to Lubuntu.

Link to comment
Share on other sites

In the not too distant future we'll have all-new packages for all the distros and then you'll never have to mess with setting up ffmpeg again. Thanks guys.

Link to comment
Share on other sites

mwongjay

So, I just wait lol..... I wish you would focus on stability rather than new crap.

 

 

You might want to try installing Emby on Windows instead of using linux if it's giving you problems. That might get you up and running faster. You just unzip and run the exe. I think that's probably the easiest and requires hardly any technical knowledge.

Link to comment
Share on other sites

Techical knowledge aye? So all of these issues are because I don't know what I'm doing? Windows? Seriously.. Don't be a troll. Windows gtfo

Link to comment
Share on other sites

So, I just wait lol..... I wish you would focus on stability rather than new crap.

 

That is actually what we are doing. Not only is what we are working on more stable, but you'll never have to mess with configuring ffmpeg anymore which is exactly the issue in this topic here.

 

I realize you are perceiving this issue here as some kind of emby problem, but we are just unable to launch your ffmpeg build. and there are obviously other centos users here not having any problems. so now if we just take that whole ffmpeg configuration out of the picture, now the problem goes away and that's exactly what we're working on.

Link to comment
Share on other sites

mwongjay

Techical knowledge aye? So all of these issues are because I don't know what I'm doing? Windows? Seriously.. Don't be a troll. Windows gtfo

 

I'm sure having a lot of issues lately. This is on a linux box.....I'm not sure on how much more I'm willing to take.

 

You mentioned you are frustrated with issues on your linux box and you aren't sure how much more you could take. I was suggesting trying Windows to get up and running quickly so you can use it until you figure out what the linux issues are. You can always switch later when you figure it out.

Link to comment
Share on other sites

Thanks. I just don't see how I have more issues than other centos users. Maybe I use mine more? Maybe my family uses it as a primary entertainment source? I don't know. But I do know one thing, its not me. I have a datacenter full of linux and other servers with other OS. If you're telling me what others are, that Windows runs it better, just say it. I'm not going to waste resources with Windows just to run a media server. That's what linux is for. Now, if you're telling me centos runs it worse than other linux servers, I could handle that switch.

Edited by Akilian
Link to comment
Share on other sites

Create an account or sign in to comment

You need to be a member in order to leave a comment

Create an account

Sign up for a new account in our community. It's easy!

Register a new account

Sign in

Already have an account? Sign in here.

Sign In Now
 Share

×
×
  • Create New...