Jump to content

What is the best way to use Emby with rPi ?


itdaboyz

Recommended Posts

Hello,

 

Here is my config at the moment :

- Emby Server is on Asustor AS302T NAS.

- Kodi with Emby for Kodi is on Rasberry Pi 2.

 

It's usually working and sometimes sync drop and I have to reboot NAS, rPi and do a total resync on Kodi. Not the best so...

And it's really slow when I try to access Emby via my phone.

 

I'm thinking about dropping Emby server on my NAS and put everything on rPi to have something more stable.

 

What do you think would be the best ?

1) Rasbian with Emby server and Kodi with Emby for Kodi

2) Rasbian with docker, Emby server for Docker and Kodi with Emby for Kodi

3) Rasbian with Emby server and Emby Theater

4) Rasbian with docker, Emby server for Docker and Emby Theater

5) Keep the NAS for the server

 

Thank you!

Link to post
Share on other sites

Ok so I tried this.
 
Emby server is installed correctly (I had a lot of crash because of Anime plugin but now it seems ok) with this media paths :

Animes
/mnt/media/Animes

Films
/mnt/media/Films

Musique
/mnt/music

Séries
/mnt/media/Séries

/mnt/media and /mnt/music are NFS mount of my NAS. I granted the right to access it and I can browse the folders on my pi without any problem.
I'm not sure if I need path substitution. I tryed nfs://192.168.1.20/volume1/mnt/media/Séries for example and end up with the same result : can't get direct play.
 
I have these errors in log :

2017-02-22 15:10:47.5024 Info App: Bitrate exceeds DirectPlay limit: media bitrate: 16044640, max bitrate: 1649485
2017-02-22 15:10:47.5024 Info App: Profile: Unknown Profile, Path: /mnt/media/Films/Bad Moms (2016)/Bad Moms (2016) [Bluray-1080p].mkv, isEligibleForDirectPlay: True, isEligibleForDirectStream: False

If it's any help, transcode.log :

http://192.168.1.3:8096/emby/videos/35424c853d0aceceeeb8d9b1f933b95d/stream.mkv?DeviceId=raspberrypi&MediaSourceId=35424c853d0aceceeeb8d9b1f933b95d&VideoCodec=h264&AudioCodec=mp3,ac3,aac&AudioStreamIndex=1&SubtitleStreamIndex=3&VideoBitrate=1201485&AudioBitrate=448000&PlaySessionId=889b871bfac3412a827293a9f9d25486&api_key=07ec4f6f8b75410aae3259d6d60351cc&CopyTimestamps=false&SubtitleMethod=Embed&TranscodingMaxAudioChannels=6&EnableSubtitlesInManifest=false&Tag=28076ae7292ba3b2315eeffb2cdcfb81&RequireAvc=false&SubtitleCodec=subrip

{"Protocol":"File","Id":"35424c853d0aceceeeb8d9b1f933b95d","Path":"/mnt/media/Films/Bad Moms (2016)/Bad Moms (2016) [Bluray-1080p].mkv","Type":"Default","Container":"mkv","Name":"1080P/H264/AC3","IsRemote":false,"ETag":"28076ae7292ba3b2315eeffb2cdcfb81","RunTimeTicks":60570238976,"ReadAtNativeFramerate":false,"SupportsTranscoding":true,"SupportsDirectStream":true,"SupportsDirectPlay":true,"IsInfiniteStream":false,"RequiresOpening":false,"RequiresClosing":false,"SupportsProbing":true,"VideoType":"VideoFile","MediaStreams":[{"Codec":"h264","Language":"eng","TimeBase":"1/1000","CodecTimeBase":"1001/48000","Title":"Bad.Moms.2016.MULTi.1080p.BluRay.DTS.HD-MA.x264.AC3-KiKi","DisplayTitle":"Eng Bad.Moms.2016.MULTi.1080p.BluRay.DTS.HD-MA.x264.AC3-KiKi","NalLengthSize":"4","IsInterlaced":false,"IsAVC":true,"BitRate":15596640,"BitDepth":8,"RefFrames":1,"IsDefault":true,"IsForced":false,"Height":800,"Width":1920,"AverageFrameRate":23.97602,"RealFrameRate":23.97602,"Profile":"High","Type":"Video","AspectRatio":"2.40:1","Index":0,"IsExternal":false,"IsTextSubtitleStream":false,"SupportsExternalStream":false,"PixelFormat":"yuv420p","Level":41,"IsAnamorphic":false},{"Codec":"ac3","Language":"fre","TimeBase":"1/1000","CodecTimeBase":"1/48000","Title":"VFQ AC3 5.1 @ 448 Kbps","DisplayTitle":"Fre VFQ AC3 5.1 @ 448 Kbps","IsInterlaced":false,"ChannelLayout":"5.1","BitRate":448000,"Channels":6,"SampleRate":48000,"IsDefault":true,"IsForced":false,"Type":"Audio","Index":1,"IsExternal":false,"IsTextSubtitleStream":false,"SupportsExternalStream":false,"Level":0,"IsAnamorphic":false},{"Codec":"dts","Language":"eng","TimeBase":"1/1000","CodecTimeBase":"1/48000","Title":"VO DTS HD MA 7.1 @ 4137Kbps","DisplayTitle":"Eng VO DTS HD MA 7.1 @ 4137Kbps","IsInterlaced":false,"ChannelLayout":"7.1","BitDepth":24,"Channels":8,"SampleRate":48000,"IsDefault":false,"IsForced":false,"Profile":"DTS-HD MA","Type":"Audio","Index":2,"IsExternal":false,"IsTextSubtitleStream":false,"SupportsExternalStream":false,"Level":0,"IsAnamorphic":false},{"Codec":"subrip","Language":"fre","TimeBase":"1/1000","CodecTimeBase":"0/1","Title":"SRT Forcés (Homemade)","DisplayTitle":"Fre SRT Forcés (Homemade)","IsInterlaced":false,"IsDefault":true,"IsForced":false,"Type":"Subtitle","Index":3,"IsExternal":false,"IsTextSubtitleStream":true,"SupportsExternalStream":true,"Level":0,"IsAnamorphic":false},{"Codec":"subrip","Language":"fre","TimeBase":"1/1000","CodecTimeBase":"0/1","Title":"SRT Complets","DisplayTitle":"Fre SRT Complets","IsInterlaced":false,"IsDefault":false,"IsForced":false,"Type":"Subtitle","Index":4,"IsExternal":false,"IsTextSubtitleStream":true,"SupportsExternalStream":true,"Level":0,"IsAnamorphic":false},{"Codec":"PGSSUB","Language":"fre","TimeBase":"1/1000","CodecTimeBase":"0/1","Title":"PGS Complets","DisplayTitle":"Fre PGS Complets","IsInterlaced":false,"IsDefault":false,"IsForced":false,"Type":"Subtitle","Index":5,"IsExternal":false,"IsTextSubtitleStream":false,"SupportsExternalStream":false,"Level":0,"IsAnamorphic":false}],"PlayableStreamFileNames":[],"Formats":[],"Bitrate":16044640,"RequiredHttpHeaders":{}}

ffmpeg -i file:"/mnt/media/Films/Bad Moms (2016)/Bad Moms (2016) [Bluray-1080p].mkv" -map 0:0 -map 0:1 -map 0:3 -codec:v:0 libx264 -force_key_frames "expr:gte(t,n_forced*5)" -vf "scale=trunc(min(max(iw\,ih*dar)\,1280)/2)*2:trunc(ow/dar/2)*2" -pix_fmt yuv420p -preset superfast -crf 23 -maxrate 1201485 -bufsize 2402970 -vsync -1 -x264opts:0 subme=0:rc_lookahead=10:me_range=4:me=dia:no_chroma_me:8x8dct=0:partitions=none -map_metadata -1 -map_chapters -1 -threads 0 -codec:a:0 copy -codec:s:0 copy -y "/var/lib/emby-server/transcoding-temp/79fc181d912682aadb5e42275c63ba74.mkv"


ffmpeg version git-2017-02-19-aa2b752 Copyright (c) 2000-2017 the FFmpeg developers
  built with gcc 4.9.2 (Raspbian 4.9.2-10)
  configuration: --arch=armhf --target-os=linux --enable-gpl --enable-libx264 --enable-nonfree
  libavutil      55. 47.100 / 55. 47.100
  libavcodec     57. 80.101 / 57. 80.101
  libavformat    57. 66.102 / 57. 66.102
  libavdevice    57.  2.100 / 57.  2.100
  libavfilter     6. 73.100 /  6. 73.100
  libswscale      4.  3.101 /  4.  3.101
  libswresample   2.  4.100 /  2.  4.100
  libpostproc    54.  2.100 / 54.  2.100
[matroska,webm @ 0x27f6400] Could not find codec parameters for stream 5 (Subtitle: hdmv_pgs_subtitle): unspecified size
Consider increasing the value for the 'analyzeduration' and 'probesize' options
Input #0, matroska,webm, from 'file:/mnt/media/Films/Bad Moms (2016)/Bad Moms (2016) [Bluray-1080p].mkv':
  Metadata:
    title           : Bad.Moms.2016.MULTi.1080p.BluRay.DTS.HD-MA.x264.AC3-KiKi
    encoder         : libebml v1.3.4 + libmatroska v1.4.5
    creation_time   : 2016-11-05T06:21:57.000000Z
  Duration: 01:40:57.02, start: 0.000000, bitrate: 15596 kb/s
    Chapter #0:0: start 0.000000, end 298.548000
    Metadata:
      title           : 00:00:00.000
    Chapter #0:1: start 298.548000, end 557.056000
    Metadata:
      title           : 00:04:58.548
    Chapter #0:2: start 557.056000, end 964.839000
    Metadata:
      title           : 00:09:17.056
    Chapter #0:3: start 964.839000, end 1305.221000
    Metadata:
      title           : 00:16:04.839
    Chapter #0:4: start 1305.221000, end 1606.271000
    Metadata:
      title           : 00:21:45.221
    Chapter #0:5: start 1606.271000, end 1776.149000
    Metadata:
      title           : 00:26:46.271
    Chapter #0:6: start 1776.149000, end 2135.508000
    Metadata:
      title           : 00:29:36.149
    Chapter #0:7: start 2135.508000, end 2360.900000
    Metadata:
      title           : 00:35:35.508
    Chapter #0:8: start 2360.900000, end 2681.012000
    Metadata:
      title           : 00:39:20.900
    Chapter #0:9: start 2681.012000, end 2913.202000
    Metadata:
      title           : 00:44:41.012
    Chapter #0:10: start 2913.202000, end 3223.178000
    Metadata:
      title           : 00:48:33.202
    Chapter #0:11: start 3223.178000, end 3548.503000
    Metadata:
      title           : 00:53:43.178
    Chapter #0:12: start 3548.503000, end 3864.110000
    Metadata:
      title           : 00:59:08.503
    Chapter #0:13: start 3864.110000, end 4135.882000
    Metadata:
      title           : 01:04:24.110
    Chapter #0:14: start 4135.882000, end 4443.856000
    Metadata:
      title           : 01:08:55.882
    Chapter #0:15: start 4443.856000, end 4737.358000
    Metadata:
      title           : 01:14:03.856
    Chapter #0:16: start 4737.358000, end 5028.982000
    Metadata:
      title           : 01:18:57.358
    Chapter #0:17: start 5028.982000, end 5218.713000
    Metadata:
      title           : 01:23:48.982
    Chapter #0:18: start 5218.713000, end 5579.073000
    Metadata:
      title           : 01:26:58.713
    Chapter #0:19: start 5579.073000, end 6057.024000
    Metadata:
      title           : 01:32:59.073
    Stream #0:0(eng): Video: h264 (High), yuv420p(progressive), 1920x800, SAR 1:1 DAR 12:5, 23.98 fps, 23.98 tbr, 1k tbn, 47.95 tbc (default)
    Metadata:
      title           : Bad.Moms.2016.MULTi.1080p.BluRay.DTS.HD-MA.x264.AC3-KiKi
      BPS             : 10993246
      BPS-eng         : 10993246
      DURATION        : 01:40:57.010000000
      DURATION-eng    : 01:40:57.010000000
      NUMBER_OF_FRAMES: 145223
      NUMBER_OF_FRAMES-eng: 145223
      NUMBER_OF_BYTES : 8323275231
      NUMBER_OF_BYTES-eng: 8323275231
      _STATISTICS_WRITING_APP: mkvmerge v9.4.2 ('So High') 64bit
      _STATISTICS_WRITING_APP-eng: mkvmerge v9.4.2 ('So High') 64bit
      _STATISTICS_WRITING_DATE_UTC: 2016-11-05 06:21:57
      _STATISTICS_WRITING_DATE_UTC-eng: 2016-11-05 06:21:57
      _STATISTICS_TAGS: BPS DURATION NUMBER_OF_FRAMES NUMBER_OF_BYTES
      _STATISTICS_TAGS-eng: BPS DURATION NUMBER_OF_FRAMES NUMBER_OF_BYTES
    Stream #0:1(fre): Audio: ac3, 48000 Hz, 5.1(side), fltp, 448 kb/s (default)
    Metadata:
      title           : VFQ AC3 5.1 @ 448 Kbps
      BPS             : 448000
      BPS-eng         : 448000
      DURATION        : 01:40:57.024000000
      DURATION-eng    : 01:40:57.024000000
      NUMBER_OF_FRAMES: 189282
      NUMBER_OF_FRAMES-eng: 189282
      NUMBER_OF_BYTES : 339193344
      NUMBER_OF_BYTES-eng: 339193344
      _STATISTICS_WRITING_APP: mkvmerge v9.4.2 ('So High') 64bit
      _STATISTICS_WRITING_APP-eng: mkvmerge v9.4.2 ('So High') 64bit
      _STATISTICS_WRITING_DATE_UTC: 2016-11-05 06:21:57
      _STATISTICS_WRITING_DATE_UTC-eng: 2016-11-05 06:21:57
      _STATISTICS_TAGS: BPS DURATION NUMBER_OF_FRAMES NUMBER_OF_BYTES
      _STATISTICS_TAGS-eng: BPS DURATION NUMBER_OF_FRAMES NUMBER_OF_BYTES
    Stream #0:2(eng): Audio: dts (DTS-HD MA), 48000 Hz, 7.1, s32p (24 bit)
    Metadata:
      title           : VO DTS HD MA 7.1 @ 4137Kbps
      BPS             : 4137053
      BPS-eng         : 4137053
      DURATION        : 01:40:57.014000000
      DURATION-eng    : 01:40:57.014000000
      NUMBER_OF_FRAMES: 567845
      NUMBER_OF_FRAMES-eng: 567845
      NUMBER_OF_BYTES : 3132273632
      NUMBER_OF_BYTES-eng: 3132273632
      _STATISTICS_WRITING_APP: mkvmerge v9.4.2 ('So High') 64bit
      _STATISTICS_WRITING_APP-eng: mkvmerge v9.4.2 ('So High') 64bit
      _STATISTICS_WRITING_DATE_UTC: 2016-11-05 06:21:57
      _STATISTICS_WRITING_DATE_UTC-eng: 2016-11-05 06:21:57
      _STATISTICS_TAGS: BPS DURATION NUMBER_OF_FRAMES NUMBER_OF_BYTES
      _STATISTICS_TAGS-eng: BPS DURATION NUMBER_OF_FRAMES NUMBER_OF_BYTES
    Stream #0:3(fre): Subtitle: subrip (default)
    Metadata:
      title           : SRT Forcés (Homemade)
      BPS             : 0
      BPS-eng         : 0
      DURATION        : 01:10:53.666000000
      DURATION-eng    : 01:10:53.666000000
      NUMBER_OF_FRAMES: 13
      NUMBER_OF_FRAMES-eng: 13
      NUMBER_OF_BYTES : 461
      NUMBER_OF_BYTES-eng: 461
      _STATISTICS_WRITING_APP: mkvmerge v9.4.2 ('So High') 64bit
      _STATISTICS_WRITING_APP-eng: mkvmerge v9.4.2 ('So High') 64bit
      _STATISTICS_WRITING_DATE_UTC: 2016-11-05 06:21:57
      _STATISTICS_WRITING_DATE_UTC-eng: 2016-11-05 06:21:57
      _STATISTICS_TAGS: BPS DURATION NUMBER_OF_FRAMES NUMBER_OF_BYTES
      _STATISTICS_TAGS-eng: BPS DURATION NUMBER_OF_FRAMES NUMBER_OF_BYTES
    Stream #0:4(fre): Subtitle: subrip
    Metadata:
      title           : SRT Complets
      BPS             : 82
      BPS-eng         : 82
      DURATION        : 01:39:50.526000000
      DURATION-eng    : 01:39:50.526000000
      NUMBER_OF_FRAMES: 1786
      NUMBER_OF_FRAMES-eng: 1786
      NUMBER_OF_BYTES : 61459
      NUMBER_OF_BYTES-eng: 61459
      _STATISTICS_WRITING_APP: mkvmerge v9.4.2 ('So High') 64bit
      _STATISTICS_WRITING_APP-eng: mkvmerge v9.4.2 ('So High') 64bit
      _STATISTICS_WRITING_DATE_UTC: 2016-11-05 06:21:57
      _STATISTICS_WRITING_DATE_UTC-eng: 2016-11-05 06:21:57
      _STATISTICS_TAGS: BPS DURATION NUMBER_OF_FRAMES NUMBER_OF_BYTES
      _STATISTICS_TAGS-eng: BPS DURATION NUMBER_OF_FRAMES NUMBER_OF_BYTES
    Stream #0:5(fre): Subtitle: hdmv_pgs_subtitle
    Metadata:
      title           : PGS Complets
      BPS             : 14469
      BPS-eng         : 14469
      DURATION        : 01:39:50.526000000
      DURATION-eng    : 01:39:50.526000000
      NUMBER_OF_FRAMES: 3573
      NUMBER_OF_FRAMES-eng: 3573
      NUMBER_OF_BYTES : 10834725
      NUMBER_OF_BYTES-eng: 10834725
      _STATISTICS_WRITING_APP: mkvmerge v9.4.2 ('So High') 64bit
      _STATISTICS_WRITING_APP-eng: mkvmerge v9.4.2 ('So High') 64bit
      _STATISTICS_WRITING_DATE_UTC: 2016-11-05 06:21:57
      _STATISTICS_WRITING_DATE_UTC-eng: 2016-11-05 06:21:57
      _STATISTICS_TAGS: BPS DURATION NUMBER_OF_FRAMES NUMBER_OF_BYTES
      _STATISTICS_TAGS-eng: BPS DURATION NUMBER_OF_FRAMES NUMBER_OF_BYTES
[libx264 @ 0x2ec8750] using SAR=399/400
[libx264 @ 0x2ec8750] using cpu capabilities: ARMv6 NEON
[libx264 @ 0x2ec8750] profile Main, level 3.1
[libx264 @ 0x2ec8750] 264 - core 148 - H.264/MPEG-4 AVC codec - Copyleft 2003-2017 - http://www.videolan.org/x264.html - options: cabac=1 ref=1 deblock=1:0:0 analyse=0x1:0 me=dia subme=0 psy=1 psy_rd=1.00:0.00 mixed_ref=0 me_range=4 chroma_me=0 trellis=0 8x8dct=0 cqm=0 deadzone=21,11 fast_pskip=1 chroma_qp_offset=0 threads=6 lookahead_threads=1 sliced_threads=0 nr=0 decimate=1 interlaced=0 bluray_compat=0 constrained_intra=0 bframes=3 b_pyramid=2 b_adapt=1 b_bias=0 direct=1 weightb=1 open_gop=0 weightp=1 keyint=250 keyint_min=23 scenecut=40 intra_refresh=0 rc_lookahead=10 rc=crf mbtree=0 crf=23.0 qcomp=0.60 qpmin=0 qpmax=69 qpstep=4 vbv_maxrate=1201 vbv_bufsize=2402 crf_max=0.0 nal_hrd=none filler=0 ip_ratio=1.40 pb_ratio=1.30 aq=1:1.00
Output #0, matroska, to '/var/lib/emby-server/transcoding-temp/79fc181d912682aadb5e42275c63ba74.mkv':
  Metadata:
    encoder         : Lavf57.66.102
    Stream #0:0: Video: h264 (libx264) (H264 / 0x34363248), yuv420p, 1280x532 [SAR 399:400 DAR 12:5], q=-1--1, 23.98 fps, 1k tbn, 23.98 tbc (default)
    Metadata:
      encoder         : Lavc57.80.101 libx264
    Side data:
      cpb: bitrate max/min/avg: 1201000/0/0 buffer size: 2402000 vbv_delay: -1
    Stream #0:1: Audio: ac3 ([0] [0][0] / 0x2000), 48000 Hz, 5.1(side), fltp, 448 kb/s (default)
    Stream #0:2: Subtitle: subrip (default)
Stream mapping:
  Stream #0:0 -> #0:0 (h264 (native) -> h264 (libx264))
  Stream #0:1 -> #0:1 (copy)
  Stream #0:3 -> #0:2 (copy)
Press [q] to stop, [?] for help
frame=    3 fps=0.0 q=0.0 size=       0kB time=00:00:00.48 bitrate=   0.0kbits/s speed=0.841x    
frame=    5 fps=4.5 q=0.0 size=       0kB time=00:00:00.48 bitrate=   0.0kbits/s speed=0.436x    
frame=    9 fps=5.6 q=0.0 size=       0kB time=00:00:00.99 bitrate=   0.0kbits/s speed=0.614x    
frame=   12 fps=5.6 q=0.0 size=       0kB time=00:00:00.99 bitrate=   0.0kbits/s speed=0.459x    
frame=   15 fps=5.6 q=0.0 size=       0kB time=00:00:00.99 bitrate=   0.0kbits/s speed=0.37x    
frame=   18 fps=5.6 q=0.0 size=       0kB time=00:00:01.24 bitrate=   0.0kbits/s speed=0.388x    
frame=   21 fps=5.6 q=17.0 size=       0kB time=00:00:01.24 bitrate=   0.0kbits/s speed=0.334x    
frame=   24 fps=5.6 q=20.0 size=       0kB time=00:00:01.24 bitrate=   0.0kbits/s speed=0.292x    
frame=   28 fps=5.7 q=19.0 size=       0kB time=00:00:01.76 bitrate=   0.0kbits/s speed=0.357x    
frame=   31 fps=5.7 q=19.0 size=       0kB time=00:00:01.76 bitrate=   0.0kbits/s speed=0.322x    
frame=   35 fps=5.7 q=19.0 size=       0kB time=00:00:01.76 bitrate=   0.0kbits/s speed=0.287x    
frame=   38 fps=5.7 q=18.0 size=       0kB time=00:00:02.01 bitrate=   0.0kbits/s speed=0.303x    
frame=   42 fps=5.8 q=18.0 size=       0kB time=00:00:02.01 bitrate=   0.0kbits/s speed=0.277x    
frame=   44 fps=5.7 q=19.0 size=       0kB time=00:00:02.04 bitrate=   0.0kbits/s speed=0.263x    
frame=   49 fps=5.8 q=17.0 size=       0kB time=00:00:02.27 bitrate=   0.0kbits/s speed=0.27x    
frame=   53 fps=5.9 q=17.0 size=       0kB time=00:00:02.52 bitrate=   0.0kbits/s speed=0.279x    
frame=   56 fps=5.8 q=19.0 size=       0kB time=00:00:02.78 bitrate=   0.0kbits/s speed=0.29x    
frame=   59 fps=5.8 q=19.0 size=       0kB time=00:00:02.78 bitrate=   0.0kbits/s speed=0.276x    
frame=   61 fps=5.7 q=17.0 size=       0kB time=00:00:02.81 bitrate=   0.0kbits/s speed=0.265x    
frame=   64 fps=5.7 q=19.0 size=       0kB time=00:00:03.04 bitrate=   0.0kbits/s speed=0.273x    
frame=   68 fps=5.8 q=19.0 size=       0kB time=00:00:03.04 bitrate=   0.0kbits/s speed=0.261x    
frame=   71 fps=5.7 q=20.0 size=       0kB time=00:00:03.29 bitrate=   0.0kbits/s speed=0.266x    
frame=   73 fps=5.6 q=20.0 size=       0kB time=00:00:03.55 bitrate=   0.0kbits/s speed=0.273x    
frame=   77 fps=5.6 q=21.0 size=       0kB time=00:00:03.55 bitrate=   0.0kbits/s speed=0.26x    
frame=   80 fps=5.6 q=23.0 size=       0kB time=00:00:03.55 bitrate=   0.0kbits/s speed=0.251x    
frame=   83 fps=5.6 q=23.0 size=       0kB time=00:00:03.80 bitrate=   0.0kbits/s speed=0.258x    
frame=   86 fps=5.6 q=23.0 size=       0kB time=00:00:03.80 bitrate=   0.0kbits/s speed=0.25x    
frame=   89 fps=5.6 q=22.0 size=       0kB time=00:00:04.06 bitrate=   0.0kbits/s speed=0.257x    
frame=   92 fps=5.6 q=24.0 size=       0kB time=00:00:04.06 bitrate=   0.0kbits/s speed=0.249x    
frame=   94 fps=5.6 q=23.0 size=       0kB time=00:00:04.32 bitrate=   0.0kbits/s speed=0.256x    
frame=   98 fps=5.6 q=24.0 size=       0kB time=00:00:04.32 bitrate=   0.0kbits/s speed=0.248x    
frame=  101 fps=5.6 q=23.0 size=       0kB time=00:00:04.57 bitrate=   0.0kbits/s speed=0.254x    
frame=  103 fps=5.6 q=25.0 size=       0kB time=00:00:04.57 bitrate=   0.0kbits/s speed=0.247x    
frame=  107 fps=5.6 q=26.0 size=       0kB time=00:00:04.83 bitrate=   0.0kbits/s speed=0.252x    
frame=  111 fps=5.6 q=28.0 size=       0kB time=00:00:04.96 bitrate=   0.0kbits/s speed=0.252x    
frame=  114 fps=5.6 q=29.0 size=       0kB time=00:00:04.96 bitrate=   0.0kbits/s speed=0.245x    
frame=  117 fps=5.6 q=27.0 size=       0kB time=00:00:05.21 bitrate=   0.0kbits/s speed=0.252x    
frame=  119 fps=5.6 q=29.0 size=       0kB time=00:00:05.24 bitrate=   0.0kbits/s speed=0.247x    
frame=  123 fps=5.7 q=26.0 size=       0kB time=00:00:05.47 bitrate=   0.0kbits/s speed=0.252x    
frame=  126 fps=5.7 q=29.0 size=       0kB time=00:00:05.47 bitrate=   0.0kbits/s speed=0.246x    
frame=  129 fps=5.7 q=28.0 size=       0kB time=00:00:05.72 bitrate=   0.0kbits/s speed=0.251x    
frame=  132 fps=5.6 q=29.0 size=       0kB time=00:00:05.72 bitrate=   0.0kbits/s speed=0.245x    
frame=  135 fps=5.6 q=30.0 size=       0kB time=00:00:05.82 bitrate=   0.0kbits/s speed=0.244x    
frame=  138 fps=5.7 q=32.0 size=       0kB time=00:00:06.08 bitrate=   0.0kbits/s speed=0.249x    
frame=  140 fps=5.6 q=32.0 size=       0kB time=00:00:06.33 bitrate=   0.0kbits/s speed=0.254x    
frame=  143 fps=5.6 q=27.0 size=       0kB time=00:00:06.33 bitrate=   0.0kbits/s speed=0.249x    
frame=  146 fps=5.6 q=27.0 size=       0kB time=00:00:06.59 bitrate=   0.0kbits/s speed=0.254x    
frame=  149 fps=5.6 q=29.0 size=       0kB time=00:00:06.59 bitrate=   0.0kbits/s speed=0.248x    
frame=  152 fps=5.6 q=29.0 size=       0kB time=00:00:06.59 bitrate=   0.0kbits/s speed=0.244x    
frame=  155 fps=5.6 q=29.0 size=       0kB time=00:00:06.75 bitrate=   0.0kbits/s speed=0.245x    
frame=  157 fps=5.6 q=30.0 size=       0kB time=00:00:06.78 bitrate=   0.0kbits/s speed=0.241x    
frame=  161 fps=5.6 q=31.0 size=       0kB time=00:00:07.00 bitrate=   0.0kbits/s speed=0.244x    
frame=  163 fps=5.6 q=31.0 size=       0kB time=00:00:07.04 bitrate=   0.0kbits/s speed=0.24x    
frame=  167 fps=5.6 q=31.0 size=       0kB time=00:00:07.26 bitrate=   0.0kbits/s speed=0.242x    
frame=  170 fps=5.6 q=28.0 size=       0kB time=00:00:07.52 bitrate=   0.0kbits/s speed=0.246x    
frame=  173 fps=5.6 q=30.0 size=       0kB time=00:00:07.52 bitrate=   0.0kbits/s speed=0.242x    
frame=  176 fps=5.6 q=29.0 size=       0kB time=00:00:07.61 bitrate=   0.0kbits/s speed=0.241x    
frame=  178 fps=5.5 q=31.0 size=       0kB time=00:00:07.64 bitrate=   0.0kbits/s speed=0.237x    
frame=  182 fps=5.5 q=31.0 size=       0kB time=00:00:07.87 bitrate=   0.0kbits/s speed=0.24x    
frame=  185 fps=5.5 q=30.0 size=       0kB time=00:00:08.12 bitrate=   0.0kbits/s speed=0.244x    
frame=  185 fps=5.2 q=-1.0 Lsize=    1374kB time=00:00:08.12 bitrate=1385.3kbits/s speed=0.229x    
video:924kB audio:446kB subtitle:0kB other streams:0kB global headers:0kB muxing overhead: 0.296803%
[libx264 @ 0x2ec8750] frame I:3     Avg QP: 9.17  size: 12521
[libx264 @ 0x2ec8750] frame P:58    Avg QP:17.82  size:  9492
[libx264 @ 0x2ec8750] frame B:124   Avg QP:18.52  size:  2883
[libx264 @ 0x2ec8750] consecutive B-frames:  3.8% 18.4%  6.5% 71.4%
[libx264 @ 0x2ec8750] mb I  I16..4: 84.7%  0.0% 15.3%
[libx264 @ 0x2ec8750] mb P  I16..4: 21.7%  0.0%  0.0%  P16..4: 28.3%  0.0%  0.0%  0.0%  0.0%    skip:50.0%
[libx264 @ 0x2ec8750] mb B  I16..4:  3.0%  0.0%  0.0%  B16..8: 19.0%  0.0%  0.0%  direct: 5.7%  skip:72.3%  L0:34.5% L1:42.9% BI:22.6%
[libx264 @ 0x2ec8750] coded y,uvDC,uvAC intra: 49.6% 45.1% 17.6% inter: 6.1% 10.5% 0.2%
[libx264 @ 0x2ec8750] i16 v,h,dc,p: 35% 34% 18% 12%
[libx264 @ 0x2ec8750] i4 v,h,dc,ddl,ddr,vr,hd,vl,hu: 16% 45% 14%  2%  5%  1%  8%  1%  8%
[libx264 @ 0x2ec8750] i8c dc,h,v,p: 47% 33% 11% 10%
[libx264 @ 0x2ec8750] Weighted P-Frames: Y:3.4% UV:0.0%
[libx264 @ 0x2ec8750] kb/s:980.38

Thank you for your help!

Link to post
Share on other sites

Hi, those are not errors. To increase likelihood of direct play, ensure that the media is shared over your network and that in Emby library setup you've filled out the optional network path for each library folder. let us know if this helps. thanks.

Link to post
Share on other sites

Ok, I did that with optionnal path link like this :

 

/mnt/media/Films= \\NAS\media\Films

Now some files are playing but not all.

For exemple, the ones with AC3 or DTS audio won't direct play, like this one : http://paste.awesom.eu/SNxg or this one http://paste.awesom.eu/WQ9y

 

I tried Emby Theater on my windows computer and it works for all files.

 

Is there something I need to do to have these files in direct play on the pi ?

 

Side question :

Is it possible to define multiple optional path ? I would like to access my files from outside my network so \\NAS\media\Films won't work but MYIP/media/Films could. But in my network I want to stay on lan.

Edited by itdaboyz
Link to post
Share on other sites

Create an account or sign in to comment

You need to be a member in order to leave a comment

Create an account

Sign up for a new account in our community. It's easy!

Register a new account

Sign in

Already have an account? Sign in here.

Sign In Now
×
×
  • Create New...