Jump to content
strohj

ANSWERED MB3 client crashes after using vlc as external player

Recommended Posts

strohj

HI,

 

I am using MB Classic version 3.0.100.0 B12-4.1 with the default theme

VLC version 2.1.2 32bit

MB server version 3.0.5083.27698

 

when i play a movie in vlc everything works fine until the movie is over at which time vlc closes, but i am left on my desktop, when i cilck on the media center icon in my task bar, I get the message saying that mediabrowser encountered a error and must close.

 

the .NET error listed in event viewer is : 

 

.NET Runtime version 4.0.30319.34003 - There was a failure initializing profiling API attach infrastructure.  This process will not allow a profiler to attach.  HRESULT: 0x80004005.  Process ID (decimal): 2936.  Message ID: [0x2509].

 

 

I had the following in the media browser logs folder, but the file was dated from yesterday when i was testing to see if it played:;

 

ffmpeg version N-58015-g8cdf4e0 Copyright © 2000-2013 the FFmpeg developers

  built on Nov 10 2013 18:01:44 with gcc 4.8.2 (GCC)
  configuration: --enable-gpl --enable-version3 --disable-w32threads --enable-avisynth --enable-bzlib --enable-fontconfig --enable-frei0r --enable-gnutls --enable-iconv --enable-libass --enable-libbluray --enable-libcaca --enable-libfreetype --enable-libgsm --enable-libilbc --enable-libmodplug --enable-libmp3lame --enable-libopencore-amrnb --enable-libopencore-amrwb --enable-libopenjpeg --enable-libopus --enable-librtmp --enable-libschroedinger --enable-libsoxr --enable-libspeex --enable-libtheora --enable-libtwolame --enable-libvidstab --enable-libvo-aacenc --enable-libvo-amrwbenc --enable-libvorbis --enable-libvpx --enable-libwavpack --enable-libx264 --enable-libxavs --enable-libxvid --enable-zlib
  libavutil      52. 52.100 / 52. 52.100
  libavcodec     55. 41.100 / 55. 41.100
  libavformat    55. 21.100 / 55. 21.100
  libavdevice    55.  5.100 / 55.  5.100
  libavfilter     3. 90.102 /  3. 90.102
  libswscale      2.  5.101 /  2.  5.101
  libswresample   0. 17.104 /  0. 17.104
  libpostproc    52.  3.100 / 52.  3.100
Input #0, matroska,webm, from 'file:\\RT-AC66U\My_Book\Movies\Family, The (2013) [PublicHD]\The Family (2013).mkv':
  Duration: 01:51:33.57, start: 0.000000, bitrate: 9799 kb/s
    Chapter #0.0: start 0.000000, end 386.720000
    Metadata:
      title           : 00:00:00.000
    Chapter #0.1: start 386.720000, end 597.430000
    Metadata:
      title           : 00:06:26.720
    Chapter #0.2: start 597.430000, end 803.636000
    Metadata:
      title           : 00:09:57.430
    Chapter #0.3: start 803.636000, end 1030.947000
    Metadata:
      title           : 00:13:23.636
    Chapter #0.4: start 1030.947000, end 1328.494000
    Metadata:
      title           : 00:17:10.947
    Chapter #0.5: start 1328.494000, end 1666.081000
    Metadata:
      title           : 00:22:08.494
    Chapter #0.6: start 1666.081000, end 1906.822000
    Metadata:
      title           : 00:27:46.081
    Chapter #0.7: start 1906.822000, end 2216.256000
    Metadata:
      title           : 00:31:46.822
    Chapter #0.8: start 2216.256000, end 2572.737000
    Metadata:
      title           : 00:36:56.256
    Chapter #0.9: start 2572.737000, end 2710.207000
    Metadata:
      title           : 00:42:52.737
    Chapter #0.10: start 2710.207000, end 3257.171000
    Metadata:
      title           : 00:45:10.207
    Chapter #0.11: start 3257.171000, end 3513.093000
    Metadata:
      title           : 00:54:17.171
    Chapter #0.12: start 3513.093000, end 3741.988000
    Metadata:
      title           : 00:58:33.093
    Chapter #0.13: start 3741.988000, end 3870.033000
    Metadata:
      title           : 01:02:21.988
    Chapter #0.14: start 3870.033000, end 4031.945000
    Metadata:
      title           : 01:04:30.033
    Chapter #0.15: start 4031.945000, end 4379.125000
    Metadata:
      title           : 01:07:11.945
    Chapter #0.16: start 4379.125000, end 4645.266000
    Metadata:
      title           : 01:12:59.125
    Chapter #0.17: start 4645.266000, end 5100.095000
    Metadata:
      title           : 01:17:25.266
    Chapter #0.18: start 5100.095000, end 5282.819000
    Metadata:
      title           : 01:25:00.095
    Chapter #0.19: start 5282.819000, end 5465.627000
    Metadata:
      title           : 01:28:02.819
    Chapter #0.20: start 5465.627000, end 5711.122000
    Metadata:
      title           : 01:31:05.627
    Chapter #0.21: start 5711.122000, end 6254.874000
    Metadata:
      title           : 01:35:11.122
    Chapter #0.22: start 6254.874000, end 6317.102000
    Metadata:
      title           : 01:44:14.874
    Chapter #0.23: start 6317.102000, end 6693.573000
    Metadata:
      title           : 01:45:17.102
    Stream #0:0(eng): Video: h264 (High), yuv420p, 1920x808, SAR 1:1 DAR 240:101, 23.98 fps, 23.98 tbr, 1k tbn, 47.95 tbc (default)
    Stream #0:1(eng): Audio: dts (DTS), 48000 Hz, 5.1(side), fltp, 1536 kb/s (default)
    Stream #0:2(eng): Subtitle: subrip
[libx264 @ 04240020] using SAR=1/1
[libx264 @ 04240020] using cpu capabilities: MMX2 SSE2Fast SSSE3 SSE4.2
[libx264 @ 04240020] profile High, level 4.0
Output #0, mpegts, to 'C:\Users\strohj\AppData\Roaming\MediaBrowser-Server\cache\encoded-media\d266a649-ce8c-f3c3-e3f8-633de4ab9118.ts':
  Metadata:
    encoder         : Lavf55.21.100
    Chapter #0.0: start 0.000000, end 386.720000
    Metadata:
      title           : 00:00:00.000
    Chapter #0.1: start 386.720000, end 597.430000
    Metadata:
      title           : 00:06:26.720
    Chapter #0.2: start 597.430000, end 803.636000
    Metadata:
      title           : 00:09:57.430
    Chapter #0.3: start 803.636000, end 1030.947000
    Metadata:
      title           : 00:13:23.636
    Chapter #0.4: start 1030.947000, end 1328.494000
    Metadata:
      title           : 00:17:10.947
    Chapter #0.5: start 1328.494000, end 1666.081000
    Metadata:
      title           : 00:22:08.494
    Chapter #0.6: start 1666.081000, end 1906.822000
    Metadata:
      title           : 00:27:46.081
    Chapter #0.7: start 1906.822000, end 2216.256000
    Metadata:
      title           : 00:31:46.822
    Chapter #0.8: start 2216.256000, end 2572.737000
    Metadata:
      title           : 00:36:56.256
    Chapter #0.9: start 2572.737000, end 2710.207000
    Metadata:
      title           : 00:42:52.737
    Chapter #0.10: start 2710.207000, end 3257.171000
    Metadata:
      title           : 00:45:10.207
    Chapter #0.11: start 3257.171000, end 3513.093000
    Metadata:
      title           : 00:54:17.171
    Chapter #0.12: start 3513.093000, end 3741.988000
    Metadata:
      title           : 00:58:33.093
    Chapter #0.13: start 3741.988000, end 3870.033000
    Metadata:
      title           : 01:02:21.988
    Chapter #0.14: start 3870.033000, end 4031.945000
    Metadata:
      title           : 01:04:30.033
    Chapter #0.15: start 4031.945000, end 4379.125000
    Metadata:
      title           : 01:07:11.945
    Chapter #0.16: start 4379.125000, end 4645.266000
    Metadata:
      title           : 01:12:59.125
    Chapter #0.17: start 4645.266000, end 5100.095000
    Metadata:
      title           : 01:17:25.266
    Chapter #0.18: start 5100.095000, end 5282.819000
    Metadata:
      title           : 01:25:00.095
    Chapter #0.19: start 5282.819000, end 5465.627000
    Metadata:
      title           : 01:28:02.819
    Chapter #0.20: start 5465.627000, end 5711.122000
    Metadata:
      title           : 01:31:05.627
    Chapter #0.21: start 5711.122000, end 6254.874000
    Metadata:
      title           : 01:35:11.122
    Chapter #0.22: start 6254.874000, end 6317.102000
    Metadata:
      title           : 01:44:14.874
    Chapter #0.23: start 6317.102000, end 6693.573000
    Metadata:
      title           : 01:45:17.102
    Stream #0:0(eng): Video: h264 (libx264), yuv420p, 1920x808 [sAR 1:1 DAR 240:101], q=-1--1, 9799 kb/s, 90k tbn, 23.98 tbc (default)
    Stream #0:1(eng): Audio: mp3 (libmp3lame), 48000 Hz, stereo, fltp, 1536 kb/s (default)
Stream mapping:
  Stream #0:0 -> #0:0 (h264 -> libx264)
  Stream #0:1 -> #0:1 (dca -> libmp3lame)
Press [q] to stop, [?] for help
frame=   46 fps=0.0 q=0.0 size=     177kB time=00:00:01.96 bitrate= 737.4kbits/s    
frame=   56 fps= 54 q=0.0 size=    2069kB time=00:00:02.47 bitrate=6855.2kbits/s    
frame=   66 fps= 43 q=13.0 size=    5814kB time=00:00:02.80 bitrate=16961.4kbits/s    
frame=   82 fps= 40 q=20.0 size=    7632kB time=00:00:03.50 bitrate=17842.1kbits/s    
frame=  110 fps= 43 q=19.0 size=    8759kB time=00:00:04.70 bitrate=15252.5kbits/s    
frame=  136 fps= 44 q=15.0 size=    9316kB time=00:00:05.73 bitrate=13304.9kbits/s    
frame=  154 fps= 43 q=18.0 size=   10358kB time=00:00:06.50 bitrate=13045.5kbits/s    
frame=  169 fps= 42 q=19.0 size=   11604kB time=00:00:07.17 bitrate=13246.9kbits/s    
frame=  185 fps= 40 q=19.0 size=   12652kB time=00:00:07.77 bitrate=13328.4kbits/s    
frame=  199 fps= 39 q=20.0 size=   13597kB time=00:00:08.35 bitrate=13336.2kbits/s    
frame=  211 fps= 38 q=21.0 size=   14497kB time=00:00:08.92 bitrate=13301.3kbits/s    
frame=  226 fps= 37 q=22.0 size=   15588kB time=00:00:09.48 bitrate=13470.3kbits/s    
frame=  238 fps= 36 q=25.0 size=   16659kB time=00:00:09.98 bitrate=13668.8kbits/s    
frame=  250 fps= 35 q=26.0 size=   18113kB time=00:00:10.48 bitrate=14147.7kbits/s    
frame=  262 fps= 34 q=25.0 size=   19203kB time=00:00:11.01 bitrate=14280.3kbits/s    
frame=  279 fps= 34 q=25.0 size=   20286kB time=00:00:11.68 bitrate=14218.3kbits/s    
frame=  293 fps= 34 q=27.0 size=   20981kB time=00:00:12.28 bitrate=13987.1kbits/s    
frame=  312 fps= 34 q=24.0 size=   21775kB time=00:00:13.05 bitrate=13662.6kbits/s    
frame=  328 fps= 34 q=23.0 size=   22313kB time=00:00:13.80 bitrate=13245.3kbits/s    
frame=  347 fps= 34 q=25.0 size=   22885kB time=00:00:14.59 bitrate=12847.6kbits/s    
frame=  365 fps= 34 q=25.0 size=   23429kB time=00:00:15.26 bitrate=12574.0kbits/s    
frame=  385 fps= 34 q=23.0 size=   24069kB time=00:00:16.12 bitrate=12225.4kbits/s    
frame=  405 fps= 34 q=22.0 size=   24577kB time=00:00:16.99 bitrate=11848.5kbits/s    
frame=  426 fps= 35 q=23.0 size=   25130kB time=00:00:17.85 bitrate=11529.3kbits/s    
frame=  459 fps= 36 q=14.0 size=   25661kB time=00:00:19.22 bitrate=10935.0kbits/s    
frame=  487 fps= 37 q=20.0 size=   26366kB time=00:00:20.40 bitrate=10587.9kbits/s    
frame=  506 fps= 37 q=19.0 size=   27220kB time=00:00:21.24 bitrate=10498.2kbits/s    
frame=  525 fps= 37 q=18.0 size=   28074kB time=00:00:22.10 bitrate=10404.6kbits/s    
frame=  543 fps= 37 q=20.0 size=   28959kB time=00:00:22.70 bitrate=10448.8kbits/s    
frame=  560 fps= 37 q=20.0 size=   29798kB time=00:00:23.54 bitrate=10367.9kbits/s    
frame=  579 fps= 37 q=20.0 size=   30762kB time=00:00:24.24 bitrate=10396.2kbits/s    
frame=  595 fps= 37 q=20.0 size=   31599kB time=00:00:24.93 bitrate=10380.7kbits/s    
frame=  614 fps= 36 q=19.0 size=   32720kB time=00:00:25.77 bitrate=10398.7kbits/s    
frame=  631 fps= 36 q=20.0 size=   33609kB time=00:00:26.42 bitrate=10419.3kbits/s    
frame=  650 fps= 36 q=19.0 size=   34559kB time=00:00:27.21 bitrate=10402.1kbits/s    
frame=  667 fps= 36 q=20.0 size=   35532kB time=00:00:27.91 bitrate=10428.4kbits/s    
frame=  683 fps= 36 q=20.0 size=   36430kB time=00:00:28.75 bitrate=10379.7kbits/s    
frame=  698 fps= 36 q=20.0 size=   37363kB time=00:00:29.18 bitrate=10487.9kbits/s    
frame=  713 fps= 36 q=20.0 size=   38541kB time=00:00:29.78 bitrate=10600.6kbits/s    
frame=  728 fps= 36 q=20.0 size=   39702kB time=00:00:30.45 bitrate=10679.0kbits/s    
 

 

Share this post


Link to post
Share on other sites
ebr

What theme are you using?

Share this post


Link to post
Share on other sites
strohj

I am using the default theme (no other themes are even installed)

Share this post


Link to post
Share on other sites
Luke

if you're using the vlc external player profile, try the generic one.

  • Like 1

Share this post


Link to post
Share on other sites
strohj

if you're using the vlc external player profile, try the generic one.

That seems to work, but VLC remains open atfer the movie, I have to manually close it, then I get back into MBC after that.

 

Can I add a switch to VLC to tell it to close after the movie is over automatically?

Share this post


Link to post
Share on other sites
ebr

I believe it is: VLC:quit

Share this post


Link to post
Share on other sites
strohj

I found the switch to close VLC automatically........  Its in preferences under advanced options, for streaming, pick play and exit 

Share this post


Link to post
Share on other sites
Luke

yea i think it might be time to either deprecate the vlc profile or label is as compatible only with versions

Share this post


Link to post
Share on other sites
Jvtm

Hello All,

 

Love the program but recently have been running into lots of issues. I migrated from MB2.XX to MB3. In MB3, I tried to add vlc as the external player by using the generic profile and entering the vlc program path. This consistently causes a crash in the configurator.

 

i got so fed up i moved back to MB2.xx and now i get the same issue there. I am running win7 64 bit and VLC 2.1.2.0.

 

has anyone encountered this or have any idea what the solution here might be?

 

thanks!

Share this post


Link to post
Share on other sites

Create an account or sign in to comment

You need to be a member in order to leave a comment

Create an account

Sign up for a new account in our community. It's easy!

Register a new account

Sign in

Already have an account? Sign in here.

Sign In Now

×
×
  • Create New...