Jump to content
DaxterFL

Music (mp3) playback transcoding after first title / Pictures

Recommended Posts

DaxterFL

Not sure if this is App related but I would guess so...

First:

When I start a title in the Music section, for example the first title of an album, the tracks starts imediatly and with Direct Stream - no transcoding visible in the server, when the app switches to the next title of the album or if I hit "next" it takes a while until the title starts, and when it starts there is suddenly transcoding of the title. Nothing special, just 128kbit stereo mp3 titles. 

 

 

Second:
When I start the Picture section, I get the overview of the folders but when I select one, most of the time the app switches to the title menu after a while and not showing the selected picture.

 

I am running the app on a 2011 D-series BluRay player

  • Like 1

Share this post


Link to post
Share on other sites
FrostByte

I reported a similar issue with playing wma files.  Streams the first song in a playlist/album just fine, but with wma it never plays the next song.  Just locks up after trying to transcode it

Share this post


Link to post
Share on other sites
DaxterFL

To push this up again because it is still happening, here is the transcoding log of one file.

As said, this only happens at the second track of a folder / album, the first played never transcodes.

 

{"Protocol":"File","Id":"8161d96a318847758c3ff2951573b68c","Path":"/mnt/NAS2/Alben/Smash Mouth/As
tro Lounge/Smash Mouth - 03 - I Just Wanna See.mp3","Type":"Default","Container":"mp3","Size":541
0816,"Name":"I Just Wanna See","RunTimeTicks":2253060000,"ReadAtNativeFramerate":false,"SupportsT
ranscoding":true,"SupportsDirectStream":true,"SupportsDirectPlay":true,"RequiresOpening":false,"R
equiresClosing":false,"MediaStreams":[{"Codec":"mp3","IsInterlaced":false,"ChannelLayout":"stereo
","BitRate":192000,"Channels":2,"SampleRate":44100,"IsDefault":false,"IsForced":false,"Type":"Aud
io","Index":0,"IsExternal":false,"IsTextSubtitleStream":false,"SupportsExternalStream":false,"Lev
el":0}],"PlayableStreamFileNames":[],"Formats":["mp3"],"Bitrate":192123,"RequiredHttpHeaders":{}}
 
/usr/bin/ffmpeg -i file:"/mnt/NAS2/Alben/Smash Mouth/Astro Lounge/Smash Mouth - 03 - I Just Wanna
 See.mp3" -threads 0 -vn  -id3v2_version 3 -write_id3v1 1 -y "/var/lib/mediabrowser-server/transc
oding-temp/52144fc914baa117dbf636e1d960fece.mp3"
 
 
ffmpeg version 2.7.2 Copyright © 2000-2015 the FFmpeg developers
  built with gcc 5.2.0 (GCC)
  configuration: --prefix=/usr --disable-debug --disable-static --disable-stripping --enable-avis
ynth --enable-avresample --enable-fontconfig --enable-gnutls --enable-gpl --enable-libass --enabl
e-libbluray --enable-libfreetype --enable-libfribidi --enable-libgsm --enable-libmodplug --enable
-libmp3lame --enable-libopencore_amrnb --enable-libopencore_amrwb --enable-libopenjpeg --enable-l
ibopus --enable-libpulse --enable-libschroedinger --enable-libsoxr --enable-libspeex --enable-lib
ssh --enable-libtheora --enable-libv4l2 --enable-libvorbis --enable-libvpx --enable-libwebp --ena
ble-libx264 --enable-libx265 --enable-libxvid --enable-shared --enable-version3 --enable-x11grab
--host-cflags='"-fPIC"'
  libavutil      54. 27.100 / 54. 27.100
  libavcodec     56. 41.100 / 56. 41.100
  libavformat    56. 36.100 / 56. 36.100
  libavdevice    56.  4.100 / 56.  4.100
  libavfilter     5. 16.101 /  5. 16.101
  libavresample   2.  1.  0 /  2.  1.  0
  libswscale      3.  1.101 /  3.  1.101
  libswresample   1.  2.100 /  1.  2.100
  libpostproc    53.  3.100 / 53.  3.100
[mp3 @ 0x78df38c0] Skipping 0 bytes of junk at 3470.
Input #0, mp3, from 'file:/mnt/NAS2/Alben/Smash Mouth/Astro Lounge/Smash Mouth - 03 - I Just Wann
a See.mp3':
  Metadata:
    album           : Astro Lounge
    title           : I Just Wanna See
    TLEN            : 225266
    track           : 3
    publisher       : Universal Distribution
    album_artist    : Smash Mouth
    genre           : Alternative
    composer        : Greg Camp/Paul DeLisle
    artist          : Smash Mouth
    date            : 1999
  Duration: 00:03:45.31, start: 0.025057, bitrate: 192 kb/s
    Stream #0:0: Audio: mp3, 44100 Hz, stereo, s16p, 192 kb/s
    Metadata:
      encoder         : LAME3.92
Output #0, mp3, to '/var/lib/mediabrowser-server/transcoding-temp/52144fc914baa117dbf636e1d960fece.mp3':
  Metadata:
    TALB            : Astro Lounge
    TIT2            : I Just Wanna See
    TLEN            : 225266
    TRCK            : 3
    TPUB            : Universal Distribution
    TPE2            : Smash Mouth
    TCON            : Alternative
    TCOM            : Greg Camp/Paul DeLisle
    TPE1            : Smash Mouth
    TYER            : 1999
    TSSE            : Lavf56.36.100
    Stream #0:0: Audio: mp3 (libmp3lame), 44100 Hz, stereo, s16p
    Metadata:
      encoder         : Lavc56.41.100 libmp3lame
Stream mapping:
  Stream #0:0 -> #0:0 (mp3 (native) -> mp3 (libmp3lame))
Press [q] to stop, [?] for help
size=      27kB time=00:00:01.64 bitrate= 132.3kbits/s
size=      54kB time=00:00:03.37 bitrate= 130.1kbits/s
size=      80kB time=00:00:05.09 bitrate= 129.4kbits/s
size=     108kB time=00:00:06.84 bitrate= 129.0kbits/s
size=     135kB time=00:00:08.59 bitrate= 128.8kbits/s
size=     163kB time=00:00:10.34 bitrate= 128.7kbits/s
size=     191kB time=00:00:12.17 bitrate= 128.6kbits/s
size=     220kB time=00:00:14.00 bitrate= 128.5kbits/s
size=     248kB time=00:00:15.80 bitrate= 128.5kbits/s
size=     276kB time=00:00:17.63 bitrate= 128.4kbits/s
size=     305kB time=00:00:19.43 bitrate= 128.4kbits/s
size=     333kB time=00:00:21.23 bitrate= 128.3kbits/s
size=     361kB time=00:00:23.04 bitrate= 128.3kbits/s
size=     388kB time=00:00:24.79 bitrate= 128.3kbits/s
size=     416kB time=00:00:26.59 bitrate= 128.3kbits/s
size=     444kB time=00:00:28.37 bitrate= 128.3kbits/s
size=     472kB time=00:00:30.14 bitrate= 128.2kbits/s
size=     500kB time=00:00:31.94 bitrate= 128.2kbits/s
size=     528kB time=00:00:33.72 bitrate= 128.2kbits/s
size=     556kB time=00:00:35.55 bitrate= 128.2kbits/s
size=     583kB time=00:00:37.27 bitrate= 128.2kbits/s
size=     612kB time=00:00:39.13 bitrate= 128.2kbits/s
size=     641kB time=00:00:40.96 bitrate= 128.2kbits/s
size=     669kB time=00:00:42.78 bitrate= 128.2kbits/s
size=     698kB time=00:00:44.64 bitrate= 128.2kbits/s
size=     727kB time=00:00:46.47 bitrate= 128.2kbits/s
size=     754kB time=00:00:48.19 bitrate= 128.1kbits/s
size=     782kB time=00:00:49.99 bitrate= 128.1kbits/s
size=     811kB time=00:00:51.88 bitrate= 128.1kbits/s
size=     841kB time=00:00:53.76 bitrate= 128.1kbits/s
size=     870kB time=00:00:55.61 bitrate= 128.1kbits/s
size=     899kB time=00:00:57.47 bitrate= 128.1kbits/s
size=     928kB time=00:00:59.35 bitrate= 128.1kbits/s
size=     957kB time=00:01:01.20 bitrate= 128.1kbits/s
size=     986kB time=00:01:03.03 bitrate= 128.1kbits/s
  • Like 1

Share this post


Link to post
Share on other sites
DaxterFL

First issue seems to be resolved for me in the 0.593 Beta releases.

Second is not yet tested.

Share this post


Link to post
Share on other sites
cmcg

Thanks @@DaxterFL

 

Let me know how you get on with testing the second issue.

Share this post


Link to post
Share on other sites
DaxterFL

The bug in the pictures section is still there.

Can anyone test if this happens to other users?

  • Like 1

Share this post


Link to post
Share on other sites

Create an account or sign in to comment

You need to be a member in order to leave a comment

Create an account

Sign up for a new account in our community. It's easy!

Register a new account

Sign in

Already have an account? Sign in here.

Sign In Now

×
×
  • Create New...