Jump to content

Search the Community

Showing results for tags 'raspberrypi2 transcode'.

  • Search By Tags

    Type tags separated by commas.
  • Search By Author

Content Type


Forums

  • General
    • Announcements
    • Emby Premiere Purchase/Subscription Support
    • Feature Requests
    • Tutorials and Guides
  • Emby Server
    • General/Windows
    • Android Server
    • Asustor
    • FreeBSD
    • Linux
    • NetGear ReadyNAS
    • MacOS
    • QNAP
    • Synology
    • TerraMaster NAS
    • Thecus
    • Western Digital
    • DLNA
    • Live TV
  • Emby Apps
    • Amazon Alexa
    • Android Mobile
    • Android TV / Fire TV
    • Emby Theater
    • iOS
    • Apple TV
    • Kodi
    • Raspberry Pi
    • Roku
    • Samsung Smart TV
    • Sony PlayStation
    • LG Smart TV
    • Web App
    • Windows Media Center
    • Plugins
  • Language-specific support
    • Arabic
    • Dutch
    • French
    • German
    • Italian
    • Portuguese
    • Russian
    • Spanish
    • Swedish
  • Community Contributions
    • Ember for Emby
    • Fan Art & Videos
    • Tools and Utilities
    • Web App CSS
  • Other
    • General Discussion
    • Developer API
    • Hardware
    • Media Clubs
    • Legacy Support

Blogs

  • Emby Blog

Find results in...

Find results that contain...


Date Created

  • Start

    End


Last Updated

  • Start

    End


Filter by number of...

Found 1 result

  1. Hello, I successfully installed emby server on my raspberry pi 2 and the server runs smoothly. Unfortunately I encounter somme "lags" when playing a media via the web client. CPU seems to have some margin (load average ~3 on quadcore cpu) network seems ok (ethernet on both ends) since playing the media once the transcoding is finished is OK (also, playing a very low res media is also laggy) media is located on the sd card and temp transcode folder is also on the sd card Sample from transcoding logs: frame= 2154 fps= 15 q=0.0 size= 10069kB time=00:01:26.31 bitrate= 955.6kbits/s frame= 2161 fps= 15 q=0.0 size= 10095kB time=00:01:26.63 bitrate= 954.5kbits/s frame= 2167 fps= 15 q=0.0 size= 10143kB time=00:01:26.82 bitrate= 957.0kbits/s frame= 2173 fps= 15 q=0.0 size= 10173kB time=00:01:27.16 bitrate= 956.1kbits/s My question is: how would you investigate the bottleneck? How should I interprate the transcoding logs? Does anyone was able to have a smooth transcode using a raspberrypi 2? Many thanks
×
×
  • Create New...