Jump to content

Search the Community

Showing results for tags 'pgssub'.

  • Search By Tags

    Type tags separated by commas.
  • Search By Author

Content Type


Forums

  • General
    • Announcements
    • Emby Premiere Purchase/Subscription Support
    • Feature Requests
    • Tutorials and Guides
  • Emby Server
    • General/Windows
    • Android Server
    • Asustor
    • FreeBSD
    • Linux
    • NetGear ReadyNAS
    • MacOS
    • QNAP
    • Synology
    • TerraMaster NAS
    • Thecus
    • Western Digital
    • DLNA
    • Live TV
  • Emby Apps
    • Amazon Alexa
    • Android Mobile
    • Android TV / Fire TV
    • Emby Theater
    • iOS
    • Apple TV
    • Kodi
    • Raspberry Pi
    • Roku
    • Samsung Smart TV
    • Sony PlayStation
    • LG Smart TV
    • Web App
    • Windows Media Center
    • Plugins
  • Language-specific support
    • Arabic
    • Dutch
    • French
    • German
    • Italian
    • Portuguese
    • Russian
    • Spanish
    • Swedish
  • Community Contributions
    • Ember for Emby
    • Fan Art & Videos
    • Tools and Utilities
    • Web App CSS
  • Other
    • Non-Emby General Discussion
    • Developer API
    • Hardware
    • Media Clubs
    • Legacy Support

Blogs

  • Emby Blog

Calendars

There are no results to display.


Find results in...

Find results that contain...


Date Created

  • Start

    End


Last Updated

  • Start

    End


Filter by number of...

Found 3 results

  1. I have this file: General Format : Matroska Format version : Version 4 File size : 12.4 GiB Duration : 1 h 9 min Overall bit rate : 25.7 Mb/s Encoded date : UTC 2021-09-24 15:14:35 Writing application : mkvmerge v60.0.0 ('Are We Copies?') 64-bit Writing library : libebml v1.4.2 + libmatroska v1.6.4 Video ID : 1 Format : HEVC Format/Info : High Efficiency Video Coding Format profile : Main 10@L5@High HDR format : SMPTE ST 2086, HDR10 compatible Codec ID : V_MPEGH/ISO/HEVC Duration : 1 h 9 min Bit rate : 24.1 Mb/s Width : 3 840 pixels Height : 1 920 pixels Display aspect ratio : 2.000 Frame rate mode : Constant Frame rate : 23.976 FPS Color space : YUV Chroma subsampling : 4:2:0 (Type 2) Bit depth : 10 bits Bits/(Pixel*Frame) : 0.137 Stream size : 11.7 GiB (94%) Default : Yes Forced : No Color range : Limited Color primaries : BT.2020 Transfer characteristics : PQ Matrix coefficients : BT.2020 non-constant Mastering display color primaries : Display P3 Mastering display luminance : min: 0.0050 cd/m2, max: 1000 cd/m2 Maximum Content Light Level : 2666 cd/m2 Maximum Frame-Average Light Level : 1008 cd/m2 Audio #1 ID : 2 Format : E-AC-3 JOC Format/Info : Enhanced AC-3 with Joint Object Coding Commercial name : Dolby Digital Plus with Dolby Atmos Codec ID : A_EAC3 Duration : 1 h 9 min Bit rate mode : Constant Bit rate : 768 kb/s Channel(s) : 6 channels Channel layout : L R C LFE Ls Rs Sampling rate : 48.0 kHz Frame rate : 31.250 FPS (1536 SPF) Compression mode : Lossy Stream size : 380 MiB (3%) Title : Castellano DD+ 5.1 @ 768 kbps Language : Spanish Service kind : Complete Main Default : Yes Forced : No Complexity index : 16 Number of dynamic objects : 15 Bed channel count : 1 channel Bed channel configuration : LFE Audio #2 ID : 3 Format : E-AC-3 JOC Format/Info : Enhanced AC-3 with Joint Object Coding Commercial name : Dolby Digital Plus with Dolby Atmos Codec ID : A_EAC3 Duration : 1 h 9 min Bit rate mode : Constant Bit rate : 768 kb/s Channel(s) : 6 channels Channel layout : L R C LFE Ls Rs Sampling rate : 48.0 kHz Frame rate : 31.250 FPS (1536 SPF) Compression mode : Lossy Stream size : 380 MiB (3%) Title : Inglés DD+ 5.1 @ 768 kbps Language : English Service kind : Complete Main Default : No Forced : No Complexity index : 16 Number of dynamic objects : 15 Bed channel count : 1 channel Bed channel configuration : LFE Text #1 ID : 4 Format : PGS Muxing mode : zlib Codec ID : S_HDMV/PGS Codec ID/Info : Picture based subtitle format used on BDs/HD-DVDs Duration : 1 h 7 min Bit rate : 180 b/s Count of elements : 20 Stream size : 89.0 KiB (0%) Title : Castellano [Forzados] PGS Language : Spanish Default : No Forced : Yes Text #2 ID : 5 Format : UTF-8 Codec ID : S_TEXT/UTF8 Codec ID/Info : UTF-8 Plain Text Duration : 1 h 7 min Bit rate : 0 b/s Count of elements : 10 Stream size : 195 Bytes (0%) Title : Castellano [Forzados] SRT Language : Spanish Default : No Forced : Yes Text #3 ID : 6 Format : PGS Muxing mode : zlib Codec ID : S_HDMV/PGS Codec ID/Info : Picture based subtitle format used on BDs/HD-DVDs Duration : 1 h 7 min Bit rate : 31.6 kb/s Count of elements : 1640 Stream size : 15.2 MiB (0%) Title : Castellano [Completos] PGS Language : Spanish Default : No Forced : No Text #4 ID : 7 Format : UTF-8 Codec ID : S_TEXT/UTF8 Codec ID/Info : UTF-8 Plain Text Duration : 1 h 7 min Bit rate : 60 b/s Count of elements : 817 Stream size : 29.9 KiB (0%) Title : Castellano [Completos] SRT Language : Spanish Default : No Forced : No Text #5 ID : 8 Format : PGS Muxing mode : zlib Codec ID : S_HDMV/PGS Codec ID/Info : Picture based subtitle format used on BDs/HD-DVDs Duration : 1 h 6 min Bit rate : 31.1 kb/s Count of elements : 1614 Stream size : 14.8 MiB (0%) Title : Inglés [Completos] PGS Language : English Default : Yes Forced : No Text #6 ID : 9 Format : UTF-8 Codec ID : S_TEXT/UTF8 Codec ID/Info : UTF-8 Plain Text Duration : 1 h 6 min Bit rate : 58 b/s Count of elements : 807 Stream size : 28.6 KiB (0%) Title : Inglés [Completos] SRT Language : English Default : No Forced : No I have set Spanish language and in subtitles "Smart". In this file Emby selects ID 5 (plain text subtitles) as the default subtitle. Why don't it select ID 4 (in PGS format)?
  2. I am on latest beta of Emby Android TV app running on Google certified Android 8.0 TV. I have connected my TV to Sony HT-RT3 soundbar (via HDMI ARC) that supports only AC3 and EAC3 (no DTS). So if I play a video with DTS audio, Emby app transcodes audio alone and use the same video stream. All good and fine. But of late I am starting to notice an issue. Consider the following the scenarios. 4K HDR Video Dolby Digital+ 5.1 Audio SRT subtitle Result = Direct Playback 4K HDR Video Dolby Digital+ 5.1 Audio PGSSUB subtitle Result = Direct Playback 4K HDR Video DTS 5.1 Audio SRT subtitle Result = Direct video + Transcoded audio But if 4K HDR Video DTS 5.1 Audio PGSSUB subtitle Result = Transcoded video + Transcoded audio Is this the expected behaviour? I am not sure why PGSSUB needs to be burned (resulting in video transcoding) if audio is an unsupported format. I mean the app displays PGSSUB just fine if the audio is supported. So what difference does it make to subtitle whether the audio format is supported or not?
  3. Hi Some PGSSUB subtitles aren't rendering properly on my Nvidia Shield TV. Text based subtitles are fine, this only seems to happen with UHD remuxes. This is the on the latest 1.7.54g version. Some subtitles work fine on other UHD remuxes for example Interstellar. I'd be happy to provide more info if needed, I attached a photo for starters
×
×
  • Create New...