Jump to content

Search the Community

Showing results for tags 'i5-8400'.

  • Search By Tags

    Type tags separated by commas.
  • Search By Author

Content Type


Forums

  • General
    • Announcements
    • Emby Premiere Purchase/Subscription Support
    • Feature Requests
    • Tutorials and Guides
  • Emby Server
    • General/Windows
    • Android Server
    • Asustor
    • FreeBSD
    • Linux
    • NetGear ReadyNAS
    • MacOS
    • QNAP
    • Synology
    • TerraMaster NAS
    • Thecus
    • Western Digital
    • DLNA
    • Live TV
  • Emby Apps
    • Amazon Alexa
    • Android Mobile
    • Android TV / Fire TV
    • Emby Theater
    • iOS
    • Apple TV
    • Kodi
    • Raspberry Pi
    • Roku
    • Samsung Smart TV
    • Sony PlayStation
    • LG Smart TV
    • Web App
    • Windows Media Center
    • Plugins
  • Language-specific support
    • Arabic
    • Dutch
    • French
    • German
    • Italian
    • Portuguese
    • Russian
    • Spanish
    • Swedish
  • Community Contributions
    • Ember for Emby
    • Fan Art & Videos
    • Tools and Utilities
    • Web App CSS
  • Other
    • General Discussion
    • Developer API
    • Hardware
    • Media Clubs
    • Legacy Support

Blogs

  • Emby Blog

Find results in...

Find results that contain...


Date Created

  • Start

    End


Last Updated

  • Start

    End


Filter by number of...

Found 1 result

  1. Still new to Emby, ive been a premire member for about 9 mo. i read somewhere if i got a better cpu that i could transcode on the fly better. So i got an i5-8400. So i tried playing this vid streaming in my home network (windows 10) to S7 at 1080p 20mbps Subs off and it played, but the CPU was at 100% constantly. Should vid this be putting that kind of strain on my cpu? Format : Matroska Format version : Version 4 File size : 53.4 GiB Duration : 2 h 29 min Overall bit rate mode : Variable Overall bit rate : 51.2 Mb/s Movie name : iFT Encoded date : UTC 2018-08-07 20:22:42 Writing application : mkvmerge v22.0.0 ('At The End Of The World') 64-bit Writing library : libebml v1.3.5 + libmatroska v1.4.8 Video ID : 1 Format : HEVC Format/Info : High Efficiency Video Coding Format profile : Main 10@L5.1@High HDR format : SMPTE ST 2086, HDR10 compatible Codec ID : V_MPEGH/ISO/HEVC Duration : 2 h 29 min Bit rate : 45.9 Mb/s Width : 3 840 pixels Height : 2 160 pixels Display aspect ratio : 16:9 Frame rate mode : Constant Frame rate : 23.976 (24000/1001) FPS Color space : YUV Chroma subsampling : 4:2:0 (Type 2) Bit depth : 10 bits Bits/(Pixel*Frame) : 0.231 Stream size : 47.9 GiB (90%) Writing library : ATEME Titan File 3.8.16 (4.8.16.0) Default : Yes Forced : No Color range : Limited Color primaries : BT.2020 Transfer characteristics : PQ Matrix coefficients : BT.2020 non-constant Mastering display color primaries : Display P3 Mastering display luminance : min: 0.0001 cd/m2, max: 1000 cd/m2 Audio #1 ID : 2 Format : MLP FBA 16-ch Format/Info : Meridian Lossless Packing FBA with 16-channel presentation Commercial name : Dolby TrueHD with Dolby Atmos Codec ID : A_TRUEHD Duration : 2 h 29 min Bit rate mode : Variable Bit rate : 4 534 kb/s Maximum bit rate : 6 930 kb/s Channel(s) : 8 channels Channel layout : L R C LFE Ls Rs Lb Rb Sampling rate : 48.0 kHz Frame rate : 1 200.000 FPS (40 SPF) Compression mode : Lossless Stream size : 4.73 GiB (9%) Language : English Default : Yes Forced : No Number of dynamic objects : 13 Bed channel count : 1 channel Bed channel configuration : LFE Audio #2 ID : 3 Format : AC-3 Format/Info : Audio Coding 3 Commercial name : Dolby Digital Codec ID : A_AC3 Duration : 2 h 29 min Bit rate mode : Constant Bit rate : 640 kb/s Channel(s) : 6 channels Channel layout : L R C LFE Ls Rs Sampling rate : 48.0 kHz Frame rate : 31.250 FPS (1536 SPF) Bit depth : 16 bits Compression mode : Lossy Stream size : 684 MiB (1%) Title : AC3 embedded Language : English Service kind : Complete Main Default : No Forced : No Text #1 ID : 4 Format : PGS Muxing mode : zlib Codec ID : S_HDMV/PGS Codec ID/Info : Picture based subtitle format used on BDs/HD-DVDs Duration : 1 s 126 ms Bit rate : 87.8 kb/s Count of elements : 2 Stream size : 12.1 KiB (0%) Title : foreign parts only Language : English Default : Yes Forced : No
×
×
  • Create New...