Jump to content

Search the Community

Showing results for tags 'dts-x'.

  • Search By Tags

    Type tags separated by commas.
  • Search By Author

Content Type


Forums

  • General
    • Announcements
    • Emby Premiere Purchase/Subscription Support
    • Feature Requests
    • Tutorials and Guides
  • Emby Server
    • General/Windows
    • Android Server
    • Asustor
    • FreeBSD
    • Linux
    • NetGear ReadyNAS
    • MacOS
    • QNAP
    • Synology
    • TerraMaster NAS
    • Thecus
    • Western Digital
    • DLNA
    • Live TV
  • Emby Apps
    • Amazon Alexa
    • Android Mobile
    • Android TV / Fire TV
    • Emby Theater
    • iOS
    • Apple TV
    • Kodi
    • Raspberry Pi
    • Roku
    • Samsung Smart TV
    • Sony PlayStation
    • LG Smart TV
    • Web App
    • Windows Media Center
    • Plugins
  • Language-specific support
    • Arabic
    • Dutch
    • French
    • German
    • Italian
    • Portuguese
    • Russian
    • Spanish
    • Swedish
  • Community Contributions
    • Ember for Emby
    • Fan Art & Videos
    • Tools and Utilities
    • Web App CSS
  • Other
    • Non-Emby General Discussion
    • Developer API
    • Hardware
    • Media Clubs
    • Legacy Support

Blogs

  • Emby Blog

Calendars

There are no results to display.


Find results in...

Find results that contain...


Date Created

  • Start

    End


Last Updated

  • Start

    End


Filter by number of...

Found 1 result

  1. schmitty

    Audio codec detection

    Hello, Could audio codec detection be improved for Emby Server? The below is Atmos MediaInfo taken from Minions: Audio #1 ID : 2 Format : MLP FBA 16-ch Format/Info : Meridian Lossless Packing FBA with 16-channel presentation Commercial name : Dolby TrueHD with Dolby Atmos Codec ID : A_TRUEHD Duration : 1 h 30 min Bit rate mode : Variable Bit rate : 5 262 kb/s Maximum bit rate : 7 269 kb/s Channel(s) : 8 channels Channel layout : L R C LFE Ls Rs Lb Rb Sampling rate : 48.0 kHz Frame rate : 1 200.000 FPS (40 SPF) Compression mode : Lossless Stream size : 3.34 GiB (14%) Title : English - Dolby Atmos 7.1 Language : English Default : Yes Forced : No Number of dynamic objects : 11 Bed channel count : 1 channel Bed channel configuration : LFE When displayed in Emby, there is no mention of Dolby Atmos, only TRUEHD The below is DTS-X MediaInfo taken from Despicable Me 3: Audio #1 ID : 2 Format : DTS XLL X Format/Info : Digital Theater Systems Commercial name : DTS-HD Master Audio Codec ID : A_DTS Duration : 1 h 29 min Bit rate mode : Variable Bit rate : 3 595 kb/s Channel(s) : 8 channels Channel(s)_Original : Object Based Channel layout : Object Based Sampling rate : 48.0 kHz Frame rate : 93.750 FPS (512 SPF) Bit depth : 24 bits Stream size : 2.25 GiB (12%) Title : English - DTS-X 7.1 Language : English Default : Yes Forced : No When displayed in Emby, there is no mention of DTS-X, only DTS The below is DTS-HD MA MediaInfo taken from Forgetting Sarah Marshall: Audio #1 ID : 2 Format : DTS XLL Format/Info : Digital Theater Systems Commercial name : DTS-HD Master Audio Codec ID : A_DTS Duration : 1 h 57 min Bit rate mode : Variable Bit rate : 3 927 kb/s Channel(s) : 6 channels Channel layout : C L R Ls Rs LFE Sampling rate : 48.0 kHz Frame rate : 93.750 FPS (512 SPF) Bit depth : 24 bits Compression mode : Lossless Stream size : 3.23 GiB (16%) Title : DTS-HD MA 5.1 English Language : English Default : Yes Forced : No When displayed in Emby, there is no mention of DTS-HD MA, only DTS Dolby Atmos, DTS-X and DTS-HD MA as well as other DTS codecs (eg. DTS-HD, DTS-HD HRA) need to be displayed correctly in the audio select drop-down menus. Not the core codec names DTS and TRUEHD.
×
×
  • Create New...